osu file format v14

[General]
AudioFilename: SnowConnect.mp3
AudioLeadIn: 1500
PreviewTime: 47811
Countdown: 0
SampleSet: Soft
StackLeniency: 0.4
Mode: 0
LetterboxInBreaks: 0
WidescreenStoryboard: 0

[Editor]
DistanceSpacing: 1
BeatDivisor: 4
GridSize: 32
TimelineZoom: 0.5999998

[Metadata]
Title:Snow x Connect
TitleUnicode:Snow×Connect
Artist:Shimotsuki Haruka
ArtistUnicode:霜月はるか
Creator:-Nanaka-
Version:Normal
Source:ピュア×コネクト
Tags:Pure Connect SMEE Opening Visual Novel Eroge
BeatmapID:826059
BeatmapSetID:337742

[Difficulty]
HPDrainRate:4
CircleSize:3.5
OverallDifficulty:4
ApproachRate:4.5
SliderMultiplier:1.25
SliderTickRate:1

[Events]
//Background and Video events
Video,0,"SnowConnect.avi"
0,0,"BG3.jpg",0,0
//Break Periods
//Storyboard Layer 0 (Background)
//Storyboard Layer 1 (Fail)
//Storyboard Layer 2 (Pass)
//Storyboard Layer 3 (Foreground)
//Storyboard Sound Samples

[TimingPoints]
-908,495.867768595041,4,2,1,50,1,0
9009,-100,4,2,1,70,0,0
16943,-100,4,2,1,50,0,0
17439,-100,4,2,1,60,0,0
25125,-100,4,2,2,50,0,0
25620,-100,4,2,1,60,0,0
29091,-100,4,2,2,50,0,0
29587,-100,4,2,1,60,0,0
35042,-100,4,2,2,50,0,0
35538,-100,4,2,1,60,0,0
40496,-100,4,2,1,60,0,0
40744,-100,4,2,1,50,0,0
41116,-100,4,2,1,70,0,0
44711,-100,4,2,1,60,0,0
45207,-100,4,2,1,70,0,0
46695,-100,4,2,1,60,0,0
47439,-100,4,2,1,70,0,0
48678,-100,4,2,1,80,0,1
59959,-100,4,2,1,70,0,1
60331,-100,4,2,1,80,0,1
60827,-100,4,2,2,70,0,1
61323,-100,4,2,1,80,0,1
63802,-100,4,2,1,80,0,0
64546,-100,4,2,1,80,0,1
75827,-100,4,2,1,70,0,1
76199,-100,4,2,1,80,0,1
76695,-100,4,2,2,70,0,1
77439,-100,4,2,1,80,0,0
78430,-100,4,2,1,50,0,1
82397,-100,4,2,1,70,0,0
88472,-100,4,2,1,50,0,0
89091,-100,4,2,1,40,0,0
89463,495.867768595041,4,2,1,30,1,0
90021,495.867768595041,4,2,1,20,1,0
90733,495.867768595041,4,2,1,10,1,0
91724,495.867768595041,4,2,1,80,1,0

[Colours]
Combo1 : 218,153,105
Combo2 : 51,40,36
Combo3 : 255,21,138
Combo4 : 211,208,199
Combo5 : 255,255,36

[HitObjects]
72,96,827,5,0,0:0:0:0:
72,96,1075,2,0,B|132:104|168:72|168:72|220:68|276:100,1,187.5,2|2,0:0|0:0,0:0:0:0:
376,304,2811,1,0,0:0:0:0:
376,304,3058,2,0,B|316:296|280:328|280:328|228:332|172:300,1,187.5,2|2,0:0|0:0,0:0:0:0:
72,96,4794,5,0,0:0:0:0:
72,96,5042,2,0,P|148:64|260:104,1,187.5,2|2,0:0|0:0,0:0:0:0:
284,212,6282,2,0,P|340:176|364:112,1,125,2|0,0:0|0:0,0:0:0:0:
380,64,7025,2,0,L|400:268,1,187.5,2|2,0:0|0:0,0:0:0:0:
256,376,8513,1,2,0:0:0:0:
208,260,9009,6,0,P|168:244|112:244,1,93.75,4|8,0:1|0:0,0:0:0:0:
60,316,9753,2,0,P|28:264|36:196,1,125,4|0,0:1|0:0,0:0:0:0:
64,148,10496,1,2,0:0:0:0:
120,36,10992,2,0,P|176:32|232:60,1,93.75,4|8,0:1|0:0,0:0:0:0:
248,132,11736,2,0,P|308:128|368:80,1,125,4|0,0:1|0:0,0:0:0:0:
380,32,12480,1,10,0:0:0:0:
432,148,12976,6,0,P|444:192|444:264,1,93.75,4|8,0:1|0:0,0:0:0:0:
395,319,13720,2,0,L|267:335,1,125,4|2,0:1|0:0,0:0:0:0:
216,364,14463,2,0,L|152:352,1,62.5,0|8,0:0|0:0,0:0:0:0:
93,366,14959,2,0,P|21:274|77:146,1,250,4|2,0:1|0:0,0:0:0:0:
306,100,16943,6,0,P|370:144|426:160,1,125,4|8,0:1|0:1,0:0:0:0:
474,176,17687,1,8,0:0:0:0:
474,176,17934,2,0,P|477:248|510:310,1,125,2|8,0:0|0:1,0:0:0:0:
512,357,18678,1,0,0:0:0:0:
512,357,18926,2,0,L|385:376,1,125,10|8,0:0|0:1,0:0:0:0:
335,342,19670,6,0,L|190:329,1,125,8|2,0:0|0:0,0:0:0:0:
155,360,20414,2,0,P|118:350|86:327,1,62.5,8|8,0:1|0:0,0:0:0:0:
95,275,20910,2,0,P|129:220|121:156,1,125,2|8,0:0|0:1,0:0:0:0:
68,133,21653,2,0,P|129:161|206:147,1,125,10|0,0:0|0:0,0:0:0:0:
247,149,22397,1,8,0:1:0:0:
344,228,22893,6,0,P|380:172|380:104,1,125,10|8,0:0|0:1,0:0:0:0:
388,52,23637,2,0,P|452:32|520:60,2,125,8|2|8,0:0|0:0|0:0,0:0:0:0:
331,79,24877,2,0,B|277:113|277:113|229:64|140:77,1,187.5,2|8,0:0|0:0,0:0:0:0:
39,93,26116,2,0,P|19:72|5:40,2,62.5,2|8|0,0:0|0:1|0:0,0:0:0:0:
84,138,26860,6,0,P|130:176|213:159,1,125,10|8,0:0|0:1,0:0:0:0:
247,142,27604,2,0,L|207:289,1,125,10|0,0:0|0:0,0:0:0:0:
162,298,28348,1,8,0:1:0:0:
178,358,28596,1,8,0:0:0:0:
240,368,28844,6,0,P|304:308|464:320,1,250,2|0,0:0|0:0,0:0:0:0:
512,204,30331,2,0,L|496:56,1,125,8|10,0:1|0:0,0:0:0:0:
396,152,31323,2,0,L|388:292,1,125,8|2,0:1|0:0,0:0:0:0:
476,368,32315,1,8,0:1:0:0:
389,277,32811,6,0,P|324:264|248:296,1,125,4|8,0:1|0:1,0:0:0:0:
228,328,33554,2,0,P|164:340|92:320,1,125,2|0,0:0|0:0,0:0:0:0:
52,296,34298,1,8,0:1:0:0:
24,240,34546,1,8,0:0:0:0:
24,240,34794,2,0,B|0:168|12:100|12:100|64:140,1,187.5,2|0,0:0|0:0,0:0:0:0:
104,156,35786,2,0,L|232:132,1,125,2|8,0:0|0:1,0:0:0:0:
336,192,36777,6,0,L|468:212,1,125,10|8,0:0|0:1,0:0:0:0:
512,176,37521,2,0,P|524:128|504:56,1,125,2|0,0:0|0:0,0:0:0:0:
465,7,38265,1,8,0:1:0:0:
408,32,38513,1,8,0:0:0:0:
408,32,38761,6,0,B|358:46|358:46|315:34|315:34|266:46,1,125,2|8,0:0|0:1,0:0:0:0:
225,53,39505,1,0,0:0:0:0:
168,28,39753,2,0,P|140:124|131:170,1,125,2|8,0:0|0:1,0:0:0:0:
123,209,40496,1,8,0:0:0:0:
123,209,40744,6,0,P|180:210|219:249,1,93.75,4|8,0:1|0:1,0:0:0:0:
224,324,41488,2,0,P|312:348|412:320,1,187.5,10|8,0:0|0:1,0:0:0:0:
453,287,42480,1,8,0:0:0:0:
453,287,42728,2,0,P|457:236|453:191,1,93.75,2|8,0:0|0:1,0:0:0:0:
400,116,43472,2,0,P|312:88|220:128,1,187.5,10|8,0:0|0:1,0:0:0:0:
112,172,44711,6,0,P|146:215|219:246,1,125,4|4,0:1|0:1,0:0:0:0:
315,179,45703,1,10,0:0:0:0:
390,278,46199,1,8,0:1:0:0:
397,153,46695,2,0,P|372:116|324:94,2,93.75,4|4|10,0:1|0:1|0:0,0:0:0:0:
98,53,48678,6,0,L|79:183,1,125,6|8,0:1|0:1,0:0:0:0:
76,240,49422,1,0,0:0:0:0:
76,240,49670,2,0,P|140:224|216:248,1,125,2|8,0:1|0:1,0:0:0:0:
256,256,50414,1,2,0:0:0:0:
256,256,50662,2,0,P|296:216|312:164,2,93.75,2|2|0,0:1|0:0|0:0,0:0:0:0:
196,236,51653,2,0,P|140:224|64:244,1,125,2|8,0:1|0:1,0:0:0:0:
21,125,52645,6,0,B|44:46|119:53,1,125,2|8,0:1|0:1,0:0:0:0:
156,96,53389,1,0,0:0:0:0:
156,96,53637,2,0,P|216:112|280:92,1,125,2|8,0:1|0:1,0:0:0:0:
320,52,54381,1,0,0:0:0:0:
320,52,54629,2,0,P|384:32|444:52,2,125,2|10|2,0:1|0:1|0:1,0:0:0:0:
275,95,55868,1,0,0:0:0:0:
248,152,56116,6,0,P|236:216|168:268,1,125,10|6,0:1|0:1,0:0:0:0:
69,260,57108,2,0,P|38:226|24:190,1,62.5,8|0,0:1|0:0,0:0:0:0:
23,149,57604,2,0,P|44:103|127:66,1,125,2|8,0:1|0:1,0:0:0:0:
212,134,58596,2,0,L|294:114,1,62.5,2|0,0:1|0:0,0:0:0:0:
329,145,59091,2,0,L|401:158,1,62.5,8|0,0:1|0:0,0:0:0:0:
444,123,59587,6,0,P|472:177|468:230,2,93.75,2|2|0,0:1|0:0|0:0,0:0:0:0:
396,81,60579,2,0,B|336:40|279:71|279:71|221:39|157:83,1,250,2|2,0:1|0:1,0:0:0:0:
45,130,62067,1,8,0:1:0:0:
87,177,62315,1,2,0:0:0:0:
149,181,62563,6,0,P|205:165|234:114,2,93.75,6|2|8,0:1|0:0|0:0,0:0:0:0:
87,177,63554,1,6,0:1:0:0:
45,130,63802,2,0,P|30:110|18:63,2,62.5,2|8|2,0:0|0:0|0:0,0:0:0:0:
87,177,64546,6,0,L|67:328,1,125,6|8,0:1|0:1,0:0:0:0:
114,346,65290,1,0,0:0:0:0:
114,346,65538,2,0,P|177:328|255:357,1,125,2|8,0:1|0:1,0:0:0:0:
290,367,66282,1,2,0:0:0:0:
290,367,66530,2,0,P|338:343|370:283,2,93.75,2|2|0,0:1|0:0|0:0,0:0:0:0:
233,342,67521,2,0,P|173:328|114:346,1,125,2|8,0:1|0:1,0:0:0:0:
3,286,68513,6,0,P|48:240|131:230,1,125,2|8,0:1|0:1,0:0:0:0:
166,240,69257,1,0,0:0:0:0:
166,240,69505,2,0,P|224:254|301:229,1,125,2|8,0:1|0:1,0:0:0:0:
330,193,70249,1,0,0:0:0:0:
330,193,70496,2,0,B|329:150|329:150|349:114|325:50,2,125,2|10|2,0:1|0:1|0:1,0:0:0:0:
357,249,71736,1,0,0:0:0:0:
308,288,71984,6,0,P|244:272|184:296,1,125,10|6,0:1|0:1,0:0:0:0:
87,362,72976,2,0,P|52:349|21:316,1,62.5,8|0,0:1|0:0,0:0:0:0:
5,276,73472,2,0,P|-5:238|12:181,2,93.75,2|2|0,0:1|0:0|0:0,0:0:0:0:
33,332,74463,2,0,L|109:303,1,62.5,2|0,0:1|0:0,0:0:0:0:
152,322,74959,2,0,L|218:297,1,62.5,8|0,0:1|0:1,0:0:0:0:
271,314,75455,6,0,P|332:281|346:242,2,93.75,2|2|0,0:1|0:0|0:0,0:0:0:0:
226,270,76448,2,0,B|167:210|95:251|95:251|35:243|14:176,1,250,2|2,0:1|0:1,0:0:0:0:
200,16,78430,5,2,0:0:0:0:
17,187,79422,1,2,0:0:0:0:
262,234,80414,2,0,P|312:218|349:191,2,93.75,2|0|0,0:0|0:0|0:0,0:0:0:0:
211,197,81406,2,0,P|175:246|164:272,1,62.5,2|0,0:0|0:0,0:0:0:0:
162,308,81901,1,2,0:0:0:0:
276,360,82397,6,0,P|319:350|377:308,1,93.75,4|8,0:1|0:0,0:0:0:0:
412,248,83141,2,0,P|436:196|444:124,1,125,4|0,0:1|0:0,0:0:0:0:
436,68,83885,1,2,0:0:0:0:
316,108,84381,2,0,P|271:94|225:99,1,93.75,4|8,0:1|0:0,0:0:0:0:
133,117,85125,2,0,P|149:157|233:193,1,125,4|0,0:1|0:0,0:0:0:0:
280,200,85868,1,10,0:0:0:0:
405,201,86364,6,0,P|461:178|489:129,1,93.75,4|8,0:1|0:0,0:0:0:0:
394,114,87108,2,0,L|266:130,1,125,4|2,0:1|0:0,0:0:0:0:
226,174,87852,2,0,L|162:162,1,62.5,0|8,0:0|0:0,0:0:0:0:
103,149,88348,5,6,0:1:0:0:
256,192,88472,12,4,91724,0:1:0:0:
