osu file format v14

[General]
AudioFilename: SnowConnect.mp3
AudioLeadIn: 1500
PreviewTime: 47811
Countdown: 0
SampleSet: Soft
StackLeniency: 0.4
Mode: 0
LetterboxInBreaks: 0
WidescreenStoryboard: 0

[Editor]
DistanceSpacing: 0.8
BeatDivisor: 2
GridSize: 32
TimelineZoom: 0.3999997

[Metadata]
Title:Snow x Connect
TitleUnicode:Snow×Connect
Artist:Shimotsuki Haruka
ArtistUnicode:霜月はるか
Creator:-Nanaka-
Version:Easy
Source:ピュア×コネクト
Tags:Pure Connect SMEE Opening Visual Novel Eroge
BeatmapID:826057
BeatmapSetID:337742

[Difficulty]
HPDrainRate:2
CircleSize:3
OverallDifficulty:2
ApproachRate:2.5
SliderMultiplier:0.999999999999999
SliderTickRate:1

[Events]
//Background and Video events
Video,0,"SnowConnect.avi"
0,0,"BG2.jpg",0,0
//Break Periods
//Storyboard Layer 0 (Background)
//Storyboard Layer 1 (Fail)
//Storyboard Layer 2 (Pass)
//Storyboard Layer 3 (Foreground)
//Storyboard Sound Samples

[TimingPoints]
-908,495.867768595041,4,2,1,50,1,0
9009,-100,4,2,1,70,0,0
16943,-100,4,2,1,50,0,0
17191,-100,4,2,2,50,0,0
17934,-100,4,2,1,60,0,0
19174,-100,4,2,2,50,0,0
19670,-100,4,2,1,60,0,0
21158,-100,4,2,2,50,0,0
21653,-100,4,2,1,60,0,0
23141,-100,4,2,2,50,0,0
23637,-100,4,2,1,60,0,0
25125,-100,4,2,2,50,0,0
25620,-100,4,2,1,60,0,0
27108,-100,4,2,2,50,0,0
27604,-100,4,2,1,60,0,0
29091,-100,4,2,2,50,0,0
29587,-100,4,2,1,60,0,0
33058,-100,4,2,2,50,0,0
33554,-100,4,2,1,60,0,0
35042,-100,4,2,2,50,0,0
35538,-100,4,2,1,60,0,0
39009,-100,4,2,2,50,0,0
39505,-100,4,2,1,60,0,0
40744,-100,4,2,1,50,0,0
41488,-100,4,2,1,70,0,0
44711,-100,4,2,1,60,0,0
45207,-100,4,2,1,70,0,0
48678,-100,4,2,1,80,0,1
48926,-100,4,2,2,70,0,1
49422,-100,4,2,1,80,0,1
50910,-100,4,2,2,70,0,1
51406,-100,4,2,1,80,0,1
52893,-100,4,2,2,70,0,1
53389,-100,4,2,1,80,0,1
56860,-100,4,2,2,70,0,1
57356,-100,4,2,1,80,0,1
60827,-100,4,2,2,70,0,1
61323,-100,4,2,1,80,0,1
63802,-100,4,2,1,80,0,0
64546,-100,4,2,1,80,0,1
64794,-100,4,2,2,70,0,1
65290,-100,4,2,1,80,0,1
68761,-100,4,2,2,70,0,1
69257,-100,4,2,1,80,0,1
72728,-100,4,2,2,70,0,1
73224,-100,4,2,1,80,0,1
76695,-100,4,2,2,70,0,1
77439,-100,4,2,1,80,0,0
78430,-100,4,2,1,50,0,1
82397,-100,4,2,1,70,0,0
88472,-100,4,2,1,50,0,0
89091,-100,4,2,1,40,0,0
89463,495.867768595041,4,2,1,30,1,0
90021,495.867768595041,4,2,1,20,1,0
90733,495.867768595041,4,2,1,10,1,0
91724,495.867768595041,4,2,1,80,1,0

[Colours]
Combo1 : 218,153,105
Combo2 : 51,40,36
Combo3 : 255,21,138
Combo4 : 211,208,199
Combo5 : 255,255,36

[HitObjects]
56,80,1075,6,0,P|128:56|224:92,1,150,2|2,0:0|0:0,0:0:0:0:
356,196,3058,2,0,P|284:214|208:192,1,150,2|2,0:0|0:0,0:0:0:0:
56,320,5042,6,0,L|42:157,1,150,2|2,0:0|0:0,0:0:0:0:
74,96,6282,1,2,0:0:0:0:
164,176,7025,2,0,P|236:156|332:184,1,150,2|2,0:0|0:0,0:0:0:0:
392,256,8513,1,2,0:0:0:0:
440,192,9009,6,0,B|457:117|457:117|427:77|453:29,1,150,4|4,0:1|0:1,0:0:0:0:
356,128,10496,1,2,0:0:0:0:
287,86,10992,2,0,B|217:69|217:69|124:90,1,150,4|4,0:1|0:1,0:0:0:0:
40,152,12480,1,2,0:0:0:0:
76,224,12976,6,0,B|60:272|60:272|72:312|72:312|52:372,2,150,4|4|0,0:1|0:1|0:0,0:0:0:0:
140,176,14959,2,0,P|232:152|360:188,1,200,4|2,0:1|0:0,0:0:0:0:
436,296,16943,6,0,P|476:208|472:104,1,200,4|2,0:1|0:0,0:0:0:0:
426,40,18430,1,8,0:1:0:0:
372,100,18926,2,0,L|212:76,1,150,10|8,0:0|0:0,0:0:0:0:
144,68,20166,1,2,0:0:0:0:
90,175,20910,6,0,B|74:231|74:231|98:275|74:331,2,150,10|10|8,0:0|0:0|0:1,0:0:0:0:
133,107,22893,2,0,P|209:83|309:131,2,150,10|8|8,0:0|0:0|0:1,0:0:0:0:
78,165,24877,6,0,P|56:226|95:330,1,150,2|8,0:0|0:0,0:0:0:0:
176,371,26364,1,8,0:1:0:0:
214,300,26860,2,0,B|281:288|326:312|326:312|350:296|386:288,2,150,2|10|8,0:0|0:0|0:1,0:0:0:0:
133,303,28844,6,0,B|-7:291|10:131,1,200,2|0,0:0|0:0,0:0:0:0:
27,96,30331,1,8,0:1:0:0:
108,100,30827,2,0,L|232:92,1,99.9999999999999,10|8,0:0|0:1,0:0:0:0:
263,151,31819,2,0,L|375:143,1,99.9999999999999,2|8,0:0|0:1,0:0:0:0:
385,67,32811,6,0,P|445:136|377:224,1,200,4|0,0:1|0:0,0:0:0:0:
325,259,34298,1,8,0:1:0:0:
252,224,34794,2,0,P|160:188|52:244,1,200,2|2,0:0|0:0,0:0:0:0:
160,356,36777,6,0,P|208:368|264:352,2,99.9999999999999,10|8|10,0:0|0:1|0:0,0:0:0:0:
92,312,38265,1,8,0:1:0:0:
100,232,38761,2,0,B|92:164|92:164|112:108|112:108|92:28,1,200,2|0,0:0|0:0,0:0:0:0:
184,172,40744,6,0,B|258:158|258:158|361:176,1,150,4|10,0:1|0:0,0:0:0:0:
475,309,42728,2,0,B|401:323|401:323|298:305,1,150,2|10,0:0|0:0,0:0:0:0:
207,150,44711,6,0,P|296:122|323:132,1,99.9999999999999,4|4,0:1|0:1,0:0:0:0:
377,134,45703,2,0,P|452:194|455:233,1,99.9999999999999,10|8,0:0|0:1,0:0:0:0:
440,272,46695,2,0,B|412:292|388:324|388:324|356:296|280:320,1,150,4|10,0:1|0:0,0:0:0:0:
121,359,48678,6,0,B|-1:336|3:195,1,200,6|2,0:1|0:1,0:0:0:0:
20,140,50166,1,8,0:1:0:0:
74,80,50662,2,0,P|169:44|271:83,1,200,2|2,0:1|0:1,0:0:0:0:
320,124,52149,1,8,0:1:0:0:
278,192,52645,6,0,P|261:282|378:300,1,200,2|2,0:1|0:1,0:0:0:0:
424,295,54133,1,8,0:1:0:0:
486,245,54629,2,0,P|464:200|410:161,1,99.9999999999999,2|10,0:1|0:1,0:0:0:0:
346,170,55620,2,0,P|308:199|283:282,1,99.9999999999999,2|10,0:1|0:1,0:0:0:0:
332,309,56612,6,0,B|265:268|200:306|200:306|146:275,1,200,6|2,0:1|0:1,0:0:0:0:
83,228,58100,1,8,0:1:0:0:
15,270,58596,2,0,B|5:312|18:341|18:341|11:378,2,99.9999999999999,2|8|2,0:1|0:1|0:1,0:0:0:0:
16,190,60083,1,8,0:1:0:0:
74,135,60579,6,0,P|182:152|262:257,1,200,2|2,0:1|0:1,0:0:0:0:
278,286,62067,1,8,0:1:0:0:
329,347,62563,2,0,B|393:307|464:350|464:350|493:288,1,200,6|6,0:1|0:1,0:0:0:0:
512,222,64050,1,8,0:1:0:0:
503,142,64546,6,0,B|478:90|478:90|407:133|343:93,1,200,6|2,0:1|0:1,0:0:0:0:
276,50,66034,1,8,0:1:0:0:
207,91,66530,2,0,P|167:125|103:146,1,99.9999999999999,2|8,0:1|0:1,0:0:0:0:
78,209,67521,2,0,L|103:352,1,99.9999999999999,2|8,0:1|0:1,0:0:0:0:
164,348,68513,6,0,P|248:296|360:296,1,200,2|2,0:1|0:1,0:0:0:0:
416,332,70001,1,8,0:1:0:0:
431,253,70496,2,0,L|451:141,1,99.9999999999999,2|10,0:1|0:1,0:0:0:0:
371,141,71488,2,0,L|349:261,1,99.9999999999999,2|10,0:1|0:1,0:0:0:0:
317,311,72480,6,0,B|272:273|272:273|216:315|119:316,1,200,6|2,0:1|0:1,0:0:0:0:
80,260,73968,1,8,0:1:0:0:
29,322,74463,2,0,P|5:284|17:208,2,99.9999999999999,2|8|2,0:1|0:1|0:1,0:0:0:0:
100,357,75951,1,8,0:1:0:0:
172,322,76447,2,0,B|270:260|376:328,1,200,2|0,0:1|0:0,0:0:0:0:
427,173,78430,5,2,0:0:0:0:
316,60,79422,1,2,0:0:0:0:
252,208,80414,2,0,P|157:238|56:199,1,200,2|2,0:0|0:0,0:0:0:0:
16,142,81901,1,2,0:0:0:0:
95,130,82397,6,0,B|156:108|156:108|203:135|257:124,1,150,4|4,0:1|0:1,0:0:0:0:
355,101,83885,1,2,0:0:0:0:
427,65,84381,2,0,P|423:149|338:179,1,150,4|4,0:1|0:1,0:0:0:0:
256,150,85868,1,2,0:0:0:0:
240,228,86364,2,0,B|224:276|224:276|236:316|236:316|216:376,2,150,4|4|0,0:1|0:1|0:0,0:0:0:0:
256,150,88348,5,6,0:1:0:0:
256,192,88472,12,4,91724,0:1:0:0:
