osu file format v14

[General]
AudioFilename: ReCall.mp3
AudioLeadIn: 0
PreviewTime: 90129
Countdown: 0
SampleSet: Soft
StackLeniency: 0.7
Mode: 0
LetterboxInBreaks: 1
WidescreenStoryboard: 0

[Editor]
Bookmarks: 8195,49483,93344,134633,155278,175923,196568,218987,231567,237857,262373,289467,294628,299789,304950,310110
DistanceSpacing: 1.8
BeatDivisor: 8
GridSize: 4
TimelineZoom: 1.9

[Metadata]
Title:Re:Call
TitleUnicode:Re:Call
Artist:Shimotsuki Haruka
ArtistUnicode:霜月はるか
Creator:KaedekaShizuru
Version:Re:Fate
Source:できない私が、くり返す。
Tags:Dekinai Watashi ga, Kurikaesu. I will start over again and again for you Visual Novel Eroge galgame opening collab Hollow Wings Minakami Yuki imoutosan
BeatmapID:662836
BeatmapSetID:294900

[Difficulty]
HPDrainRate:7
CircleSize:4
OverallDifficulty:8
ApproachRate:9
SliderMultiplier:1.7
SliderTickRate:4

[Events]
//Background and Video events
0,0,"BG.jpg",0,0
//Break Periods
//Storyboard Layer 0 (Background)
//Storyboard Layer 1 (Fail)
//Storyboard Layer 2 (Pass)
//Storyboard Layer 3 (Foreground)
//Storyboard Sound Samples

[TimingPoints]
8194,645.161290322581,4,2,1,30,1,0
8194,-142.857142857143,4,2,1,30,0,0
18516,-125,4,2,1,30,0,0
28839,-125,4,2,4,35,0,0
48839,-125,4,2,1,40,0,0
49484,-100,4,2,4,35,0,0
49645,-100,4,2,1,35,0,0
59806,-100,4,2,4,35,0,0
59968,-100,4,2,1,35,0,0
69323,-100,4,2,5,35,0,0
69484,-100,4,2,1,35,0,0
70128,-83.3333333333333,4,2,3,45,0,0
72709,-100,4,2,3,45,0,0
89484,-100,4,2,1,35,0,0
90129,659.340659340659,4,2,1,35,1,0
90788,638.297872340426,4,2,1,35,1,0
92064,659.340659340659,4,2,1,35,1,0
92723,-100,4,2,1,30,0,0
93053,582.52427184466,4,2,1,30,1,0
93344,645.150884663151,4,2,1,45,1,0
93344,-66.6666666666667,4,2,1,60,0,1
97214,-66.6666666666667,4,2,4,60,0,1
97295,-66.6666666666667,4,2,1,60,0,1
102376,-66.6666666666667,4,2,4,60,0,1
102456,-66.6666666666667,4,2,1,60,0,1
104956,-66.6666666666667,4,2,4,60,0,1
105037,-66.6666666666667,4,2,1,60,0,1
112698,-66.6666666666667,4,2,4,60,0,1
112779,-66.6666666666667,4,2,1,60,0,1
113504,-133.333333333333,4,2,1,60,0,1
113988,-66.6666666666667,4,2,1,60,0,1
117859,-66.6666666666667,4,2,4,60,0,1
117940,-66.6666666666667,4,2,1,60,0,1
123020,-66.6666666666667,4,2,4,60,0,1
123101,-66.6666666666667,4,2,1,60,0,1
134633,-100,4,2,4,40,0,0
134714,-100,4,2,1,20,0,0
135843,-100,4,2,4,40,0,0
136004,-100,4,2,1,20,0,0
137133,-100,4,2,4,40,0,0
137294,-100,4,2,1,20,0,0
138504,-100,4,2,1,40,0,0
139794,-100,4,2,4,40,0,0
153988,-100,4,2,4,20,0,0
154472,-100,4,2,5,40,0,0
154633,-100,4,2,1,40,0,0
155278,-166.666666666667,4,2,3,35,0,0
175923,-100,4,2,3,30,0,0
179713,-100,4,2,5,30,0,0
179874,-100,4,2,3,30,0,0
185600,-100,4,2,3,45,0,0
186245,-100,4,2,3,40,0,0
195277,-66.6666666666667,4,2,3,45,0,0
195922,-100,4,2,3,45,0,0
196568,-66.6666666666667,4,2,1,60,0,1
201406,-50,4,2,1,60,0,1
201729,-66.6666666666667,4,2,1,60,0,1
206084,-50,4,2,1,60,0,1
206890,-66.6666666666667,4,2,1,60,0,1
237535,-50,4,2,1,60,0,1
237857,-57.1428571428571,4,2,1,55,0,0
242373,-133.333333333333,4,2,1,55,0,0
243019,-57.1428571428571,4,2,1,55,0,0
251405,-50,4,2,1,55,0,0
252051,-57.1428571428571,4,2,1,55,0,0
255922,-50,4,2,1,55,0,0
263018,681.818181818182,4,2,1,35,1,0
263699,628.930817610063,4,2,1,35,1,0
264956,659.340659340659,4,2,1,35,1,0
266274,631.578947368421,4,2,1,35,1,0
267537,681.818181818182,4,2,1,35,1,0
268218,571.428571428571,4,2,1,35,1,0
268218,-133.333333333333,4,2,1,40,0,0
268503,645.161290322581,4,2,1,40,1,0
268825,645.091925599398,4,2,4,40,1,0
268986,-100,4,2,1,40,0,0
279146,-100,4,2,4,40,0,0
279307,-100,4,2,1,40,0,0
288822,-133.333333333333,4,2,1,55,0,0
289467,-50,4,2,1,60,0,1
290596,-50,4,2,3,60,0,1
291403,-50,4,2,1,60,0,1
293177,-50,4,2,3,60,0,1
293983,-66.6666666666667,4,2,1,60,0,1
294628,-50,4,2,1,60,0,1
299789,-66.6666666666667,4,2,1,60,0,1
300434,-50,4,2,1,60,0,1
300757,-57.1428571428571,4,2,1,60,0,1
301240,-50,4,2,1,60,0,1
302369,-100,4,2,1,60,0,1
302853,-80,4,2,1,60,0,1
303337,-50,4,2,1,60,0,1
303982,-100,4,2,1,60,0,1
304305,-50,4,2,1,60,0,1
310110,-200,4,2,4,40,0,0
310191,-200,4,2,1,20,0,0
311401,-200,4,2,4,40,0,0
311481,-200,4,2,1,20,0,0
312691,-200,4,2,4,40,0,0
312771,-200,4,2,1,20,0,0
313981,-200,4,2,4,40,0,0
314062,-200,4,2,1,20,0,0
315271,-200,4,2,4,40,0,0
315352,-200,4,2,1,20,0,0
316561,-200,4,2,4,40,0,0
316642,-200,4,2,1,20,0,0
317851,-200,4,2,4,40,0,0
317932,-200,4,2,1,20,0,0
319142,-200,4,2,4,40,0,0
319222,-200,4,2,1,20,0,0
320432,-200,4,2,4,40,0,0
330753,652.173913043478,4,2,1,20,1,0
332057,659.340659340659,4,2,1,20,1,0
333375,638.297872340426,4,2,1,20,1,0
334651,645.150884663151,4,2,1,20,1,0

[Colours]
Combo1 : 184,255,113
Combo2 : 255,196,225
Combo3 : 255,128,0
Combo4 : 193,193,255
Combo5 : 226,0,91

[HitObjects]
264,100,8194,6,0,L|212:140,1,59.4999981842042
144,188,8677,1,0,0:0:0:0:
2,355,9000,2,0,P|26:346|60:344,1,59.4999981842042,2|0,0:0|0:0,0:0:0:0:
152,352,9484,5,0,0:0:0:0:
304,216,9806,2,0,L|288:240,1,29.7499990921021
296,332,10129,2,0,L|254:338,2,29.7499990921021,2|0|0,0:0|0:0|0:0,0:0:0:0:
491,338,10774,6,0,P|478:315|471:283,1,59.4999981842042
472,192,11258,1,0,0:0:0:0:
292,88,11581,2,0,L|325:99,1,29.7499990921021,2|0,0:0|0:0,0:0:0:0:
416,64,11903,1,0,0:0:0:0:
344,184,12064,6,0,L|300:228,1,59.4999981842042
236,288,12548,1,0,0:0:0:0:
104,304,12710,2,0,L|148:260,1,59.4999981842042,2|0,0:0|0:0,0:0:0:0:
212,200,13194,1,0,0:0:0:0:
120,32,13516,6,0,L|92:48,1,29.7499990921021
8,88,13839,1,0,0:0:0:0:
16,188,14000,2,0,P|52:172|80:168,1,59.4999981842042,2|0,0:0|0:0,0:0:0:0:
168,164,14484,1,0,0:0:0:0:
300,140,14645,6,0,P|272:168|264:188,1,59.4999981842042
248,280,15129,1,0,0:0:0:0:
268,372,15290,2,0,L|304:364,1,29.7499990921021,2|0,0:0|0:0,0:0:0:0:
392,368,15613,1,0,0:0:0:0:
424,280,15774,1,0,0:0:0:0:
437,149,15935,6,0,L|392:188,1,59.4999981842042
300,204,16419,1,0,0:0:0:0:
208,144,16581,2,0,L|240:132,2,29.7499990921021,2|0|0,0:0|0:0|0:0,0:0:0:0:
120,176,17064,1,0,0:0:0:0:
4,188,17226,6,0,P|24:156|32:128,1,59.4999981842042
40,40,17710,1,0,0:0:0:0:
224,96,18032,2,0,L|264:100,2,29.7499990921021,2|0|0,0:0|0:0|0:0,0:0:0:0:
135,225,18516,6,0,P|164:207|196:196,1,68
352,224,19000,2,0,P|323:242|292:254,1,68,0|2,0:0|0:0,0:0:0:0:
240,344,19484,1,0,0:0:0:0:
344,348,19645,1,0,0:0:0:0:
344,348,19806,6,0,P|376:338|409:334,1,68
512,352,20290,1,0,0:0:0:0:
512,352,20452,2,0,P|508:312|496:272,1,68,2|0,0:0|0:0,0:0:0:0:
432,92,21097,6,0,P|420:136|420:164,1,68
432,260,21581,1,0,0:0:0:0:
252,352,21903,2,0,P|260:336|264:320,1,34,2|0,0:0|0:0,0:0:0:0:
260,216,22226,1,0,0:0:0:0:
109,260,22387,6,0,P|142:267|176:272,1,68
260,216,22871,1,0,0:0:0:0:
344,144,23032,2,0,P|362:177|368:212,1,68,2|0,0:0|0:0,0:0:0:0:
444,276,23516,1,0,0:0:0:0:
444,276,23677,6,0,P|412:300|376:308,1,68
284,312,24161,1,0,0:0:0:0:
164,320,24323,2,0,L|184:292,1,34,0|2,0:0|0:0,0:0:0:0:
44,264,24645,2,0,L|80:260,1,34
147,128,24968,6,0,P|154:162|156:196,1,68
144,296,25452,1,0,0:0:0:0:
244,324,25613,2,0,P|244:340|248:360,2,34,0|2|0,0:0|0:0|0:0,0:0:0:0:
256,224,26097,1,0,0:0:0:0:
336,160,26258,6,0,P|352:192|360:224,1,68
444,280,26742,1,0,0:0:0:0:
444,280,26903,2,0,L|460:240,1,34,0|2,0:0|0:0,0:0:0:0:
500,104,27226,1,0,0:0:0:0:
412,156,27387,1,0,0:0:0:0:
245,141,27548,6,0,P|279:137|312:128,1,68
224,40,28032,2,0,P|192:53|163:70,1,68
68,172,28516,1,0,0:0:0:0:
184,304,28677,1,0,0:0:0:0:
356,256,28839,1,4,0:0:0:0:
256,192,29000,12,4,39161,0:0:0:0:
256,192,39242,12,0,48839,0:0:0:0:
332,316,49484,6,0,P|364:288|408:268,1,85,4|0,0:0|0:0,0:0:0:0:
484,127,49968,2,0,P|452:155|413:174,1,85,0|2,0:0|0:0,0:0:0:0:
308,180,50452,1,0,0:0:0:0:
308,180,50613,1,0,0:0:0:0:
236,104,50774,6,0,P|212:140|200:180,1,85
124,240,51258,1,0,0:0:0:0:
124,240,51419,2,0,L|158:264,2,42.5,2|0|0,0:0|0:0|0:0,0:0:0:0:
136,136,51903,1,0,0:0:0:0:
0,120,52064,6,0,P|32:92|55:57,1,85
40,220,52548,1,0,0:0:0:0:
140,184,52710,2,0,L|182:180,2,42.5,2|0|0,0:0|0:0|0:0,0:0:0:0:
288,168,53194,1,2,0:0:0:0:
328,264,53355,6,0,P|356:248|372:232,1,42.5,0|2,0:0|0:0,0:0:0:0:
452,180,53677,2,0,P|452:147|446:125,1,42.5,0|2,0:0|0:0,0:0:0:0:
408,40,54000,2,0,P|376:68|348:104,1,85,2|0,0:0|0:0,0:0:0:0:
214,217,54484,2,0,P|234:180|248:140,1,85,2|0,0:0|0:0,0:0:0:0:
248,32,54968,5,0,0:0:0:0:
156,84,55129,1,0,0:0:0:0:
40,32,55290,2,0,P|52:80|52:120,1,85,2|0,0:0|0:0,0:0:0:0:
24,216,55774,1,2,0:0:0:0:
24,216,55935,6,0,P|60:200|80:196,1,42.5,0|2,0:0|0:0,0:0:0:0:
164,176,56258,1,0,0:0:0:0:
128,276,56419,1,0,0:0:0:0:
251,342,56581,2,0,P|238:301|232:260,1,85,2|0,0:0|0:0,0:0:0:0:
164,176,57064,1,2,0:0:0:0:
164,176,57226,6,0,L|120:196,2,42.5
268,148,57710,1,0,0:0:0:0:
344,16,57871,2,0,P|357:56|363:98,1,85,2|0,0:0|0:0,0:0:0:0:
352,204,58355,1,2,0:0:0:0:
440,260,58516,6,0,P|444:280|456:304,2,42.5,0|2|0,0:0|0:0|0:0,0:0:0:0:
444,152,59000,1,0,0:0:0:0:
352,204,59161,2,0,L|328:240,1,42.5,2|0,0:0|0:0,0:0:0:0:
254,346,59484,2,0,L|296:340,1,42.5,0|2,0:0|0:0,0:0:0:0:
200,256,59806,6,0,P|160:265|112:284,1,85,4|0,0:0|0:0,0:0:0:0:
8,308,60290,1,0,0:0:0:0:
8,308,60452,2,0,P|19:268|27:217,1,85,2|0,0:0|0:0,0:0:0:0:
105,127,60935,2,0,P|107:148|116:168,1,42.5,2|0,0:0|0:0,0:0:0:0:
172,256,61258,5,0,0:0:0:0:
264,308,61419,2,0,P|272:288|275:267,1,42.5
272,160,61742,1,2,0:0:0:0:
364,212,61903,1,0,0:0:0:0:
452,152,62064,2,0,P|468:180|472:196,1,42.5,0|2,0:0|0:0,0:0:0:0:
512,288,62387,6,0,P|480:328|448:352,1,85
303,369,62871,2,0,P|325:333|356:304,1,85,2|0,0:0|0:0,0:0:0:0:
360,196,63355,2,0,L|308:212,1,42.5,0|2,0:0|0:0,0:0:0:0:
216,232,63677,5,0,0:0:0:0:
248,132,63839,1,2,0:0:0:0:
204,36,64000,2,0,P|184:48|168:64,1,42.5
68,88,64323,2,0,P|88:136|92:176,1,85,2|0,0:0|0:0,0:0:0:0:
39,296,64806,2,0,P|78:278|120:271,1,85,2|0,0:0|0:0,0:0:0:0:
224,240,65290,6,0,P|228:272|228:296,1,42.5
328,316,65613,2,0,P|321:336|317:357,2,42.5,2|0|0,0:0|0:0|0:0,0:0:0:0:
360,216,66097,1,2,0:0:0:0:
416,76,66258,6,0,P|427:116|444:155,1,85
500,248,66742,1,0,0:0:0:0:
500,248,66903,2,0,P|472:256|448:276,1,42.5,2|0,0:0|0:0,0:0:0:0:
361,372,67226,2,0,P|377:358|388:340,1,42.5,0|2,0:0|0:0,0:0:0:0:
325,218,67548,6,0,P|304:255|292:296,1,85
204,352,68032,1,0,0:0:0:0:
96,364,68194,2,0,P|100:340|100:312,1,42.5,2|0,0:0|0:0,0:0:0:0:
72,220,68516,1,0,0:0:0:0:
68,84,68677,2,0,P|97:114|134:135,1,85,2|2,0:0|0:0,0:0:0:0:
240,144,69161,5,0,0:0:0:0:
168,4,69323,1,2,0:0:0:0:
168,4,69403,1,2,0:0:0:0:
168,4,69484,1,2,0:0:0:0:
168,216,69645,1,0,0:0:0:0:
364,296,69806,1,0,1:0:0:0:
340,84,69968,1,0,1:0:0:0:
212,100,70129,5,8,0:0:0:0:
148,212,70290,1,8,0:0:0:0:
216,320,70452,2,0,L|274:332,1,50.9999984436036
128,208,70774,5,2,0:0:0:0:
200,328,70935,1,0,0:0:0:0:
340,340,71097,2,0,L|382:298,1,50.9999984436036,8|8,0:0|0:0,0:0:0:0:
184,336,71419,5,0,0:0:0:0:
336,356,71581,1,0,0:0:0:0:
416,224,71742,2,0,L|360:232,1,50.9999984436036
240,244,72064,5,0,1:0:0:0:
136,256,72226,1,0,0:0:0:0:
124,156,72387,1,0,0:0:0:0:
228,148,72548,1,0,0:0:0:0:
332,224,72710,6,0,P|332:252|328:276,1,42.5,8|8,0:0|0:0,0:0:0:0:
252,336,73032,1,0,0:0:0:0:
116,296,73194,2,0,P|185:265|227:234,1,127.5,0|8,0:0|0:0,0:0:0:0:
240,128,73839,6,0,P|193:136|158:150,1,85,8|0,0:0|0:0,0:0:0:0:
60,108,74323,2,0,P|48:136|40:148,2,42.5,2|0|0,0:0|0:0|1:0,0:0:0:0:
112,12,74806,2,0,P|130:35|141:45,1,42.5
232,96,75129,1,0,0:0:0:0:
252,104,75210,1,0,0:0:0:0:
272,112,75290,6,0,L|228:140,1,42.5,8|8,0:0|0:0,0:0:0:0:
84,212,75613,2,0,L|168:216,1,85
380,192,76258,1,0,3:0:0:0:
440,280,76419,1,0,3:0:0:0:
364,352,76581,6,0,L|268:340,1,85
212,260,77064,1,0,0:0:0:0:
68,224,77226,2,0,L|109:232,1,42.5,0|0,1:0|0:0,0:0:0:0:
212,260,77548,1,0,0:0:0:0:
312,220,77710,1,0,0:0:0:0:
328,208,77790,1,0,0:0:0:0:
348,196,77871,6,0,L|392:200,1,42.5,8|8,0:0|0:0,0:0:0:0:
484,100,78194,2,0,L|400:88,1,85
188,88,78677,2,0,L|140:80,2,42.5,0|8|8,0:0|3:0|0:0,0:0:0:0:
252,176,79161,6,0,L|336:188,2,85,2|0|0,0:0|0:0|1:0,0:0:0:0:
44,232,80129,1,0,0:0:0:0:
120,304,80290,1,0,0:0:0:0:
120,304,80371,1,0,0:0:0:0:
120,304,80452,6,0,L|168:312,1,42.5,8|8,0:0|0:0,0:0:0:0:
248,376,80774,1,0,0:0:0:0:
344,328,80935,2,0,P|352:272|368:236,1,85
464,200,81419,1,8,0:0:0:0:
464,200,81581,6,0,P|470:256|464:295,1,85,8|0,0:0|0:0,0:0:0:0:
408,376,82064,2,0,P|374:330|359:293,1,85,0|0,0:0|1:0,0:0:0:0:
344,200,82548,1,0,0:0:0:0:
264,112,82710,2,0,P|245:150|219:183,1,85,0|8,0:0|0:0,0:0:0:0:
124,236,83194,5,8,0:0:0:0:
15,241,83355,2,0,P|16:219|24:200,1,42.5
124,236,83677,2,0,P|112:288|96:320,1,85,2|8,0:0|0:0,0:0:0:0:
8,372,84161,1,8,0:0:0:0:
98,317,84323,6,0,P|149:301|184:299,1,85
288,308,84806,1,0,0:0:0:0:
360,232,84968,2,0,L|400:245,1,42.5,0|0,1:0|0:0,0:0:0:0:
304,148,85290,2,0,L|263:134,1,42.5
228,104,85532,1,0,0:0:0:0:
192,76,85613,5,0,3:0:0:0:
84,178,85774,1,0,0:0:0:0:
226,223,85935,1,0,0:0:0:0:
168,157,86097,1,0,0:0:0:0:
39,197,86258,2,0,L|78:215,1,42.5,2|0,0:0|0:0,0:0:0:0:
202,273,86581,2,0,L|160:280,1,42.5,0|0,3:0|0:0,0:0:0:0:
292,336,86903,6,0,L|331:320,1,42.5
462,294,87226,2,0,L|436:328,1,42.5
316,216,87548,1,0,1:0:0:0:
420,200,87710,1,0,0:0:0:0:
420,69,87871,2,0,L|388:96,1,42.5,0|0,1:0|0:0,0:0:0:0:
260,108,88194,5,0,0:0:0:0:
288,187,88355,1,0,0:0:0:0:
208,216,88516,1,0,0:0:0:0:
178,135,88677,1,0,0:0:0:0:
404,201,88839,5,2,0:0:0:0:
134,299,89000,1,0,0:0:0:0:
184,16,89161,1,0,0:0:0:0:
233,161,89323,5,2,0:0:0:0:
347,348,89484,5,8,0:0:0:0:
414,283,90788,5,8,0:0:0:0:
439,192,92064,5,8,0:0:0:0:
233,161,92723,6,0,L|169:154,1,42.5,2|0,0:0|0:0,0:0:0:0:
397,79,93053,2,0,L|461:72,1,42.5,2|0,0:0|0:0,0:0:0:0:
241,275,93344,6,0,P|178:267|124:298,1,127.500004863739,10|0,0:0|0:0,0:0:0:0:
309,333,93827,1,0,0:0:0:0:
367,163,93989,2,0,L|431:156,1,63.7500024318696,0|0,1:0|0:0,0:0:0:0:
217,73,94311,2,0,L|153:66,1,63.7500024318696
338,248,94634,5,8,0:0:0:0:
397,79,94795,1,0,0:0:0:0:
389,57,94876,1,0,0:0:0:0:
381,36,94956,1,0,0:0:0:0:
512,143,95118,1,0,0:0:0:0:
338,248,95279,5,0,1:0:0:0:
367,163,95440,1,0,0:0:0:0:
143,76,95602,1,0,0:0:0:0:
172,160,95763,1,0,0:0:0:0:
376,172,95924,6,0,P|438:160|498:180,1,127.500004863739,10|0,0:0|0:0,0:0:0:0:
348,258,96408,1,0,0:0:0:0:
231,93,96569,2,0,L|242:28,1,63.7500024318696,0|0,1:0|0:0,0:0:0:0:
287,177,96892,1,0,0:0:0:0:
92,271,97053,6,0,L|84:144,1,127.500004863739,2|0,0:0|0:0,0:0:0:0:
77,54,97537,2,0,L|66:116,1,63.7500024318696
13,327,97860,1,0,1:0:0:0:
95,293,98021,1,0,0:0:0:0:
166,346,98182,1,0,0:0:0:0:
10,306,98343,1,0,0:0:0:0:
7,284,98424,1,0,0:0:0:0:
4,262,98505,6,0,L|86:268,1,63.7500024318696,10|0,0:0|0:0,0:0:0:0:
166,346,98827,2,0,L|229:341,1,63.7500024318696
444,306,99150,2,0,P|386:281|325:297,1,127.500004863739,0|0,1:0|0:0,0:0:0:0:
268,364,99634,1,0,0:0:0:0:
295,145,99795,6,0,L|308:208,1,63.7500024318696,8|0,0:0|3:0,0:0:0:0:
196,15,100118,2,0,L|187:78,1,63.7500024318696
48,208,100440,2,0,P|109:221|166:195,1,127.500004863739,0|0,1:0|0:0,0:0:0:0:
290,100,100924,1,0,0:0:0:0:
310,92,101005,1,0,0:0:0:0:
330,84,101085,6,0,L|412:88,1,63.7500024318696,8|0,0:0|0:0,0:0:0:0:
482,95,101408,1,0,0:0:0:0:
444,306,101569,2,0,P|386:281|325:297,1,127.500004863739
48,208,102214,2,0,P|109:221|166:195,1,127.500004863739,2|0,0:0|0:0,0:0:0:0:
105,70,102698,2,0,L|100:134,1,63.7500024318696
84,329,103021,5,0,1:0:0:0:
48,208,103182,1,0,0:0:0:0:
261,131,103343,1,0,0:0:0:0:
232,254,103505,1,0,0:0:0:0:
83,177,103666,6,0,L|93:50,1,127.500004863739,10|0,0:0|0:0,0:0:0:0:
169,3,104150,1,0,0:0:0:0:
261,131,104311,2,0,L|191:137,1,63.7500024318696,0|0,1:0|0:0,0:0:0:0:
169,3,104634,1,0,0:0:0:0:
232,254,104795,6,0,P|171:238|112:261,1,127.500004863739,2|0,0:0|0:0,0:0:0:0:
303,307,105279,2,0,L|366:301,1,63.7500024318696
487,292,105601,5,0,1:0:0:0:
303,307,105763,1,0,0:0:0:0:
431,362,105924,1,0,0:0:0:0:
398,176,106085,1,0,0:0:0:0:
402,199,106166,1,0,0:0:0:0:
405,222,106247,6,0,P|440:171|424:94,1,127.500004863739,10|0,0:0|0:0,0:0:0:0:
382,34,106730,1,0,0:0:0:0:
154,99,106892,2,0,L|218:105,1,63.7500024318696,0|0,1:0|0:0,0:0:0:0:
433,108,107214,1,0,0:0:0:0:
300,70,107376,1,0,0:0:0:0:
142,187,107537,6,0,L|268:198,2,127.500004863739,10|0|0,0:0|0:0|1:0,0:0:0:0:
72,131,108343,1,0,0:0:0:0:
56,325,108505,1,0,0:0:0:0:
8,192,108666,2,0,P|0:223|0:255,1,63.7500024318696,0|10,0:0|0:0,0:0:0:0:
229,347,108988,5,0,0:0:0:0:
141,352,109150,1,0,0:0:0:0:
305,301,109311,2,0,L|396:301,1,63.7500024318696,0|0,0:0|1:0,0:0:0:0:
215,302,109634,5,0,0:0:0:0:
336,208,109795,1,0,0:0:0:0:
457,301,109956,2,0,P|457:339|449:366,1,63.7500024318696,0|8,0:0|0:0,0:0:0:0:
305,301,110279,5,0,0:0:0:0:
254,147,110440,1,0,0:0:0:0:
399,208,110601,2,0,L|336:208,1,63.7500024318696,0|0,0:0|1:0,0:0:0:0:
166,132,110924,5,0,0:0:0:0:
300,70,111085,1,0,0:0:0:0:
215,302,111246,1,0,0:0:0:0:
254,146,111408,6,0,P|225:202|167:224,1,127.500004863739,10|0,0:0|0:0,0:0:0:0:
300,70,111892,2,0,L|374:66,1,63.7500024318696,0|0,0:0|1:0,0:0:0:0:
166,132,112214,2,0,L|92:128,1,63.7500024318696
336,208,112537,2,0,L|471:200,1,127.500004863739,2|0,0:0|0:0,0:0:0:0:
254,146,113021,5,0,0:0:0:0:
215,302,113182,1,0,0:0:0:0:
336,208,113343,1,0,1:0:0:0:
126,288,113504,2,0,L|132:356,1,63.7500024318696,0|0,1:0|0:0,0:0:0:0:
25,176,113988,6,0,P|48:117|23:60,1,127.500004863739,10|0,0:0|0:0,0:0:0:0:
23,60,114472,1,0,0:0:0:0:
190,142,114633,2,0,L|254:146,1,63.7500024318696,0|0,1:0|0:0,0:0:0:0:
103,260,114956,2,0,L|40:264,1,63.7500024318696
175,54,115279,5,8,0:0:0:0:
206,230,115440,1,0,0:0:0:0:
25,176,115601,1,0,0:0:0:0:
190,142,115762,1,0,0:0:0:0:
23,60,115924,5,0,1:0:0:0:
103,260,116085,1,0,0:0:0:0:
175,54,116246,1,0,0:0:0:0:
25,176,116408,1,0,0:0:0:0:
43,163,116488,1,0,0:0:0:0:
62,152,116569,6,0,L|190:142,1,127.500004863739,10|0,0:0|0:0,0:0:0:0:
228,327,117053,2,0,L|165:323,1,63.7500024318696,0|0,0:0|1:0,0:0:0:0:
274,170,117375,1,0,0:0:0:0:
175,54,117537,1,0,0:0:0:0:
206,230,117698,6,0,P|280:259|344:229,1,127.500004863739,2|0,0:0|0:0,0:0:0:0:
440,28,118182,1,0,0:0:0:0:
422,177,118343,1,0,0:0:0:0:
351,36,118504,5,0,1:0:0:0:
443,181,118666,1,0,0:0:0:0:
263,45,118827,5,0,0:0:0:0:
464,186,118988,1,0,0:0:0:0:
485,191,119069,1,0,0:0:0:0:
506,196,119150,6,0,L|497:123,1,63.7500024318696,10|0,0:0|0:0,0:0:0:0:
405,281,119472,2,0,L|397:344,1,63.7500024318696
278,171,119795,2,0,L|263:45,1,127.500004863739,0|0,1:0|0:0,0:0:0:0:
289,259,120279,1,0,0:0:0:0:
355,127,120440,6,0,L|418:134,1,63.7500024318696,8|0,0:0|0:0,0:0:0:0:
201,215,120762,2,0,L|137:207,1,63.7500024318696
343,327,121085,2,0,P|378:275|366:215,1,127.500004863739,0|0,1:0|0:0,0:0:0:0:
207,313,121569,1,0,0:0:0:0:
48,197,121730,5,10,0:0:0:0:
201,215,121891,1,0,0:0:0:0:
48,197,122053,2,0,L|40:260,1,63.7500024318696
201,215,122375,2,0,L|208:151,1,63.7500024318696,0|0,1:0|0:0,0:0:0:0:
59,108,122698,1,0,0:0:0:0:
122,251,122859,6,0,L|104:398,1,127.500004863739,2|0,0:0|0:0,0:0:0:0:
48,197,123343,1,0,0:0:0:0:
219,62,123504,1,0,0:0:0:0:
59,108,123666,6,0,L|120:119,1,31.8750012159348,0|0,1:0|0:0,0:0:0:0:
175,27,123827,2,0,L|200:48,1,31.8750012159348,0|0,1:0|0:0,0:0:0:0:
313,128,123988,1,0,1:0:0:0:
473,57,124149,1,0,0:0:0:0:
458,40,124230,1,0,0:0:0:0:
443,22,124311,6,0,P|431:84|464:137,1,127.500004863739,10|0,0:0|0:0,0:0:0:0:
354,98,124795,2,0,P|401:139|464:137,1,127.500004863739,0|0,0:3|0:3,0:0:0:0:
375,212,125278,2,0,P|433:192|463:137,1,127.500004863739,0|0,1:0|0:0,0:0:0:0:
484,251,125762,2,0,P|496:189|463:136,1,127.500004863739,0|0,0:3|0:3,0:0:0:0:
375,212,126246,5,0,1:0:0:0:
394,345,126407,1,0,0:0:0:0:
336,197,126569,1,0,0:3:0:0:
484,251,126730,1,0,0:0:0:0:
296,181,126891,6,0,L|161:191,1,127.500004863739,10|0,0:0|0:0,0:0:0:0:
112,304,127375,2,0,L|168:190,1,127.500004863739,0|0,0:3|0:3,0:0:0:0:
96,84,127859,2,0,L|168:190,1,127.500004863739,0|0,1:3|0:0,0:0:0:0:
239,295,128343,5,0,0:3:0:0:
41,199,128504,1,0,0:0:0:0:
223,75,128666,1,0,0:3:0:0:
146,236,128827,5,0,1:0:0:0:
140,148,128934,1,0,0:0:0:0:
219,186,129042,1,0,0:0:0:0:
195,230,129149,5,0,0:0:0:0:
116,192,129257,1,0,0:0:0:0:
189,142,129364,1,0,0:0:0:0:
167,189,129472,6,0,L|181:56,1,127.500004863739,10|0,0:0|0:0,0:0:0:0:
327,27,129956,2,0,P|300:43|269:48,1,63.7500024318696,0|0,0:3|0:0,0:0:0:0:
110,6,130278,1,0,0:3:0:0:
268,49,130440,6,0,P|327:27|391:28,1,127.500004863739,0|0,1:0|0:0,0:0:0:0:
512,159,130924,2,0,L|452:169,1,63.7500024318696,0|2,0:3|0:0,0:0:0:0:
463,80,131246,1,0,0:3:0:0:
492,248,131407,6,0,P|485:286|490:322,1,63.7500024318696,0|0,1:0|0:0,0:0:0:0:
358,132,131730,2,0,P|365:164|363:195,1,63.7500024318696
189,263,132053,5,10,0:0:0:0:
77,201,132214,1,0,0:0:0:0:
278,171,132375,1,0,0:0:0:0:
179,306,132536,5,0,3:0:0:0:
32,192,132698,1,0,0:0:0:0:
318,152,132859,1,0,0:0:0:0:
169,349,133020,5,0,1:0:0:0:
246,27,133182,1,0,1:0:0:0:
246,27,134633,6,0,B|185:65|185:65|204:126|184:194|184:194|239:114|304:148|304:148|271:198|271:198|329:214|354:251|354:251|205:310|71:250|71:250|125:161|110:95|110:95|91:125|60:128,1,1020,4|8,0:0|0:0,0:0:0:0:
256,192,139794,12,4,144956,0:0:0:0:
256,192,145036,12,0,153988,0:0:0:0:
104,88,154472,6,0,L|72:76,2,21.25,2|2|2,0:0|0:0|0:0,0:0:0:0:
359,172,154955,5,0,1:0:0:0:
107,254,155117,1,0,1:0:0:0:
290,248,155278,5,8,3:0:0:0:
290,248,155439,2,0,P|249:277|198:279,1,101.999996887207,8|0,0:0|0:0,0:0:0:0:
377,305,156246,1,8,0:0:0:0:
377,305,156407,2,0,P|414:304|452:290,1,76.4999976654053,8|0,0:0|0:0,0:0:0:0:
505,10,157213,1,0,1:0:0:0:
377,305,157536,1,0,0:0:0:0:
304,102,157859,5,8,0:0:0:0:
304,101,158020,2,0,P|304:152|319:201,1,101.999996887207,8|0,0:0|0:0,0:0:0:0:
219,52,158826,1,8,0:0:0:0:
219,51,158988,2,0,P|207:88|207:126,1,76.4999976654053,8|0,0:0|0:0,0:0:0:0:
50,367,159794,1,0,1:0:0:0:
219,52,160117,1,0,0:0:0:0:
130,50,160278,1,0,0:0:0:0:
52,93,160439,5,8,0:0:0:0:
52,93,160600,2,0,P|86:129|135:140,1,101.999996887207,8|0,0:0|0:0,0:0:0:0:
278,117,161407,1,8,0:0:0:0:
358,158,161568,2,0,P|331:185|298:202,1,76.4999976654053,8|0,0:0|0:0,0:0:0:0:
481,373,162375,1,0,1:0:0:0:
278,117,162697,1,0,0:0:0:0:
278,117,162859,1,0,0:0:0:0:
215,180,163020,5,8,0:0:0:0:
215,179,163181,2,0,P|204:229|183:275,1,101.999996887207,8|0,0:0|0:0,0:0:0:0:
305,347,163988,1,8,0:0:0:0:
392,328,164149,2,0,P|399:284|390:235,1,76.4999976654053,8|0,0:0|0:0,0:0:0:0:
53,145,164955,1,0,1:0:0:0:
305,347,165278,1,0,0:0:0:0:
480,76,165600,5,12,0:0:0:0:
407,25,165762,2,0,L|382:31,1,25.4999992218018,8|0,0:0|0:0,0:0:0:0:
351,154,166084,2,0,L|297:138,1,50.9999984436036
138,27,166568,1,8,0:0:0:0:
60,70,166729,2,0,P|51:112|58:160,1,76.4999976654053,8|0,0:0|0:0,0:0:0:0:
335,281,167536,1,0,1:0:0:0:
138,27,167858,1,0,0:0:0:0:
86,346,168181,5,8,0:0:0:0:
95,257,168342,1,8,0:0:0:0:
168,308,168504,1,0,0:0:0:0:
215,229,168665,2,0,L|268:220,1,50.9999984436036
168,308,169149,1,8,0:0:0:0:
233,368,169310,2,0,P|270:377|308:375,1,76.4999976654053,8|0,0:0|0:0,0:0:0:0:
414,71,170116,1,0,1:0:0:0:
168,308,170439,1,0,0:0:0:0:
168,308,170600,1,0,0:0:0:0:
215,229,170762,5,8,0:0:0:0:
182,146,170923,2,0,L|206:152,1,25.4999992218018,8|0,0:0|0:0,0:0:0:0:
288,272,171245,2,0,L|341:262,1,50.9999984436036
327,118,171729,1,8,0:0:0:0:
455,54,171891,2,0,P|477:86|491:128,1,76.4999976654053,8|0,0:0|0:0,0:0:0:0:
252,353,172697,1,0,1:0:0:0:
327,118,173020,1,0,0:0:0:0:
264,181,173181,1,0,0:0:0:0:
182,146,173342,5,0,0:0:0:0:
101,185,173503,2,0,P|61:197|22:200,1,76.4999976654053
382,234,174310,1,8,0:0:0:0:
494,348,174471,2,0,P|457:335|425:315,1,76.4999976654053,8|0,0:0|0:0,0:0:0:0:
418,74,175278,2,0,P|428:110|430:148,1,76.4999976654053,0|0,1:0|0:0,0:0:0:0:
382,234,175923,5,12,0:0:0:0:
225,160,176084,2,0,L|286:151,1,42.5
370,270,176407,5,0,0:0:0:0:
370,270,176568,1,2,0:0:0:0:
134,151,176729,2,0,L|156:93,1,42.5
358,306,177052,5,0,0:0:0:0:
358,306,177213,1,4,0:0:0:0:
85,230,177374,2,0,L|46:181,1,42.5
346,342,177697,5,0,0:0:0:0:
346,342,177858,1,2,0:0:0:0:
122,306,178020,2,0,L|61:315,1,42.5
234,326,178342,1,0,0:0:0:0:
166,76,178503,6,0,L|250:63,1,85,4|0,0:0|0:0,0:0:0:0:
472,104,178987,2,0,P|431:116|390:107,1,85
281,40,179471,1,0,0:0:0:0:
399,199,179632,2,0,L|390:326,1,127.5
386,364,180439,5,2,0:0:0:0:
399,199,180761,2,0,L|395:148,1,42.5
465,333,181084,6,0,P|423:290|317:311,1,170,8|0,0:0|0:0,0:0:0:0:
390,71,182052,1,0,0:0:0:0:
314,32,182213,1,0,0:0:0:0:
234,62,182374,6,0,P|192:105|86:84,1,170,4|0,0:0|0:0,0:0:0:0:
71,67,183342,1,0,0:0:0:0:
51,45,183665,6,0,B|23:81|29:128|58:145|58:145|106:168|111:202|92:251|92:251|59:273|25:259|17:214,1,340,0|4,0:0|0:0,0:0:0:0:
17,216,185600,6,0,L|22:263,1,28.3333333333333,0|0,1:0|0:0,0:0:0:0:
32,342,185815,1,0,0:0:0:0:
97,298,185923,1,0,0:0:0:0:
176,302,186030,1,0,0:0:0:0:
235,354,186138,1,0,0:0:0:0:
312,364,186245,6,0,P|348:342|390:340,1,85,8|0,0:0|0:0,0:0:0:0:
474,358,186729,1,8,0:0:0:0:
387,173,186890,2,0,P|427:185|469:179,2,85,0|0|8,1:0|0:0|0:0,0:0:0:0:
387,173,187858,5,0,0:0:0:0:
436,103,188019,1,8,0:0:0:0:
288,136,188181,1,0,1:0:0:0:
295,50,188342,1,0,0:0:0:0:
184,161,188503,1,0,0:0:0:0:
147,83,188665,1,0,0:0:0:0:
281,222,188826,6,0,L|274:306,1,85,8|0,0:0|0:0,0:0:0:0:
288,136,189310,1,8,0:0:0:0:
190,324,189471,2,0,L|147:319,1,42.5,0|0,1:0|0:0,0:0:0:0:
357,288,189794,2,0,L|401:283,1,42.5
184,161,190116,6,0,P|129:169|67:116,1,127.5,2|0,0:0|0:0,0:0:0:0:
295,50,190761,1,0,1:0:0:0:
147,83,190923,1,0,0:0:0:0:
288,136,191084,1,0,0:0:0:0:
436,103,191245,1,0,0:0:0:0:
449,119,191326,1,0,0:0:0:0:
462,135,191406,6,0,L|469:183,1,42.5,8|0,0:0|0:0,0:0:0:0:
281,221,191729,2,0,L|288:269,1,42.5
383,231,192052,2,0,L|390:279,1,42.5,0|0,1:0|0:0,0:0:0:0:
202,317,192374,2,0,L|209:365,1,42.5,0|8,0:0|0:0,0:0:0:0:
288,136,192697,5,0,0:0:0:0:
128,262,192858,1,0,0:0:0:0:
99,61,193019,1,0,0:0:0:0:
173,152,193181,1,0,0:0:0:0:
308,116,193342,2,0,L|314:73,1,42.5,0|0,1:0|0:0,0:0:0:0:
119,42,193664,2,0,L|125:0,1,42.5
193,172,193987,5,0,1:0:0:0:
20,148,194148,2,0,L|33:233,1,85
119,352,194632,1,0,1:0:0:0:
113,202,194793,1,0,0:0:0:0:
274,299,194955,1,0,0:0:0:0:
193,172,195116,1,0,1:0:0:0:
196,325,195277,6,0,L|186:270,2,42.5000016212464
345,362,195600,2,0,L|352:320,2,42.5000016212464
495,294,195922,1,8,0:0:0:0:
499,217,196030,1,0,0:0:0:0:
504,140,196138,1,0,0:0:0:0:
509,63,196245,1,0,0:0:0:0:
444,22,196353,1,0,0:0:0:0:
370,41,196460,1,0,0:0:0:0:
316,96,196568,6,0,P|280:124|200:128,1,127.500004863739,10|0,0:0|0:0,0:0:0:0:
100,100,197052,1,0,0:0:0:0:
336,48,197213,6,0,P|342:93|308:160,1,95.6250036478044,0|0,1:0|0:0,0:0:0:0:
284,200,197535,1,0,0:0:0:0:
236,36,197697,1,0,0:0:0:0:
396,164,197858,1,8,0:0:0:0:
205,238,198019,1,0,0:0:0:0:
280,144,198181,1,0,0:0:0:0:
248,348,198342,5,0,0:0:0:0:
232,352,198422,1,0,0:0:0:0:
216,356,198503,2,0,L|144:376,1,63.7500024318696,0|0,1:0|0:0,0:0:0:0:
336,352,198826,2,0,L|388:316,1,63.7500024318696
356,88,199148,6,0,P|328:124|324:204,1,127.500004863739,10|0,0:0|0:0,0:0:0:0:
384,68,199632,1,0,0:0:0:0:
272,256,199793,6,0,P|236:284|161:287,1,95.6250036478044,0|0,1:0|0:0,0:0:0:0:
116,300,200116,1,0,0:0:0:0:
332,296,200277,1,0,0:0:0:0:
144,232,200439,5,8,0:0:0:0:
372,356,200600,1,0,0:0:0:0:
88,368,200761,5,0,0:0:0:0:
296,232,200922,1,0,0:0:0:0:
228,332,201084,2,0,L|175:408,1,63.7500024318696,0|0,1:0|0:0,0:0:0:0:
320,196,201406,6,0,L|296:231,1,42.5,0|0,1:0|0:0,0:0:0:0:
228,332,201568,2,0,L|203:296,1,42.5
83,135,201729,6,0,P|127:175|171:187,1,95.6250036478044,10|0,0:0|0:0,0:0:0:0:
222,143,202051,2,0,P|253:136|285:138,1,63.7500024318696
161,186,202374,1,0,1:0:0:0:
285,138,202535,1,0,0:0:0:0:
304,6,202697,1,0,0:0:0:0:
388,220,202858,1,0,0:0:0:0:
512,328,203019,6,0,P|468:288|424:276,1,95.6250036478044,8|0,0:0|0:0,0:0:0:0:
373,320,203342,2,0,P|343:331|311:336,1,63.7500024318696
434,277,203664,1,0,1:0:0:0:
311,336,203826,1,0,0:0:0:0:
151,317,203987,1,0,0:0:0:0:
280,268,204148,1,0,0:0:0:0:
339,148,204309,6,0,P|345:104|336:56,1,63.7500024318696,10|0,0:0|0:0,0:0:0:0:
236,168,204632,2,0,P|216:144|204:104,1,63.7500024318696
400,212,204955,2,0,P|420:180|428:144,1,63.7500024318696,0|0,1:0|0:0,0:0:0:0:
215,253,205277,2,0,P|181:235|156:208,1,63.7500024318696
312,252,205600,5,8,0:0:0:0:
288,11,205761,1,0,0:0:0:0:
92,152,205922,1,0,0:0:0:0:
312,251,206084,2,0,L|342:210,1,42.5
292,280,206245,5,0,1:0:0:0:
72,180,206406,2,0,L|123:143,1,42.5,0|0,1:0|0:0,0:0:0:0:
268,39,206567,2,0,L|273:101,1,42.5
292,280,206729,2,0,L|235:253,1,42.5
180,204,206890,6,0,P|232:170|295:177,1,127.5,10|0,0:0|0:0,0:0:0:0:
253,262,207374,1,0,0:0:0:0:
202,17,207535,6,0,L|216:88,1,63.7500024318696,0|0,1:0|0:0,0:0:0:0:
253,262,207858,1,0,0:0:0:0:
311,85,208019,1,0,0:0:0:0:
253,262,208180,5,8,0:0:0:0:
128,123,208342,1,0,0:0:0:0:
332,192,208503,1,0,0:0:0:0:
150,228,208664,1,0,0:0:0:0:
132,232,208745,1,0,0:0:0:0:
116,236,208826,2,0,L|48:252,1,63.7500024318696,0|0,1:0|0:0,0:0:0:0:
256,240,209148,2,0,L|205:287,1,63.7500024318696
344,160,209471,6,0,P|406:157|459:192,1,127.500004863739,10|0,0:0|0:0,0:0:0:0:
348,340,209955,1,0,0:0:0:0:
234,244,210116,6,0,P|260:260|292:268,1,63.7500024318696,0|0,1:0|0:0,0:0:0:0:
337,267,210358,1,0,0:0:0:0:
380,256,210438,1,0,0:0:0:0:
177,176,210600,1,0,0:0:0:0:
232,340,210761,1,8,0:0:0:0:
344,256,210922,5,0,0:0:0:0:
202,200,211084,1,0,0:0:0:0:
241,315,211245,1,0,0:0:0:0:
303,149,211406,1,0,1:0:0:0:
146,258,211567,1,0,0:0:0:0:
349,338,211729,1,0,0:0:0:0:
294,174,211890,1,0,0:0:0:0:
232,340,212051,6,0,P|264:316|292:256,1,95.6250036478044,10|0,0:0|0:0,0:0:0:0:
280,192,212374,2,0,P|316:212|344:216,1,63.7500024318696
296,88,212696,6,0,P|317:123|339:140,1,63.7500024318696,0|0,1:0|0:0,0:0:0:0:
224,132,213019,1,0,0:0:0:0:
284,12,213180,1,0,0:0:0:0:
280,192,213342,6,0,P|259:234|222:264,1,95.6250036478044,8|0,0:0|0:0,0:0:0:0:
148,280,213664,2,0,P|183:301|200:323,1,63.7500024318696
68,348,213987,6,0,P|109:348|135:359,1,63.7500024318696,0|0,1:0|0:0,0:0:0:0:
312,308,214309,1,0,0:0:0:0:
200,384,214471,1,0,0:0:0:0:
80,204,214632,6,0,L|93:138,1,63.7500024318696,10|0,0:0|0:0,0:0:0:0:
224,232,214954,2,0,L|210:166,1,63.7500024318696
67,266,215277,6,0,L|80:204,1,63.7500024318696,0|0,1:0|0:0,0:0:0:0:
236,294,215600,2,0,L|223:231,1,63.7500024318696
52,336,215922,5,8,0:0:0:0:
196,100,216083,1,0,0:0:0:0:
328,342,216245,1,0,0:0:0:0:
184,324,216406,1,0,0:0:0:0:
168,304,216487,1,0,0:0:0:0:
160,280,216567,1,0,1:0:0:0:
140,172,216729,6,0,L|143:203,1,31.8750012159348
336,268,216890,6,0,L|343:198,1,63.7500024318696
305,84,217212,6,0,P|249:112|220:168,1,127.500004863739,10|0,0:0|0:0,0:0:0:0:
152,72,217696,1,0,0:0:0:0:
280,260,217858,6,0,P|240:275|194:270,1,63.7500024318696,0|0,1:0|0:0,0:0:0:0:
352,308,218180,1,0,0:0:0:0:
220,168,218341,1,0,0:0:0:0:
64,288,218503,6,0,L|140:260,1,63.7500024318696,8|0,0:0|0:0,0:0:0:0:
372,176,218825,1,0,0:0:0:0:
236,236,218987,5,0,0:0:0:0:
228,256,219067,1,0,0:0:0:0:
308,252,219148,2,0,P|304:208|280:172,1,63.7500024318696,0|0,1:0|0:0,0:0:0:0:
220,276,219470,2,0,L|196:336,1,63.7500024318696
372,176,219793,6,0,P|340:128|272:116,1,127.500004863739,10|0,0:0|0:0,0:0:0:0:
296,192,220277,1,0,0:0:0:0:
468,48,220438,6,0,L|404:40,1,63.7500024318696,0|0,1:0|0:0,0:0:0:0:
396,52,220680,1,0,0:0:0:0:
388,64,220761,1,0,0:0:0:0:
288,24,220922,1,0,0:0:0:0:
248,132,221083,5,8,0:0:0:0:
140,68,221245,1,0,0:0:0:0:
316,176,221406,5,0,0:0:0:0:
168,160,221567,1,0,0:0:0:0:
324,96,221729,5,0,1:0:0:0:
246,225,221890,1,0,0:0:0:0:
416,68,222051,5,0,0:0:0:0:
332,208,222212,1,0,0:0:0:0:
192,88,222374,6,0,P|147:71|100:77,1,95.6250036478044,10|0,0:0|0:0,0:0:0:0:
56,148,222696,2,0,L|17:97,1,63.7500024318696
136,164,223019,1,0,1:0:0:0:
280,56,223180,1,0,0:0:0:0:
120,260,223341,1,0,0:0:0:0:
156,36,223503,1,0,0:0:0:0:
328,180,223664,6,0,P|372:163|419:169,1,95.6250036478044,8|0,0:0|0:0,0:0:0:0:
512,204,223987,2,0,L|492:144,1,63.7500024318696
488,276,224309,1,0,1:0:0:0:
436,92,224470,1,0,0:0:0:0:
228,320,224632,1,0,0:0:0:0:
382,248,224793,1,0,0:0:0:0:
184,156,224954,6,0,L|120:140,1,63.7500024318696,10|0,0:0|0:0,0:0:0:0:
368,152,225277,2,0,L|428:176,1,63.7500024318696
316,384,225599,2,0,P|304:340|320:292,1,95.6250036478044,0|0,1:0|0:0,0:0:0:0:
364,236,225922,2,0,P|372:204|368:172,1,63.7500024318696
228,312,226245,5,8,0:0:0:0:
384,340,226406,1,0,0:0:0:0:
292,228,226567,1,0,0:0:0:0:
148,236,226728,1,0,0:0:0:0:
411,356,226890,6,0,L|412:325,1,31.8750012159348,0|0,1:0|0:0,0:0:0:0:
323,229,227051,2,0,L|308:200,1,31.8750012159348
180,224,227212,2,0,L|152:207,1,31.8750012159348,0|0,1:0|0:0,0:0:0:0:
72,312,227374,2,0,L|62:342,1,31.8750012159348
97,121,227535,6,0,P|153:93|216:100,1,127.500004863739,10|0,0:0|0:0,0:0:0:0:
136,242,228019,2,0,P|147:212|168:188,1,63.7500024318696,0|0,3:0|0:0,0:0:0:0:
200,320,228341,1,0,0:0:0:0:
330,139,228503,6,0,P|278:102|216:100,1,127.500004863739,0|0,1:0|0:0,0:0:0:0:
273,251,228986,2,0,P|266:219|250:192,1,63.7500024318696
200,320,229309,1,0,0:0:0:0:
456,96,229470,6,0,P|422:59|382:51,1,63.7500024318696,0|0,1:0|0:0,0:0:0:0:
330,139,229793,2,0,P|364:176|404:184,1,63.7500024318696,0|0,3:0|0:0,0:0:0:0:
224,92,230115,6,0,L|88:84,1,127.500004863739,10|0,0:0|0:0,0:0:0:0:
125,241,230599,2,0,L|159:188,1,63.7500024318696,0|0,3:0|0:0,0:0:0:0:
288,0,230922,1,0,0:0:0:0:
304,272,231083,6,0,L|296:136,1,127.500004863739,0|0,1:0|0:0,0:0:0:0:
453,173,231567,2,0,L|400:208,1,63.7500024318696,0|0,3:0|0:0,0:0:0:0:
212,336,231890,1,0,0:0:0:0:
400,208,232051,5,0,1:0:0:0:
344,152,232158,1,0,0:0:0:0:
268,124,232266,1,0,0:0:0:0:
152,196,232374,5,0,0:0:0:0:
76,167,232481,1,0,0:0:0:0:
19,111,232589,1,0,0:0:0:0:
0,32,232696,6,0,P|40:72|112:88,1,127.500004863739,10|0,0:0|0:0,0:0:0:0:
251,71,233180,2,0,P|220:64|189:67,1,63.7500024318696,0|0,3:0|0:0,0:0:0:0:
48,164,233503,1,0,0:0:0:0:
216,261,233664,6,0,P|255:221|272:148,1,127.500004863739,0|0,1:0|0:0,0:0:0:0:
255,9,234148,2,0,P|249:40|252:72,1,63.7500024318696,0|0,3:0|0:0,0:0:0:0:
348,212,234470,1,0,0:0:0:0:
168,168,234632,2,0,P|136:170|101:189,1,63.7500024318696,0|0,1:0|0:0,0:0:0:0:
348,212,234954,2,0,P|379:209|414:190,1,63.7500024318696
272,105,235277,5,10,0:0:0:0:
340,292,235438,1,0,0:0:0:0:
468,140,235599,1,0,0:0:0:0:
289,119,235761,5,0,3:0:0:0:
344,269,235922,1,0,0:0:0:0:
446,147,236083,1,0,0:0:0:0:
252,218,236244,5,0,1:0:0:0:
448,253,236406,1,0,0:0:0:0:
380,64,236567,5,0,1:0:0:0:
321,23,236675,1,0,0:0:0:0:
249,23,236782,1,0,0:0:0:0:
190,65,236890,1,0,1:0:0:0:
168,134,236997,1,0,0:0:0:0:
190,203,237105,1,0,0:0:0:0:
249,245,237212,1,0,1:0:0:0:
321,245,237320,5,0,0:0:0:0:
379,203,237427,1,0,0:0:0:0:
402,134,237535,6,0,L|403:91,1,42.5
292,172,237696,2,0,L|250:170,1,42.5
190,65,237857,5,0,3:0:0:0:
322,22,237938,2,0,P|412:36|475:102,1,185.937501773238
391,281,238502,1,0,1:0:0:0:
390,362,238583,1,0,0:0:0:0:
471,363,238664,1,0,0:0:0:0:
379,203,238825,1,0,0:0:0:0:
186,289,238986,1,0,0:0:0:0:
190,65,239148,6,0,P|171:32|145:6,1,74.3750007092953
379,202,239470,2,0,P|395:170|402:133,1,74.3750007092953
63,20,239793,1,0,1:0:0:0:
64,232,239954,1,0,0:0:0:0:
234,346,240115,2,0,P|270:355|307:351,1,74.3750007092953
339,99,240438,5,0,3:0:0:0:
160,362,240599,1,0,0:0:0:0:
148,122,240760,1,0,0:0:0:0:
193,177,240841,1,0,0:0:0:0:
124,189,240922,1,0,0:0:0:0:
361,26,241083,1,0,1:0:0:0:
311,228,241244,1,0,0:0:0:0:
507,316,241406,1,0,0:0:0:0:
487,97,241567,1,0,0:0:0:0:
413,84,241728,5,0,0:0:0:0:
468,250,241889,1,0,0:0:0:0:
296,303,242051,2,0,P|259:295|227:277,1,74.3750007092953
20,26,242373,6,0,P|36:71|35:119,1,95.6250036478044,0|0,1:0|0:0,0:0:0:0:
108,233,243019,6,0,P|73:298|19:348,1,148.750001418591,0|0,3:0|0:0,0:0:0:0:
18,348,243502,1,0,0:0:0:0:
167,284,243664,1,0,1:0:0:0:
203,77,243825,1,0,0:0:0:0:
413,84,243986,2,0,P|399:118|375:147,1,74.3750007092953
393,330,244309,5,0,3:0:0:0:
166,284,244470,1,0,0:0:0:0:
332,79,244631,1,0,0:0:0:0:
183,204,244793,1,0,0:0:0:0:
358,261,244954,1,0,1:0:0:0:
108,233,245115,2,0,P|70:237|36:253,2,74.3750007092953
32,154,245599,6,0,P|62:174|98:183,1,74.3750007092953,0|0,3:0|0:0,0:0:0:0:
184,204,245841,1,0,0:0:0:0:
241,323,245922,2,0,P|275:309|312:307,1,74.3750007092953
394,330,246164,1,0,0:0:0:0:
485,208,246244,2,0,P|447:206|412:194,1,74.3750007092953,0|0,1:0|0:0,0:0:0:0:
344,154,246486,1,0,0:0:0:0:
259,22,246567,2,0,P|256:59|245:94,1,74.3750007092953
29,25,246889,5,0,3:0:0:0:
384,43,247051,2,0,P|403:74|412:110,1,74.3750007092953
171,120,247373,1,0,0:0:0:0:
93,108,247454,1,0,0:0:0:0:
32,154,247535,1,0,1:0:0:0:
184,204,247696,1,0,0:0:0:0:
316,353,247857,1,0,0:0:0:0:
485,208,248018,1,0,0:0:0:0:
393,329,248180,6,0,P|328:295|288:234,1,148.750001418591,0|0,3:0|0:0,0:0:0:0:
162,23,248664,1,0,0:0:0:0:
48,11,248825,2,0,P|24:80|32:154,1,148.750001418591,0|0,1:0|0:0,0:0:0:0:
169,360,249309,1,0,0:0:0:0:
316,354,249470,5,0,3:0:0:0:
410,171,249631,1,0,0:0:0:0:
242,318,249793,5,0,0:0:0:0:
214,242,249900,2,0,P|209:218|207:194,1,49.5833338061969
222,320,250115,5,0,1:0:0:0:
135,283,250223,2,0,P|113:273|95:256,1,49.5833338061969
210,328,250438,5,0,0:0:0:0:
95,352,250545,2,0,P|72:359|47:359,1,49.5833338061969
74,228,250760,5,0,3:0:0:0:
49,12,250922,1,0,0:0:0:0:
177,169,251083,5,0,0:0:0:0:
235,158,251164,1,0,0:0:0:0:
270,110,251244,1,0,0:0:0:0:
270,50,251325,1,0,0:0:0:0:
321,21,251405,6,0,L|373:27,3,42.5,0|0|0|0,1:0|0:0|0:0|0:0,0:0:0:0:
465,45,251728,2,0,L|428:68,3,42.5
389,138,252051,5,0,0:0:0:0:
384,196,252131,1,0,0:0:0:0:
424,240,252212,1,0,0:0:0:0:
480,257,252293,1,0,0:0:0:0:
481,316,252373,1,0,0:0:0:0:
425,334,252454,1,0,0:0:0:0:
383,303,252534,1,0,0:0:0:0:
329,326,252615,1,0,0:0:0:0:
234,339,252696,6,0,B|206:308|213:270|213:270|256:245|332:246|383:303,1,260.312502482533,0|0,1:0|0:0,0:0:0:0:
384,304,253341,5,0,3:0:0:0:
458,136,253502,1,0,0:0:0:0:
321,21,253663,1,0,0:0:0:0:
243,224,253825,2,0,P|207:232|174:248,1,74.3750007092953,2|0,0:0|0:0,0:0:0:0:
27,365,254147,1,0,3:0:0:0:
187,359,254309,5,0,1:0:0:0:
59,196,254470,2,0,P|56:121|75:50,1,148.750001418591,0|0,3:0|0:0,0:0:0:0:
243,224,254954,2,0,P|219:195|202:162,1,74.3750007092953,0|0,0:0|3:0,0:0:0:0:
417,208,255276,2,0,P|380:204|344:192,1,74.3750007092953,2|0,0:0|0:0,0:0:0:0:
509,95,255599,1,0,0:0:0:0:
281,148,255760,1,0,0:0:0:0:
57,121,255922,5,0,1:0:0:0:
361,139,256083,1,0,3:0:0:0:
85,267,256244,2,0,P|126:258|163:238,1,85,0|0,0:0|1:0,0:0:0:0:
362,342,256567,2,0,P|298:335|242:307,1,127.5,2|0,0:0|0:0,0:0:0:0:
244,224,256889,5,0,1:0:0:0:
286,0,257051,2,0,P|305:36|313:78,2,85,0|0|0,3:0|0:0|1:0,0:0:0:0:
133,343,257534,2,0,P|157:308|171:268,1,85,2|0,0:0|0:0,0:0:0:0:
363,342,257776,1,0,1:0:0:0:
440,364,257857,2,0,P|440:324|416:280,1,85,0|0,1:0|1:0,0:0:0:0:
388,67,258180,1,0,0:0:0:0:
251,324,258341,1,0,0:0:0:0:
363,342,258502,5,0,1:0:0:0:
133,343,258663,1,0,3:0:0:0:
314,273,258825,5,0,0:0:0:0:
369,252,258905,1,0,0:0:0:0:
428,257,258986,1,0,0:0:0:0:
476,291,259067,1,0,0:0:0:0:
432,220,259147,5,0,1:0:0:0:
376,152,259228,1,0,0:0:0:0:
292,132,259309,1,0,3:0:0:0:
212,160,259389,1,0,0:0:0:0:
181,233,259470,5,0,0:0:0:0:
122,246,259550,1,0,0:0:0:0:
77,207,259631,1,0,3:0:0:0:
94,149,259712,1,0,0:0:0:0:
153,125,259792,6,0,B|202:91|266:112|266:112|254:51|202:15|202:15|185:22|186:23,1,255,0|0,3:0|3:0,0:0:0:0:
40,26,260438,6,0,P|76:46|118:54,1,85,0|0,1:0|3:0,0:0:0:0:
289,45,260760,1,0,0:0:0:0:
403,202,260921,1,0,3:0:0:0:
492,19,261083,5,0,1:0:0:0:
477,239,261244,1,0,0:0:0:0:
258,267,261405,2,0,P|217:255|181:233,1,85,0|0,0:0|1:0,0:0:0:0:
506,99,261728,2,0,P|465:91|422:94,1,85,0|0,0:0|3:0,0:0:0:0:
95,149,262050,5,0,1:0:0:0:
384,347,262212,1,0,1:0:0:0:
98,101,263699,5,8,0:0:0:0:
73,192,264956,5,8,0:0:0:0:
98,284,266274,5,8,0:0:0:0:
165,351,267537,5,8,0:0:0:0:
432,316,268218,6,0,P|408:284|400:248,1,63.7500024318696
427,53,268825,6,0,P|391:75|352:91,1,85,6|0,0:0|0:0,0:0:0:0:
248,108,269308,1,2,0:0:0:0:
148,72,269470,2,0,P|140:104|140:132,2,42.5
248,108,269953,2,0,P|245:129|240:152,1,42.5,2|0,0:0|0:0,0:0:0:0:
80,224,270276,6,0,P|132:216|168:216,1,85,2|0,0:0|0:0,0:0:0:0:
400,236,270760,2,0,P|350:216|319:198,1,85,2|0,0:0|0:0,0:0:0:0:
248,132,271244,1,0,0:0:0:0:
288,40,271405,6,0,P|326:69|345:104,1,85,2|0,0:0|0:0,0:0:0:0:
424,172,271889,2,0,P|423:214|404:260,1,85,2|0,0:0|0:0,0:0:0:0:
340,332,272373,1,0,0:0:0:0:
228,304,272534,6,0,P|237:284|250:268,1,42.5,2|0,0:0|0:0,0:0:0:0:
328,196,272856,1,2,0:0:0:0:
328,196,272937,1,0,0:0:0:0:
328,196,273018,1,0,0:0:0:0:
352,300,273179,1,0,0:0:0:0:
228,304,273340,5,2,0:0:0:0:
116,208,273501,1,0,0:0:0:0:
224,72,273663,1,2,0:0:0:0:
400,144,273824,1,0,0:0:0:0:
473,284,273985,6,0,P|433:272|396:252,1,85,2|0,0:0|0:0,0:0:0:0:
236,200,274469,2,0,P|251:214|265:230,1,42.5,2|0,0:0|0:0,0:0:0:0:
248,340,274792,2,0,P|227:335|208:324,2,42.5,0|2|0,0:0|0:0|0:0,0:0:0:0:
352,300,275275,6,0,P|372:264|372:220,1,85,2|0,0:0|0:0,0:0:0:0:
336,120,275759,2,0,P|318:107|298:101,1,42.5,2|0,0:0|0:0,0:0:0:0:
195,124,276082,2,0,P|180:137|169:156,2,42.5,2|0|0,0:0|0:0|0:0,0:0:0:0:
240,236,276566,6,0,P|188:261|160:268,1,85,2|0,0:0|0:0,0:0:0:0:
36,200,277049,2,0,P|52:228|60:248,1,42.5,2|0,0:0|0:0,0:0:0:0:
84,340,277372,1,2,0:0:0:0:
84,340,277453,1,0,0:0:0:0:
84,340,277533,1,0,0:0:0:0:
192,344,277695,6,0,P|244:348|292:360,1,85,2|0,0:0|0:0,0:0:0:0:
376,312,278178,1,0,0:0:0:0:
360,208,278340,1,0,0:0:0:0:
494,83,278501,2,0,P|456:102|416:116,1,85,2|0,0:0|0:0,0:0:0:0:
308,116,278985,1,0,0:0:0:0:
156,0,279146,6,0,P|192:23|223:52,1,85,6|0,0:0|0:0,0:0:0:0:
308,116,279630,1,2,0:0:0:0:
276,303,279791,2,0,P|279:261|288:220,1,85
308,116,280275,1,0,0:0:0:0:
392,264,280436,5,2,0:0:0:0:
168,304,280597,1,0,0:0:0:0:
308,116,280759,2,0,P|296:152|288:168,1,42.5
116,232,281081,2,0,P|99:198|93:181,1,42.5,2|0,0:0|0:0,0:0:0:0:
128,56,281404,2,0,P|161:74|175:84,1,42.5
275,193,281726,6,0,P|295:137|319:101,1,85,2|0,0:0|0:0,0:0:0:0:
396,52,282210,1,2,0:0:0:0:
396,52,282291,1,0,0:0:0:0:
396,52,282371,1,0,0:0:0:0:
392,184,282533,1,0,0:0:0:0:
308,116,282694,1,0,0:0:0:0:
500,184,282855,6,0,P|480:240|456:276,1,85,2|0,0:0|0:0,0:0:0:0:
347,330,283339,2,0,P|353:310|364:292,1,42.5,2|0,0:0|0:0,0:0:0:0:
308,200,283662,1,0,0:0:0:0:
347,330,283823,1,2,0:0:0:0:
467,262,283984,1,0,0:0:0:0:
339,149,284145,2,0,P|339:171|344:192,1,42.5,0|2,0:0|0:0,0:0:0:0:
467,262,284468,5,0,0:0:0:0:
339,150,284629,1,0,0:0:0:0:
173,268,284791,2,0,P|195:268|216:264,1,42.5,2|0,0:0|0:0,0:0:0:0:
339,150,285113,5,0,0:0:0:0:
192,48,285274,1,2,0:0:0:0:
45,196,285436,2,0,P|66:192|88:192,1,42.5
276,216,285758,5,2,0:0:0:0:
80,344,285919,1,0,0:0:0:0:
128,112,286081,2,0,P|145:123|160:138,1,42.5,0|2,0:0|0:0,0:0:0:0:
272,324,286403,5,0,0:0:0:0:
480,216,286565,1,0,0:0:0:0:
336,32,286726,1,0,0:0:0:0:
100,212,286887,2,0,P|148:208|188:196,1,85,2|0,0:0|0:0,0:0:0:0:
328,136,287371,2,0,P|316:192|316:232,2,85,0|2|0,0:0|0:0|0:0,0:0:0:0:
91,114,288984,5,2,0:0:0:0:
187,348,289145,2,0,P|211:348|234:356,1,47.8125018239022
348,349,289467,6,0,P|391:346|429:328,1,85,10|0,0:0|0:0,0:0:0:0:
512,171,289790,1,0,0:0:0:0:
336,32,289951,1,0,0:0:0:0:
172,181,290113,2,0,P|165:265|188:347,1,170,0|0,1:0|0:0,0:0:0:0:
12,373,290596,5,8,0:0:0:0:
512,335,290919,1,0,1:0:0:0:
225,17,291241,1,8,0:0:0:0:
249,201,291403,5,0,1:0:0:0:
247,20,291564,2,0,P|214:98|224:182,1,170
258,295,291967,5,0,0:0:0:0:
225,369,292048,2,0,P|193:340|178:301,1,85,10|0,0:0|0:0,0:0:0:0:
182,98,292370,1,0,0:0:0:0:
394,35,292532,1,0,0:0:0:0:
470,227,292693,2,0,P|400:179|363:103,1,170,0|0,1:0|0:0,0:0:0:0:
21,91,293177,5,8,0:0:0:0:
499,23,293499,1,0,1:0:0:0:
369,177,293661,1,0,0:0:0:0:
303,357,293822,1,8,0:0:0:0:
426,272,293983,6,0,P|444:246|470:226,1,63.7500024318696,0|0,1:0|0:0,0:0:0:0:
98,249,294306,2,0,P|105:281|120:308,1,63.75
237,233,294548,1,0,0:0:0:0:
278,260,294628,6,0,P|326:258|389:239,1,85,10|0,0:0|0:0,0:0:0:0:
488,192,294951,1,0,0:0:0:0:
392,60,295112,2,0,P|353:80|304:100,1,85,0|0,0:0|1:0,0:0:0:0:
256,244,295435,5,0,0:0:0:0:
144,136,295596,1,0,0:0:0:0:
280,28,295757,1,0,0:0:0:0:
452,176,295918,6,0,L|320:148,1,127.5
204,168,296241,2,0,P|244:188|284:216,1,85
400,324,296563,1,0,1:0:0:0:
176,300,296725,5,0,0:0:0:0:
56,360,296886,1,0,0:0:0:0:
204,168,297047,1,0,0:0:0:0:
412,200,297209,5,10,0:0:0:0:
272,100,297370,1,0,0:0:0:0:
343,250,297531,2,0,L|415:198,1,85
341,50,297854,2,0,L|269:102,1,85,0|0,1:0|0:0,0:0:0:0:
96,104,298176,5,0,0:0:0:0:
12,264,298337,2,0,P|102:240|178:231,1,170
324,352,298821,1,0,0:0:0:0:
264,192,298983,1,0,0:0:0:0:
384,96,299144,6,0,L|424:80,1,42.5,0|0,1:0|0:0,0:0:0:0:
452,184,299305,2,0,L|424:220,1,42.5,0|0,1:0|0:0,0:0:0:0:
320,280,299466,2,0,L|372:292,1,42.5
220,380,299628,2,0,L|224:336,1,42.5
164,224,299789,6,0,L|76:328,1,127.500004863739,10|0,0:0|0:0,0:0:0:0:
164,224,300273,5,0,3:0:0:0:
164,224,300434,6,0,L|148:140,1,85
164,224,300757,6,0,L|312:184,1,148.750001418591,0|0,1:0|0:0,0:0:0:0:
110,142,301240,6,0,P|66:218|104:300,1,170,0|0,3:0|0:0,0:0:0:0:
296,164,301724,6,0,P|268:116|231:94,1,85,0|0,1:0|0:0,0:0:0:0:
176,288,302047,6,0,P|219:259|231:216,1,85
200,48,302369,6,0,P|152:43|112:56,1,85,10|0,0:0|0:0,0:0:0:0:
300,350,302853,6,0,P|340:276|344:240,1,106.25
81,321,303337,5,0,1:0:0:0:
149,141,303498,1,0,0:0:0:0:
308,185,303659,1,0,0:0:0:0:
164,224,303821,5,0,3:0:0:0:
216,40,303982,6,0,L|200:96,1,42.5
144,200,304305,5,0,1:0:0:0:
154,249,304412,1,0,0:0:0:0:
192,215,304520,1,0,0:0:0:0:
180,166,304627,5,0,0:0:0:0:
104,234,304735,1,0,0:0:0:0:
200,264,304842,1,0,0:0:0:0:
360,280,304950,6,0,P|426:229|510:231,1,170,10|0,0:0|0:0,0:0:0:0:
155,89,305433,2,0,P|71:90|4:40,1,170,0|0,3:0|0:0,0:0:0:0:
377,107,305917,6,0,P|388:147|384:190,1,85,0|0,1:0|0:0,0:0:0:0:
360,280,306240,1,0,0:0:0:0:
211,164,306401,2,0,L|296:159,1,85,0|0,3:0|0:0,0:0:0:0:
471,145,306724,1,0,0:0:0:0:
352,362,306885,6,0,P|348:320|360:280,1,85,0|0,1:0|0:0,0:0:0:0:
239,83,307207,2,0,L|155:89,1,85
211,329,307530,5,10,0:0:0:0:
134,238,307691,1,0,0:0:0:0:
22,278,307853,1,0,0:0:0:0:
360,280,308014,5,0,3:0:0:0:
211,164,308175,1,0,0:0:0:0:
33,237,308336,1,0,0:0:0:0:
80,44,308498,5,0,1:0:0:0:
509,230,308659,1,0,1:0:0:0:
216,96,310110,6,0,B|132:44|-16:88|-56:220|-44:376|107:459|312:444|360:235|277:133|277:133|316:101|316:101|304:88|284:60|304:8|360:-8|404:16|412:76|395:105|395:105|460:168|452:240|420:304|384:332,1,1360,4|4,0:0|0:0,0:0:0:0:
256,192,320512,12,0,330753,0:0:0:0:
413,100,332057,5,8,0:0:0:0:
347,34,333375,5,8,0:0:0:0:
256,9,334651,5,8,0:0:0:0:
