osu file format v9

[General]
AudioFilename: Omoi no Kanata.mp3
AudioLeadIn: 0
PreviewTime: 75807
Countdown: 0
SampleSet: Soft
StackLeniency: 0.7
Mode: 0
LetterboxInBreaks: 1

[Editor]
DistanceSpacing: 1.2
BeatDivisor: 4
GridSize: 8

[Metadata]
Title:Omoi no Kanata (Short ver.)
Artist:Shimotsuki Haruka
Creator:KanaRin
Version:Normal
Source:Natsuzora Kanata
Tags:lkp aabc271

[Difficulty]
HPDrainRate:5
CircleSize:3
OverallDifficulty:5
ApproachRate:5
SliderMultiplier:0.999999999999999
SliderTickRate:0.5

[Events]
//Background and Video events
0,0,"bg1.jpg"
//Break Periods
//Storyboard Layer 0 (Background)
//Storyboard Layer 1 (Fail)
//Storyboard Layer 2 (Pass)
//Storyboard Layer 3 (Foreground)
//Storyboard Sound Samples
//Background Colour Transformations
3,100,163,162,255

[TimingPoints]
18075,461.538461538462,3,2,1,40,1,0
29151,-100,3,2,1,40,0,0
74267,-100,3,2,1,0,0,0
74498,-100,3,2,1,40,0,0
76228,-100,3,2,1,49,0,1
120075,-100,3,2,1,49,0,1
120500,461.538461538462,3,2,1,40,1,0
126038,480,3,2,1,40,1,0
126518,487.80487804878,3,2,1,30,1,0
127005,504.201680672269,3,2,1,20,1,0
127509,512.820512820513,3,2,1,5,1,0
128021,540.540540540541,3,2,1,0,1,0
128561,705.882352941176,3,2,1,0,1,0
129090,-100,3,2,1,0,0,0
129443,-100,3,2,1,71,0,0

[Colours]
Combo1 : 255,255,255
Combo2 : 0,255,255
Combo3 : 0,0,255

[HitObjects]
200,64,18074,2,0,B|320:64,3,99.9999999999999,0|2|0|0
256,296,20382,5,0
256,232,20613,1,0
256,168,20844,1,2
464,40,21767,5,2
464,104,21998,1,0
464,168,22228,1,2
464,288,22690,5,4
312,320,23613,6,0,B|192:320,3,99.9999999999999,0|2|0|0
256,88,25921,5,0
256,152,26151,1,0
256,216,26382,1,2
48,344,27305,5,2
48,280,27536,1,0
48,216,27767,1,2
48,96,28228,5,4
256,216,29151,5,0
320,112,29613,1,0
200,112,30075,1,2
136,216,30536,2,0,B|72:216|40:176,2,99.9999999999999,0|2|0
256,192,31921,12,2,33767
232,296,34690,6,0,B|280:320|336:288,2,99.9999999999999,2|0|2
232,176,36075,2,0,B|184:152|128:184,2,99.9999999999999,2|0|2
256,192,37459,12,2,39305
256,232,39767,6,0,B|312:208|312:144,2,99.9999999999999,2|0|2
136,232,41151,1,0
80,128,41613,5,0
200,104,42075,1,2
248,216,42536,1,0
360,168,42998,6,0,B|408:160|424:96,2,99.9999999999999,2|0|2
360,168,44382,1,0
360,168,44844,1,2
240,168,45305,6,0,B|184:168,2,50,0|0|2
360,168,46228,2,8,B|416:144|392:64,1,99.9999999999999,2|2
280,56,47151,2,0,B|240:16|184:40,2,99.9999999999999,0|2|0
256,192,48536,12,2,50382
88,304,51305,6,0,B|88:192,1,99.9999999999999,4|0
136,168,51998,1,0
184,200,52228,2,0,B|288:200,1,99.9999999999999
256,320,53151,5,0
256,320,53613,1,0
256,320,54075,2,0,B|208:344|160:312,2,99.9999999999999
256,320,55459,2,0,B|304:296|352:328,2,99.9999999999999
336,232,56844,6,0,B|224:232,1,99.9999999999999,4|0
184,208,57536,1,0
128,184,57767,2,0,B|16:184,1,99.9999999999999
72,72,58690,5,0
192,72,59151,1,0
256,192,59613,12,2,61459
256,200,62382,5,4
360,136,62844,2,0,B|328:88|264:96,2,99.9999999999999
352,256,64228,1,0
256,328,64690,1,0
256,208,65151,5,0
144,248,65613,2,0,B|104:200|152:144,2,99.9999999999999
240,328,66998,1,0
120,328,67459,5,0
120,328,67690,1,0
120,328,67921,2,0,B|0:328,2,99.9999999999999,4|0|0
192,232,69305,2,0,B|312:232,2,99.9999999999999
256,192,70690,12,0,74382
104,96,75767,5,0
104,96,76228,2,0,B|48:104|40:176,1,99.9999999999999,4|0
160,168,77151,2,0,B|272:168,2,99.9999999999999,2|0|2
160,168,78536,1,0
160,168,78998,1,2
256,240,79459,6,0,B|256:344,2,99.9999999999999,0|2|0
256,120,80844,1,2
376,120,81305,2,0,B|488:120,2,99.9999999999999,0|0|2
256,120,82690,1,0
136,120,83151,2,0,B|16:120|16:120,2,99.9999999999999,2|0|2
256,120,84536,1,2
256,240,84998,6,0,B|256:136,2,99.9999999999999,0|2|0
256,360,86382,1,2
256,240,86844,1,0
152,304,87305,6,0,B|48:304|48:304,2,99.9999999999999,2|0|2
256,240,88690,1,0
360,304,89151,1,2
360,184,89613,6,0,B|360:128,1,50
360,72,90074,2,0,B|416:88|448:136,2,99.9999999999999,2|0|2
240,72,91459,1,0
120,72,91921,1,2
176,176,92382,1,0
256,192,92844,12,0,95151
104,112,95613,5,0
104,112,96074,1,0
104,112,96536,1,0
104,232,96998,1,0
104,232,97459,1,0
104,232,97921,1,0
208,176,98382,6,0,B|240:216|312:192,1,99.9999999999999,4|0
352,88,99305,2,0,B|416:88|432:152,2,99.9999999999999,0|2|0
232,88,100690,2,0,B|176:88|152:16,1,99.9999999999999,2|0
88,128,101613,2,0,B|112:176|176:184,1,99.9999999999999,2|0
280,136,102536,2,0,B|312:176|279:239,2,99.9999999999999,2|0|2
176,80,103921,6,0,B|120:112|136:184,1,99.9999999999999,4|0
80,272,104844,2,0,B|120:296|184:272,2,99.9999999999999,0|2|0
32,160,106228,2,0,B|8:104|56:64,1,99.9999999999999,2|0
152,136,107151,6,0,B|200:160|208:224,1,99.9999999999999,2|0
224,336,108074,2,0,B|280:344|304:272,2,99.9999999999999,2|0|2
104,336,109459,2,0,B|-8:336,2,99.9999999999999,4|2|0
224,336,110844,1,2
256,88,111767,6,0,B|256:192,1,99.9999999999999,2|0
208,296,112690,2,0,B|248:320|304:296,2,99.9999999999999,2|0|2
256,184,114074,1,2
256,64,114536,1,0
256,192,114998,12,0,117305
256,192,117767,12,0,120074
136,112,120500,5,0
136,112,120961,1,0
136,112,121423,1,0
136,208,121884,2,0,B|136:312,1,99.9999999999999
336,312,122807,5,0
336,312,123038,1,0
336,312,123269,1,0
336,160,123730,1,0
200,224,124192,1,0
208,72,124653,1,0
80,152,125115,1,0
80,304,125576,2,0,B|-32:304,1,99.9999999999999
256,192,126278,12,0,129266
