osu file format v14

[General]
AudioFilename: priministar.mp3
AudioLeadIn: 500
PreviewTime: 77032
Countdown: 0
SampleSet: Soft
StackLeniency: 0.7
Mode: 0
LetterboxInBreaks: 0
WidescreenStoryboard: 0

[Editor]
DistanceSpacing: 1.3
BeatDivisor: 4
GridSize: 4
TimelineZoom: 2.1

[Metadata]
Title:Nijiiro no Kisetsu e
TitleUnicode:虹色の季節へ
Artist:Shimotsuki Haruka
ArtistUnicode:霜月はるか
Creator:PinkHeart
Version:Insane
Source:PriministAr
Tags:galgame eroge opening HOOKSOFT OdiakeS Kagamine Ren Karen
BeatmapID:621983
BeatmapSetID:273849

[Difficulty]
HPDrainRate:7.2
CircleSize:4
OverallDifficulty:7.5
ApproachRate:9
SliderMultiplier:1.4
SliderTickRate:1

[Events]
//Background and Video events
0,0,"bg.jpg",0,0
Video,0,"pv.flv"
//Break Periods
//Storyboard Layer 0 (Background)
//Storyboard Layer 1 (Fail)
//Storyboard Layer 2 (Pass)
//Storyboard Layer 3 (Foreground)
//Storyboard Sound Samples

[TimingPoints]
20,365.853658536585,4,2,0,50,1,0
1117,-100,4,2,0,20,0,0
1483,-100,4,2,0,30,0,0
7337,-100,4,2,0,35,0,0
10263,-100,4,2,0,40,0,0
14654,-100,4,2,0,30,0,0
15385,-100,4,2,0,40,0,0
30019,-100,4,2,0,60,0,0
30385,-100,4,2,0,45,0,0
30568,-100,4,2,0,30,0,0
42093,-66.6666666666667,4,2,0,50,0,0
42367,-66.6666666666667,4,2,0,5,0,0
42459,-100,4,2,0,40,0,0
54166,-100,4,2,0,50,0,0
71727,-66.6666666666667,4,2,0,50,0,0
72824,-100,4,2,0,50,0,0
74654,-66.6666666666667,4,2,0,50,0,0
75934,-50,4,2,0,50,0,0
76300,-100,4,2,0,50,0,0
77215,-66.6666666666667,4,2,0,50,0,0
77580,-100,4,2,0,50,0,1
86361,-66.6666666666667,4,2,0,50,0,1
87093,-50,4,2,0,50,0,1
87641,-66.6666666666667,4,2,0,50,0,1
89288,-100,4,2,0,50,0,1
102459,-100,4,2,0,60,0,1
103190,-100,4,2,0,70,0,1
103556,-66.6666666666667,4,2,0,40,0,1
103922,-100,4,2,0,50,0,0
106849,-100,4,2,0,5,0,0

[Colours]
Combo1 : 255,255,128
Combo2 : 128,128,255
Combo3 : 255,128,255
Combo4 : 0,255,128

[HitObjects]
88,99,1117,5,0,0:0:0:0:
68,91,1483,6,0,B|120:119|172:83|172:83|188:111,1,140,2|0,0:0|0:0,0:0:0:0:
186,108,2032,1,2,0:0:0:0:
256,215,2580,1,0,0:0:0:0:
238,202,2946,6,0,B|188:175|128:195|128:195|148:179,1,140,2|0,0:0|0:0,0:0:0:0:
148,178,3495,1,2,0:0:0:0:
128,195,3861,1,0,0:0:0:0:
220,194,4044,1,0,0:0:0:0:
173,114,4227,1,0,0:0:0:0:
220,215,4410,6,0,B|232:163|292:127|292:127|292:155,1,140,2|0,0:0|0:0,0:0:0:0:
292,150,4959,1,2,0:0:0:0:
288,163,5324,1,2,0:0:0:0:
280,151,5690,1,0,0:0:0:0:
284,155,5873,6,0,B|323:191|324:261|324:261|340:240,1,140,2|0,0:0|0:0,0:0:0:0:
465,193,6422,1,0,0:0:0:0:
390,307,6605,1,2,0:0:0:0:
384,172,6788,1,0,0:0:0:0:
469,277,6971,1,0,0:0:0:0:
337,242,7154,1,0,0:0:0:0:
280,329,7337,6,0,B|288:268|337:242|337:242|304:236,1,140,2|0,0:0|0:0,0:0:0:0:
384,172,7885,1,2,0:0:0:0:
392,160,8251,1,0,0:0:0:0:
400,148,8617,6,0,B|400:124|400:124|448:164|440:232,1,140,2|0,0:0|0:0,0:0:0:0:
416,312,9166,2,0,P|383:325|348:327,1,70
292,239,9532,2,0,P|325:226|360:224,1,70,2|0,0:0|0:0,0:0:0:0:
264,384,9898,2,0,P|252:351|231:323,1,70,2|0,0:0|0:0,0:0:0:0:
129,127,10263,1,4,0:1:0:0:
256,192,10355,12,0,13007,0:1:0:0:
256,192,13190,5,4,1:0:0:0:
256,192,13282,12,0,14471,0:0:0:0:
332,7,14654,6,0,L|305:29,1,35,0|0,1:0|0:0,0:0:0:0:
352,92,14837,1,0,3:0:0:0:
338,103,14928,1,0,0:0:0:0:
324,116,15019,2,0,L|297:138,1,35,0|0,1:0|0:0,0:0:0:0:
372,180,15202,5,0,3:0:0:0:
358,191,15293,1,0,3:0:0:0:
344,204,15385,2,0,L|317:225,1,35,0|0,1:0|0:0,3:0:0:0:
445,52,15568,1,0,1:0:0:0:
445,52,16117,6,0,P|442:95|413:139,2,70,4|0|0,0:0|0:0|1:0,0:0:0:0:
372,170,16666,1,0,3:0:0:0:
232,164,16849,2,0,P|263:147|298:143,1,70,0|0,3:0|3:0,0:0:0:0:
436,291,17215,2,0,P|407:273|386:246,1,70,0|0,1:0|0:0,0:0:0:0:
315,79,17580,6,0,P|314:113|301:146,1,70,0|0,3:0|0:0,0:0:0:0:
219,231,17946,1,0,1:0:0:0:
300,146,18129,1,0,0:0:0:0:
270,278,18312,2,0,P|241:260|220:233,1,70,0|0,3:0|3:0,0:0:0:0:
118,141,18678,2,0,P|149:124|184:120,1,70,0|0,1:0|0:0,0:0:0:0:
132,227,19044,6,0,P|66:213|31:154,1,140,4|0,0:0|1:0,0:0:0:0:
1,43,19593,2,0,L|10:77,1,35,0|0,3:0|0:0,0:0:0:0:
31,154,19776,2,0,L|49:222,1,70,0|0,0:0|3:0,0:0:0:0:
86,72,20141,2,0,L|162:48,1,70,0|0,1:0|0:0,0:0:0:0:
256,16,20507,5,4,0:0:0:0:
256,16,20873,5,0,1:0:0:0:
256,16,21239,5,0,3:0:0:0:
216,108,21422,1,0,3:0:0:0:
176,200,21605,1,0,1:0:0:0:
136,288,21788,2,0,L|122:320,1,35,0|0,3:0|3:0,0:0:0:0:
176,200,21971,6,0,P|154:172|125:154,1,70,4|0,0:0|0:0,0:0:0:0:
136,288,22337,1,0,1:0:0:0:
233,277,22519,2,0,P|267:272|298:255,2,70,0|0|0,3:0|3:0|3:0,0:0:0:0:
136,288,23068,2,0,P|122:320|121:354,1,70,0|0,1:0|0:0,0:0:0:0:
176,200,23434,5,0,3:0:0:0:
233,277,23617,1,0,0:0:0:0:
136,288,23800,5,0,1:0:0:0:
272,186,23983,1,0,0:0:0:0:
77,209,24166,5,0,3:0:0:0:
194,366,24349,1,0,3:0:0:0:
168,144,24532,5,0,1:0:0:0:
284,301,24715,1,0,0:0:0:0:
92,324,24898,1,4,0:0:0:0:
256,192,24989,12,0,26178,0:0:0:0:
320,188,26361,6,0,B|352:152|344:104|344:104|328:120,1,105,4|0,0:0|0:0,0:0:0:0:
261,137,26727,2,0,L|252:104,1,35,0|0,1:0|0:0,0:0:0:0:
420,96,26910,2,0,L|456:58,1,35,0|0,3:0|0:0,0:0:0:0:
408,240,27093,5,0,3:0:0:0:
416,268,27184,1,0,3:0:0:0:
432,292,27276,2,0,L|455:317,1,35,0|0,3:0|0:0,0:0:0:0:
481,191,27459,2,0,L|452:172,1,35,0|0,1:0|0:0,0:0:0:0:
328,220,27641,2,0,L|304:246,1,35,0|0,1:0|0:0,0:0:0:0:
240,292,27824,6,0,B|180:312|124:280|124:280|148:272,1,140,4|0,0:0|1:0,0:0:0:0:
215,175,28373,1,0,3:0:0:0:
212,196,28465,1,0,3:0:0:0:
204,216,28556,1,0,0:0:0:0:
60,228,28739,1,0,3:0:0:0:
142,346,28922,1,0,1:0:0:0:
204,216,29105,6,0,L|173:201,1,35,0|0,3:0|3:0,0:0:0:0:
122,98,29288,1,4,0:2:0:0:
235,231,29471,2,0,L|204:216,1,35,0|0,1:0|3:0,0:0:0:0:
60,148,29654,2,0,L|28:132,1,35,0|0,1:0|0:0,0:0:0:0:
196,128,29837,5,0,3:0:0:0:
212,104,29928,1,0,3:0:0:0:
216,76,30019,2,0,L|208:41,1,35,0|0,1:0|0:0,0:0:0:0:
235,231,30202,2,0,L|227:196,1,35,0|0,3:0|0:0,0:0:0:0:
308,120,30385,2,0,L|315:154,1,35,0|0,3:0|0:0,0:0:0:0:
327,275,30568,2,0,L|334:309,1,35,0|0,3:0|0:0,0:0:0:0:
392,208,30751,6,0,B|444:176|504:200|504:200|484:224,1,140,2|0,0:0|0:0,0:0:0:0:
489,217,31300,1,2,0:0:0:0:
212,144,32032,5,0,0:0:0:0:
147,77,32215,2,0,B|95:45|35:69|35:69|55:93,1,140,2|0,0:0|0:0,0:0:0:0:
50,86,32763,1,2,0:0:0:0:
68,100,33129,5,2,0:0:0:0:
0,152,33312,1,0,0:0:0:0:
80,185,33495,1,0,0:0:0:0:
164,160,33678,6,0,B|192:216|164:272|164:272|144:256,1,140,2|0,0:0|0:0,0:0:0:0:
145,257,34227,1,2,0:0:0:0:
320,312,34593,1,2,0:0:0:0:
300,304,34959,6,0,B|272:292|272:292|308:244|288:188,1,140
388,372,35690,2,0,B|368:316|404:268|404:268|376:256,1,140,2|0,0:0|0:0,0:0:0:0:
300,304,36239,2,0,P|268:317|233:320,1,70
149,317,36605,6,0,B|168:344|168:344|208:308|208:248,1,140,2|0,0:0|0:0,0:0:0:0:
207,248,37154,1,2,0:0:0:0:
287,150,37519,1,0,0:0:0:0:
145,178,37885,6,0,B|163:152|163:152|168:212|207:247,1,140,2|0,0:0|0:0,0:0:0:0:
328,362,38434,1,2,0:0:0:0:
328,362,38800,2,0,P|332:294|295:235,1,140,2|0,0:0|0:0,0:0:0:0:
208,248,39532,6,0,P|236:168|348:164,1,210,0|0,3:0|0:0,0:0:0:0:
296,236,40263,2,0,P|259:159|336:80,1,140,2|0,0:0|0:0,0:0:0:0:
384,32,40995,1,2,0:0:0:0:
384,32,41544,6,0,B|360:16|360:16|376:64|360:112|336:128,1,140,2|0,0:0|0:0,0:0:0:0:
272,104,42093,2,0,B|348:72|348:132|424:100,1,157.500006008148,0|0,0:0|0:0,0:0:0:0:
460,158,42459,6,0,P|435:132|424:100,1,70,4|0,0:0|0:0,0:0:0:0:
456,237,42824,2,0,P|422:228|395:205,1,70,0|0,3:0|0:0,0:0:0:0:
306,8,43190,6,0,P|275:25|240:27,1,70,0|0,3:0|0:0,0:0:0:0:
384,32,43556,2,0,P|366:62|337:82,1,70,0|0,3:0|0:0,0:0:0:0:
248,172,43922,6,0,P|247:136|263:105,1,70,0|0,3:0|0:0,0:0:0:0:
188,227,44288,2,0,P|170:196|167:161,1,70,0|0,3:0|0:0,0:0:0:0:
134,284,44654,6,0,P|164:301|199:303,1,70,0|0,3:0|0:0,0:0:0:0:
56,308,45019,2,0,P|73:338|102:358,1,70,0|0,3:0|0:0,0:0:0:0:
276,320,45385,6,0,P|276:284|260:253,2,70,0|0|0,3:0|0:0|3:0,0:0:0:0:
188,227,45934,1,0,0:0:0:0:
251,177,46117,6,0,P|266:145|266:111,1,70,0|0,3:0|0:0,0:0:0:0:
173,86,46483,2,0,P|157:117|157:151,1,70,0|0,3:0|0:0,0:0:0:0:
225,202,46849,6,0,P|259:178|280:142,1,70,0|0,3:0|0:0,0:0:0:0:
198,60,47215,2,0,P|164:84|143:120,1,70,0|0,3:0|0:0,0:0:0:0:
200,216,47580,5,0,3:0:0:0:
224,47,47763,1,0,0:0:0:0:
259,164,47946,1,0,3:0:0:0:
140,136,48129,1,0,0:0:0:0:
371,66,48312,6,0,P|369:31|356:0,2,70,0|0|0,3:0|0:0|3:0,0:0:0:0:
384,145,48861,1,0,0:0:0:0:
259,164,49044,2,0,P|279:135|309:118,1,70,0|0,3:0|0:0,0:0:0:0:
449,165,49410,2,0,P|414:161|384:145,1,70,0|0,3:0|0:0,0:0:0:0:
240,68,49776,6,0,P|209:51|174:47,1,70,0|0,3:0|0:0,0:0:0:0:
208,210,50141,2,0,P|238:192|259:164,1,70,0|0,3:0|0:0,0:0:0:0:
98,111,50507,2,0,P|100:145|114:177,1,70,0|0,3:0|0:0,0:0:0:0:
112,260,50873,1,0,3:0:0:0:
99,111,51056,1,0,0:0:0:0:
147,341,51239,6,0,B|200:308|198:253|198:253|221:276,1,140,4|0,0:0|3:0,0:0:0:0:
114,177,51788,1,0,0:0:0:0:
288,230,51971,6,0,P|300:297|260:352,1,140,4|0,0:0|3:0,0:0:0:0:
268,212,52519,1,0,3:0:0:0:
248,196,52611,1,0,3:0:0:0:
229,179,52702,6,0,L|202:157,1,35,2|0,0:2|0:0,0:0:0:0:
349,279,52885,2,0,L|377:302,1,35,0|0,3:0|0:0,0:0:0:0:
303,151,53068,6,0,L|309:117,1,35,0|0,3:0|0:0,0:0:0:0:
276,308,53251,2,0,L|270:342,1,35,0|0,3:0|0:0,0:0:0:0:
363,202,53434,6,0,L|396:190,1,35,0|0,3:0|0:0,0:0:0:0:
216,257,53617,2,0,L|183:269,1,35,0|0,3:0|0:0,0:0:0:0:
412,331,53800,5,0,3:0:0:0:
394,316,53891,1,0,3:0:0:0:
376,301,53983,2,0,L|349:279,1,35,0|0,3:0|0:0,0:0:0:0:
202,157,54166,5,4,0:0:0:0:
186,148,54715,1,0,3:0:0:0:
170,136,55263,1,0,1:0:0:0:
154,124,55812,1,0,3:0:0:0:
142,116,56361,1,0,1:0:0:0:
152,190,56544,1,0,0:0:0:0:
226,180,56727,1,0,1:0:0:0:
216,106,56910,1,0,3:0:0:0:
72,281,57093,6,0,P|140:289|198:252,1,140,4|0,0:0|1:0,0:0:0:0:
226,180,57641,1,0,0:0:0:0:
236,332,57824,2,0,P|293:294|361:302,1,140,0|0,3:0|1:0,0:0:0:0:
428,344,58373,1,0,0:0:0:0:
348,216,58556,1,0,3:0:0:0:
361,302,58739,1,0,0:0:0:0:
428,247,58922,2,0,L|455:224,1,35,0|0,1:0|0:0,0:0:0:0:
361,302,59105,2,0,L|366:335,1,35,0|0,0:0|0:0,0:0:0:0:
348,216,59288,2,0,L|315:202,1,35,0|0,1:0|0:0,0:0:0:0:
388,135,59471,5,0,3:0:0:0:
404,130,59562,1,0,3:0:0:0:
421,128,59654,1,0,3:0:0:0:
439,130,59745,1,0,3:0:0:0:
455,136,59837,1,0,3:0:0:0:
470,146,59928,1,0,3:0:0:0:
483,158,60019,5,4,0:0:0:0:
490,138,60568,1,0,3:0:0:0:
497,118,61117,1,0,1:0:0:0:
504,98,61666,1,0,3:0:0:0:
511,78,62215,1,0,1:0:0:0:
447,132,62398,1,0,0:0:0:0:
432,49,62580,1,0,1:0:0:0:
511,78,62763,1,0,3:0:0:0:
448,216,62946,6,0,P|396:200|364:124,1,140,4|0,0:0|1:0,0:0:0:0:
512,260,63495,1,0,0:0:0:0:
448,215,63678,2,0,P|392:200|326:242,1,140,0|0,3:0|1:0,0:0:0:0:
264,190,64227,1,0,0:0:0:0:
96,164,64410,5,0,3:0:0:0:
127,242,64593,1,0,3:0:0:0:
180,176,64776,1,0,1:0:0:0:
43,229,64959,5,0,0:0:0:0:
211,255,65141,1,0,3:0:0:0:
147,97,65324,1,0,0:0:0:0:
160,322,65507,6,0,P|132:283|128:250,1,70,0|0,1:0|0:0,0:0:0:0:
264,190,65873,6,0,L|402:211,1,140,4|0,0:0|1:0,0:0:0:0:
220,184,66422,1,0,3:0:0:0:
110,165,66605,2,0,L|179:176,1,70,0|0,3:0|0:0,0:0:0:0:
264,190,66971,2,0,P|300:172|320:144,1,70,0|0,1:0|0:0,0:0:0:0:
208,256,67337,6,0,P|205:296|219:327,2,70,0|0|0,3:0|3:0|1:0,0:0:0:0:
264,190,67885,1,0,0:0:0:0:
352,304,68068,2,0,P|317:298|289:278,1,70,0|0,0:0|0:0,3:0:0:0:
117,150,68434,2,0,P|151:155|180:176,1,70,0|0,1:0|0:0,0:0:0:0:
89,75,68800,6,0,P|41:124|47:191,1,140,4|0,0:0|1:0,0:0:0:0:
146,228,69349,2,0,P|193:178|187:111,1,140,4|0,0:0|3:0,0:0:0:0:
117,150,69898,1,0,1:0:0:0:
187,111,70080,6,0,B|220:76|268:72|268:72|256:104,1,105,4|0,0:0|0:0,0:0:0:0:
187,111,70446,2,0,P|168:139|164:152,1,35,0|0,1:0|0:0,0:0:0:0:
132,244,70629,1,0,1:0:0:0:
264,190,70812,1,0,3:0:0:0:
272,172,70904,1,0,3:0:0:0:
272,152,70995,5,0,1:0:0:0:
248,164,71087,1,0,3:0:0:0:
229,181,71178,1,0,3:0:0:0:
216,204,71269,1,0,0:0:0:0:
208,228,71361,5,0,1:0:0:0:
205,262,71452,1,0,3:0:0:0:
212,296,71544,1,0,3:0:0:0:
229,327,71635,1,0,3:0:0:0:
316,256,71727,6,0,B|368:216|436:240|436:240|412:268,1,157.500006008148,4|0,0:0|0:0,0:0:0:0:
415,263,72093,1,0,1:0:0:0:
492,180,72276,6,0,B|532:128|508:60|508:60|480:84,1,157.500006008148,4|0,0:0|0:0,0:0:0:0:
492,180,72641,1,0,1:0:0:0:
300,260,72824,6,0,B|228:264|180:208|180:208|220:208,1,175,4|0,0:0|0:0,0:0:0:0:
296,180,73373,6,0,L|280:136,1,35,0|0,1:0|0:0,0:0:0:0:
172,120,73556,2,0,L|218:128,1,35,0|0,1:0|0:0,0:0:0:0:
372,160,73739,1,0,3:0:0:0:
408,148,73830,1,0,3:0:0:0:
376,48,73922,6,0,L|369:82,1,35,0|0,1:0|0:0,0:0:0:0:
284,147,74105,2,0,L|296:180,1,35,0|0,3:0|2:0,0:0:0:0:
248,276,74288,2,0,L|276:304,1,35,0|0,1:0|2:0,0:0:0:0:
360,384,74471,2,0,L|335:359,1,35,0|0,3:0|3:0,0:0:0:0:
180,208,74654,6,0,B|180:144|244:104|244:104|224:164,1,157.500006008148,4|0,0:0|0:0,0:0:0:0:
180,208,75019,1,0,1:0:0:0:
347,103,75202,6,0,P|396:88|448:95,1,105.000004005432,4|0,0:0|0:0,0:0:0:0:
302,192,75568,2,0,P|312:141|347:103,1,105.000004005432,0|0,1:0|0:0,0:0:0:0:
392,252,75934,6,0,P|270:298|196:195,1,140,4|0,0:0|0:0,0:0:0:0:
270,298,77032,2,0,L|232:292,1,35,0|0,3:0|0:0,0:0:0:0:
265,154,77215,6,0,P|279:229|235:292,1,157.500006008148,0|0,1:0|0:0,0:0:0:0:
96,235,77580,6,0,P|139:207|191:207,1,105,4|0,0:0|0:0,0:0:0:0:
268,228,77946,1,0,1:0:0:0:
24,192,78129,2,0,P|12:232|16:260,1,70,0|0,0:0|3:0,0:0:0:0:
176,120,78495,5,0,3:0:0:0:
162,286,78678,2,0,P|129:312|102:318,1,70,0|0,1:0|0:0,0:0:0:0:
108,68,79044,6,0,P|151:40|203:40,1,105,4|0,0:0|0:0,0:0:0:0:
108,68,79410,1,0,1:0:0:0:
167,188,79593,2,0,P|178:154|176:120,1,70,0|0,0:0|3:0,0:0:0:0:
238,246,79959,5,0,3:0:0:0:
94,238,80141,1,0,1:0:0:0:
176,120,80324,1,0,0:0:0:0:
164,286,80507,6,0,P|187:313|220:328,1,70,2|0,0:0|0:0,0:0:0:0:
244,164,80873,1,0,1:0:0:0:
94,238,81056,6,0,P|60:243|26:235,1,70,0|2,3:0|0:0,0:0:0:0:
238,246,81422,2,0,P|269:260|291:287,2,70,0|0|0,0:0|1:0|0:0,0:0:0:0:
100,152,81971,5,4,0:0:0:0:
164,286,82154,1,0,3:0:0:0:
244,164,82337,1,0,1:0:0:0:
351,1,82519,5,0,0:0:0:0:
270,132,82702,1,0,3:0:0:0:
413,73,82885,1,0,0:0:0:0:
262,37,83068,1,0,1:0:0:0:
363,155,83251,1,0,0:0:0:0:
475,7,83434,6,0,P|496:55|492:107,1,105,4|0,0:0|0:0,0:0:0:0:
456,184,83800,1,0,1:0:0:0:
413,73,83983,2,0,P|390:47|359:34,1,70,0|0,0:0|3:0,0:0:0:0:
456,184,84349,2,0,P|479:210|510:223,1,70,0|0,3:0|1:0,0:0:0:0:
413,73,84715,1,0,0:0:0:0:
248,224,84898,5,2,0:0:0:0:
248,224,85263,1,0,1:0:0:0:
181,267,85446,1,0,3:0:0:0:
244,144,85629,1,0,0:0:0:0:
320,260,85812,1,0,3:0:0:0:
248,224,85995,1,0,1:0:0:0:
387,217,86178,1,0,3:0:0:0:
323,340,86361,6,0,B|283:372|239:376|195:356|195:356|155:336|123:340,1,210.000008010865,4|0,0:0|1:0,0:0:0:0:
387,217,86910,1,0,3:0:0:0:
323,340,87093,6,0,P|192:354|129:238,1,280,4|0,0:0|1:0,0:0:0:0:
398,292,87641,5,0,3:0:0:0:
364,320,87733,1,0,3:0:0:0:
324,340,87824,2,0,L|273:326,1,52.5000020027161,4|0,0:0|0:0,0:0:0:0:
320,252,88007,2,0,L|356:214,1,52.5000020027161,0|0,1:0|0:0,0:0:0:0:
398,292,88190,2,0,L|411:342,1,52.5000020027161,0|0,1:0|0:0,0:0:0:0:
232,308,88373,5,0,3:0:0:0:
191,294,88465,1,0,3:0:0:0:
152,276,88556,2,0,L|108:232,1,52.5000020027161,0|0,1:0|0:0,0:0:0:0:
245,257,88739,2,0,L|232:308,1,52.5000020027161,0|0,3:0|0:0,0:0:0:0:
180,184,88922,2,0,L|230:170,1,52.5000020027161,0|0,1:0|0:0,0:0:0:0:
335,86,89105,2,0,L|285:101,1,52.5000020027161,0|0,3:0|0:0,3:0:0:0:
106,158,89288,6,0,P|55:147|19:110,1,105,4|0,0:0|0:0,0:0:0:0:
106,238,89654,2,0,P|107:279|96:305,1,70,0|0,1:0|0:0,0:0:0:0:
19,110,90019,5,0,3:0:0:0:
106,238,90202,1,0,0:0:0:0:
228,44,90385,2,0,P|267:31|295:35,1,70,0|0,1:0|0:0,0:0:0:0:
275,215,90751,6,0,P|259:166|272:116,1,105,4|0,0:0|0:0,0:0:0:0:
298,297,91117,2,0,P|263:301|230:288,1,70,0|0,1:0|3:0,0:0:0:0:
356,164,91483,5,0,3:0:0:0:
184,120,91666,1,0,0:0:0:0:
235,293,91849,1,0,1:0:0:0:
260,192,92032,1,0,0:0:0:0:
234,292,92215,6,0,P|212:319|181:334,1,70,2|0,0:0|3:0,0:0:0:0:
268,168,92580,1,0,1:0:0:0:
181,334,92763,6,0,P|146:339|112:329,2,70,0|2|0,3:0|0:0|0:0,0:0:0:0:
275,145,93312,1,0,1:0:0:0:
300,300,93495,1,0,0:0:0:0:
154,244,93678,1,4,0:0:0:0:
154,244,94044,5,0,1:0:0:0:
300,300,94227,1,0,0:0:0:0:
215,168,94410,1,0,3:0:0:0:
206,322,94593,1,0,0:0:0:0:
303,202,94776,1,0,1:0:0:0:
436,40,94959,1,0,0:0:0:0:
368,128,95141,6,0,P|296:102|241:124,1,105,4|0,0:0|0:0,0:0:0:0:
428,180,95507,2,0,P|444:140|444:112,1,70,0|0,1:0|0:0,0:0:0:0:
356,204,95873,5,0,3:0:0:0:
396,52,96056,1,0,3:0:0:0:
356,204,96239,2,0,P|329:237|305:251,1,70,0|0,1:0|0:0,0:0:0:0:
140,128,96605,6,0,P|182:134|206:148,1,70,0|0,3:0|0:0,0:0:0:0:
182,353,96971,2,0,P|166:313|166:285,1,70,0|0,1:0|0:0,0:0:0:0:
356,204,97337,2,0,P|329:237|305:251,1,70,0|0,3:0|3:0,0:0:0:0:
308,48,97702,2,0,P|335:15|359:0,1,70,0|0,1:0|0:0,0:0:0:0:
480,192,98068,6,0,B|508:252|480:304|480:304|464:288,1,140,4|0,0:0|1:0,0:0:0:0:
333,200,98617,1,0,0:0:0:0:
357,204,98709,1,0,0:0:0:0:
380,212,98800,1,0,3:0:0:0:
332,284,98983,1,0,3:0:0:0:
293,206,99166,2,0,L|290:170,1,35,0|0,1:0|0:0,0:0:0:0:
332,284,99349,2,0,L|302:303,1,35,0|0,3:0|0:0,0:0:0:0:
380,212,99532,6,0,L|412:228,1,35,0|0,3:0|0:0,0:0:0:0:
512,200,99715,2,0,L|480:184,1,35,0|0,3:0|0:0,0:0:0:0:
372,64,99898,2,0,L|404:80,1,35,0|0,1:0|0:0,0:0:0:0:
340,136,100080,1,0,3:0:0:0:
312,144,100172,1,0,0:0:0:0:
244,104,100263,5,0,3:0:0:0:
208,84,100355,1,0,3:0:0:0:
168,80,100446,2,0,L|171:116,1,35,0|0,3:0|0:0,0:0:0:0:
79,113,100629,2,0,L|98:142,1,35,0|0,1:0|0:0,0:0:0:0:
17,187,100812,2,0,L|49:203,1,35,0|0,3:0|0:0,0:0:0:0:
136,312,100995,6,0,B|155:324|155:324|169:266|127:216,1,140,4|0,0:0|1:0,0:0:0:0:
0,300,101544,1,0,0:0:0:0:
20,300,101636,1,0,0:0:0:0:
39,292,101727,2,0,L|67:271,1,35,0|0,3:0|0:0,0:0:0:0:
231,240,101910,2,0,L|259:219,1,35,0|0,3:0|0:0,0:0:0:0:
339,156,102093,2,0,L|306:142,1,35,0|0,1:0|0:0,0:0:0:0:
212,104,102276,2,0,L|216:138,1,35,0|0,3:0|0:0,0:0:0:0:
244,340,102459,5,0,1:0:0:0:
339,156,102641,1,0,3:0:0:0:
339,156,102733,1,0,3:0:0:0:
339,156,102824,2,0,L|306:142,1,35,0|0,1:0|0:0,0:0:0:0:
375,257,103007,5,0,3:0:0:0:
375,257,103099,1,0,3:0:0:0:
375,257,103190,2,0,L|343:244,1,35,0|0,1:0|0:0,0:0:0:0:
204,186,103373,1,0,1:0:0:0:
236,32,103556,6,0,L|224:95,1,52.5000020027161,0|0,1:0|0:0,0:0:0:0:
204,186,103739,2,0,L|194:242,1,52.5000020027161,0|0,3:0|0:0,0:0:0:0:
176,336,103922,1,4,0:0:0:0:
256,192,104013,12,0,106894,0:0:0:0:
