osu file format v13

[General]
AudioFilename: Loving you.mp3
AudioLeadIn: 0
PreviewTime: 64258
Countdown: 0
SampleSet: Soft
StackLeniency: 0.7
Mode: 0
LetterboxInBreaks: 0
WidescreenStoryboard: 0

[Editor]
DistanceSpacing: 1.2
BeatDivisor: 4
GridSize: 4
TimelineZoom: 1

[Metadata]
Title:Loving you
TitleUnicode:Loving you
Artist:Shimotsuki Haruka
ArtistUnicode:霜月はるか
Creator:CloudSplash16
Version:Easy
Source:PRETTY×CATION
Tags:hibiki works eroge opening gamu
BeatmapID:441914
BeatmapSetID:161536

[Difficulty]
HPDrainRate:2
CircleSize:3
OverallDifficulty:2
ApproachRate:3
SliderMultiplier:0.8
SliderTickRate:1

[Events]
//Background and Video events
Video,-270,"op.avi"
0,0,"bg.jpg",0,0
//Break Periods
2,89038,89914
//Storyboard Layer 0 (Background)
//Storyboard Layer 1 (Fail)
//Storyboard Layer 2 (Pass)
//Storyboard Layer 3 (Foreground)
//Storyboard Sound Samples
//Background Colour Transformations
3,100,163,162,255

[TimingPoints]
0,387.096774193548,4,2,3,60,1,0
7741,-100,4,2,2,60,0,0
13935,-100,4,2,1,65,0,0
20129,-100,4,2,1,60,0,0
26322,-100,4,2,1,45,0,0
38709,-100,4,2,4,50,0,0
60387,-100,4,2,4,55,0,0
65032,-100,4,2,1,65,0,1
78580,-100,4,2,1,65,0,0
78967,-100,4,2,1,65,0,1
88838,-100,4,2,1,65,0,0
116999,909.090909090909,4,2,3,50,1,0
117908,-100,4,2,3,40,0,0
118817,-100,4,2,3,30,0,0
119726,-100,4,2,3,20,0,0
120635,-100,4,2,3,10,0,0

[Colours]
Combo1 : 160,212,104
Combo2 : 252,110,81
Combo3 : 236,135,192
Combo4 : 79,193,233

[HitObjects]
232,136,1548,6,0,P|174:119|117:136,2,120,2|2|0,0:0|0:0|0:0,0:0:0:0:
320,176,3096,2,0,P|377:192|434:175,2,120,2|2|0,0:0|0:0|0:0,0:0:0:0:
232,136,4645,6,0,P|174:119|117:136,1,120,2|2,0:0|0:0,0:0:0:0:
60,212,5612,2,0,L|57:251,1,40,0|0,0:0|0:0,0:0:0:0:
116,328,6193,2,0,B|176:352|232:320|232:320|270:328,1,160,2|0,0:0|0:0,0:0:0:0:
456,284,7741,6,0,B|472:192|472:192|465:166,1,120,2|2,0:0|0:0,0:0:0:0:
400,36,8903,1,0,0:0:0:0:
316,80,9290,2,0,P|258:96|201:80,1,120,2|2,0:0|0:0,0:0:0:0:
120,132,10258,2,0,L|117:171,1,40,0|0,0:0|0:0,0:0:0:0:
112,268,10838,6,0,P|173:340|265:319,1,200,2|0,0:0|0:0,0:0:0:0:
312,236,12193,2,0,L|315:156,1,80,2|2,0:0|0:0,0:0:0:0:
64,68,13935,6,0,P|122:119|200:116,1,160,6|2,0:0|0:0,0:0:0:0:
288,80,15096,1,10,0:0:0:0:
376,124,15483,2,0,P|399:156|408:194,1,80,2|10,0:0|0:0,0:0:0:0:
392,288,16258,1,2,0:0:0:0:
312,340,16645,1,10,0:0:0:0:
219,307,17032,6,0,P|162:295|107:318,2,120,2|0|10,0:0|0:0|0:0,0:0:0:0:
312,340,18580,2,0,P|368:321|404:274,2,120,2|0|10,0:0|0:0|0:0,0:0:0:0:
220,308,20129,6,0,B|161:278|107:318|107:318|92:308|80:288,1,160,2|2,0:0|0:0,0:0:0:0:
60,196,21290,1,10,0:0:0:0:
104,112,21677,2,0,P|141:97|180:98,1,80,2|10,0:0|0:0,0:0:0:0:
276,104,22451,2,0,P|315:105|352:90,1,80,2|10,0:0|0:0,0:0:0:0:
448,96,23225,6,0,P|479:146|473:204,2,120,2|0|10,0:0|0:0|0:0,0:0:0:0:
352,90,24774,2,0,P|295:106|239:87,1,120,10|10,0:0|0:0,0:0:0:0:
52,236,26322,5,6,0:0:0:0:
100,320,26709,2,0,P|135:338|175:340,1,80,2|0,0:0|0:0,0:0:0:0:
270,332,27483,1,2,0:0:0:0:
341,268,27870,2,0,L|375:153,1,120,2|6,0:0|0:0,0:0:0:0:
348,60,28838,2,0,P|312:41|272:39,1,80,6|6,0:0|0:0,0:0:0:0:
60,148,30193,6,0,B|44:240|44:240|51:266,1,120,6|6,0:0|0:0,0:0:0:0:
168,348,31354,1,2,0:0:0:0:
264,352,31741,2,0,L|344:356,1,80,2|2,0:0|0:0,0:0:0:0:
436,332,32516,6,0,P|464:280|460:221,1,120,2|0,0:0|0:0,0:0:0:0:
396,92,33677,1,2,0:0:0:0:
312,136,34064,2,0,P|235:150|168:108,1,160,2|0,0:0|0:0,0:0:0:0:
104,40,35225,1,2,0:0:0:0:
72,132,35612,6,0,L|65:211,1,80,2|2,0:0|0:0,0:0:0:0:
144,268,36387,2,0,L|195:329,1,80,2|2,0:0|0:0,0:0:0:0:
291,313,37161,1,2,0:0:0:0:
384,284,37548,2,0,P|423:275|461:283,2,80,2|2|2,0:0|0:0|0:0,0:0:0:0:
291,313,38709,5,6,0:0:0:0:
196,316,39096,2,0,P|158:303|128:277,1,80,10|0,0:0|0:0,0:0:0:0:
84,192,39870,1,10,0:0:0:0:
136,112,40258,2,0,P|187:83|246:87,1,120,2|6,0:0|0:0,0:0:0:0:
340,104,41225,2,0,P|379:101|415:83,1,80,6|6,0:0|0:0,0:0:0:0:
448,320,42580,6,0,B|421:327|421:327|330:311,1,120,6|6,0:0|0:0,0:0:0:0:
188,284,43741,1,10,0:0:0:0:
128,208,44129,2,0,P|119:169|127:130,1,80,2|10,0:0|0:0,0:0:0:0:
212,84,44903,6,0,P|267:103|325:89,1,120,6|0,0:0|0:0,0:0:0:0:
468,92,46064,1,10,0:0:0:0:
496,184,46451,2,0,P|478:260|413:304,1,160,2|2,0:0|0:0,0:0:0:0:
316,308,47612,1,10,0:0:0:0:
224,280,47999,6,0,P|185:271|146:280,1,80,2|10,0:0|0:0,0:0:0:0:
52,280,48774,2,0,P|25:250|13:212,1,80,2|10,0:0|0:0,0:0:0:0:
20,116,49548,1,2,0:0:0:0:
112,88,49935,2,0,L|191:84,2,80,10|2|10,0:0|0:0|0:0,0:0:0:0:
112,280,51483,6,0,L|191:284,1,80,6|6,0:0|0:0,0:0:0:0:
336,283,52451,2,0,P|405:218|381:125,1,200,6|10,0:0|0:0,0:0:0:0:
308,64,53806,1,0,0:0:0:0:
124,116,54580,6,0,L|120:195,1,80,6|6,0:0|0:0,0:0:0:0:
152,336,55548,2,0,P|242:363|311:295,1,200,6|10,0:0|0:0,0:0:0:0:
240,116,57290,6,0,P|183:98|126:113,1,120,6|2,0:0|0:0,0:0:0:0:
20,212,58451,1,8,0:0:0:0:
100,264,58838,2,0,P|157:282|214:267,1,120,2|2,0:0|0:0,0:0:0:0:
352,228,59999,1,8,0:0:0:0:
428,288,60387,6,0,P|443:324|440:364,2,80,6|10|2,0:0|0:0|0:0,0:0:0:0:
352,228,61548,1,10,0:0:0:0:
267,276,61935,2,0,P|230:287|190:282,1,80,2|10,0:0|0:0,0:0:0:0:
120,216,62709,2,0,L|116:136,1,80,2|10,0:0|0:0,0:0:0:0:
448,192,65032,6,0,P|440:269|375:312,1,160,6|2,0:0|0:0,0:0:0:0:
280,320,66193,1,10,0:0:0:0:
184,308,66580,2,0,P|144:303|105:313,1,80,2|10,0:0|0:0,0:0:0:0:
36,248,67354,2,0,L|32:168,1,80,2|10,0:0|0:0,0:0:0:0:
80,84,68129,6,0,P|136:66|194:80,1,120,2|0,0:0|0:0,0:0:0:0:
312,160,69290,1,10,0:0:0:0:
260,240,69677,2,0,P|245:277|244:316,1,80,2|10,0:0|0:0,0:0:0:0:
160,272,70451,2,0,P|122:257|83:256,1,80,2|10,0:0|0:0,0:0:0:0:
48,344,71225,6,0,P|101:369|160:364,1,120,6|0,0:0|0:0,0:0:0:0:
284,288,72387,1,10,0:0:0:0:
328,200,72774,2,0,L|328:120,1,80,2|10,0:0|0:0,0:0:0:0:
260,52,73548,2,0,P|220:45|181:52,1,80,2|10,0:0|0:0,0:0:0:0:
104,108,74322,6,0,P|80:182|113:253,1,160,2|2,0:0|0:0,0:0:0:0:
204,284,75483,1,10,0:0:0:0:
296,260,75870,2,0,P|354:248|411:264,2,120,2|0|10,0:0|0:0|0:0,0:0:0:0:
204,284,77419,6,0,L|85:264,1,120,6|6,0:0|0:0,0:0:0:0:
256,96,78967,2,0,B|348:80|348:80|374:85,1,120,6|0,0:0|0:0,0:0:0:0:
472,192,80129,1,10,0:0:0:0:
448,284,80516,6,0,P|397:312|341:293,2,120,2|0|10,0:0|0:0|0:0,0:0:0:0:
472,192,82064,2,0,L|472:112,1,80,2|10,0:0|0:0,0:0:0:0:
404,44,82838,2,0,P|364:37|325:44,1,80,2|10,0:0|0:0,0:0:0:0:
236,80,83612,6,0,B|192:96|148:76|148:76|142:104,1,120,6|8,0:0|0:0,0:0:0:0:
120,248,84774,1,10,0:0:0:0:
204,292,85161,2,0,P|260:308|319:296,1,120,2|8,0:0|0:0,0:0:0:0:
464,284,86322,1,10,0:0:0:0:
420,200,86709,6,0,B|408:124|408:124|427:85,1,120,6|8,0:0|0:0,0:0:0:0:
308,164,87870,1,8,0:0:0:0:
212,164,88258,2,0,L|94:141,1,120,6|6,0:0|0:0,0:0:0:0:
448,68,91354,6,0,P|390:119|312:116,1,160,6|2,0:0|0:0,0:0:0:0:
224,80,92515,1,10,0:0:0:0:
136,124,92902,2,0,P|113:156|104:194,1,80,2|10,0:0|0:0,0:0:0:0:
120,288,93677,1,2,0:0:0:0:
200,340,94064,1,10,0:0:0:0:
293,307,94451,6,0,P|350:295|405:318,2,120,2|0|10,0:0|0:0|0:0,0:0:0:0:
200,340,95999,2,0,P|144:321|108:274,2,120,2|0|10,0:0|0:0|0:0,0:0:0:0:
292,308,97548,6,0,B|351:278|405:318|405:318|420:308|432:288,1,160,2|2,0:0|0:0,0:0:0:0:
452,196,98709,1,10,0:0:0:0:
408,112,99096,2,0,P|371:97|332:98,1,80,2|10,0:0|0:0,0:0:0:0:
236,104,99870,2,0,P|197:105|160:90,1,80,2|10,0:0|0:0,0:0:0:0:
64,96,100644,6,0,P|33:146|39:204,2,120,2|0|10,0:0|0:0|0:0,0:0:0:0:
160,88,102193,2,0,P|233:116|306:89,1,160,2|2,0:0|0:0,0:0:0:0:
384,32,103354,1,10,0:0:0:0:
464,208,104129,5,6,0:0:0:0:
392,272,104516,2,0,B|312:279,1,80,6|0,0:0|0:0,0:0:0:0:
216,280,105290,2,0,P|168:218|188:143,1,160,6|2,0:0|0:0,0:0:0:0:
268,92,106451,1,10,0:0:0:0:
360,116,106838,6,0,P|416:132|473:113,2,120,2|0|10,0:0|0:0|0:0,0:0:0:0:
268,92,108387,2,0,P|211:75|154:94,2,120,2|0|10,0:0|0:0|0:0,0:0:0:0:
320,172,109935,6,0,B|324:252|324:252|307:287,1,120,2|0,0:0|0:0,0:0:0:0:
176,340,111096,1,10,0:0:0:0:
104,276,111483,2,0,P|82:220|96:163,2,120,2|0|10,0:0|0:0|0:0,0:0:0:0:
176,340,113032,6,0,L|295:332,1,120,2|0,0:0|0:0,0:0:0:0:
440,324,114193,1,10,0:0:0:0:
408,236,114580,2,0,B|369:228|369:228|288:235,1,120,2|2,0:0|0:0,0:0:0:0:
256,192,116999,12,2,121544,0:0:0:0:
