osu file format v14

[General]
AudioFilename: Liblume.mp3
AudioLeadIn: 0
PreviewTime: 1570
Countdown: 0
SampleSet: Soft
StackLeniency: 0.3
Mode: 0
LetterboxInBreaks: 0
WidescreenStoryboard: 1

[Editor]
Bookmarks: 1970,11570,59970,68970,112370,141570,150570,201570,252370,271970,281170,289970
DistanceSpacing: 1.3
BeatDivisor: 4
GridSize: 4
TimelineZoom: 1.5

[Metadata]
Title:Liblume
TitleUnicode:Liblume
Artist:Shimotsuki Haruka
ArtistUnicode:霜月はるか
Creator:KaedekaShizuru
Version:Heartbreak
Source:生命のスペア
Tags:inochi no spare I was born for you AKABEiSOFT3 AB3 あかべぇそふとすりぃ galgame eroge pinkheart imoutosan collab
BeatmapID:1114006
BeatmapSetID:524903

[Difficulty]
HPDrainRate:7.2
CircleSize:4
OverallDifficulty:8
ApproachRate:8.5
SliderMultiplier:1.6
SliderTickRate:1

[Events]
//Background and Video events
0,0,"bg.jpg",0,0
//Break Periods
//Storyboard Layer 0 (Background)
//Storyboard Layer 1 (Fail)
//Storyboard Layer 2 (Pass)
//Storyboard Layer 3 (Foreground)
//Storyboard Sound Samples

[TimingPoints]
1170,400,3,2,0,5,1,0
1170,-200,3,2,0,5,0,0
9170,-200,3,2,0,15,0,0
9370,-200,3,2,0,25,0,0
9570,-200,3,2,0,35,0,0
9970,-200,3,2,0,40,0,0
10370,-200,3,2,0,45,0,0
10770,-66.6666666666667,3,2,0,50,0,0
11570,-66.6666666666667,3,2,0,30,0,0
11970,-100,3,2,0,35,0,1
12070,-100,3,2,0,35,0,0
19170,-100,3,2,0,35,0,0
20370,-200,3,2,0,35,0,0
20770,-200,3,2,0,15,0,0
40770,-100,3,2,0,35,0,0
55570,-80,3,2,0,35,0,0
55970,-66.6666666666667,3,2,0,35,0,0
57570,-100,3,2,0,35,0,0
57970,-80,3,2,0,35,0,0
58370,-66.6666666666667,3,2,0,35,0,0
59370,-100,3,2,0,35,0,0
59970,-133.333333333333,3,2,0,35,0,0
69570,-100,3,2,0,35,0,0
75570,-100,3,2,0,35,0,0
75870,-100,3,2,0,5,0,0
75970,-80,3,2,0,35,0,0
76270,-80,3,2,0,5,0,0
76370,-66.6666666666667,3,2,0,35,0,0
76670,-66.6666666666667,3,2,0,5,0,0
76770,-100,3,2,0,35,0,0
77970,-80,3,2,0,35,0,0
78270,-80,3,2,0,5,0,0
78370,-80,3,2,0,35,0,0
78670,-80,3,2,0,5,0,0
78770,-80,3,2,0,35,0,0
79070,-80,3,2,0,5,0,0
79170,-100,3,2,0,35,0,0
79370,-100,3,2,0,5,0,0
79570,-100,3,2,0,35,0,0
80570,-100,3,2,0,5,0,0
80770,-100,3,2,0,35,0,0
81570,-200,3,2,0,15,0,0
83970,-66.6666666666667,3,2,0,35,0,1
103970,-66.6666666666667,3,2,0,35,0,0
104370,-66.6666666666667,3,2,0,35,0,1
105170,-66.6666666666667,3,2,0,35,0,0
105570,-66.6666666666667,3,2,0,35,0,1
107970,-200,3,2,0,15,0,0
112370,-66.6666666666667,3,2,0,15,0,0
112770,-100,3,2,0,15,0,0
116370,-200,3,2,0,15,0,0
117170,-100,3,2,0,15,0,0
122370,-153.846153846154,3,2,0,15,0,0
136770,-133.333333333333,3,2,0,15,0,0
137170,-100,3,2,0,15,0,0
137570,-80,3,2,0,15,0,0
139170,-133.333333333333,3,2,0,15,0,0
139570,-100,3,2,0,15,0,0
139870,-80,3,2,0,15,0,0
140970,-100,3,2,0,15,0,0
141570,-133.333333333333,3,2,0,15,0,0
151170,-100,3,2,0,15,0,0
157170,-80,3,2,0,15,0,0
158370,-100,3,2,0,15,0,0
159570,-133.333333333333,3,2,0,15,0,0
163170,-66.6666666666667,3,2,0,15,0,1
182370,-83.3333333333333,3,2,0,15,0,0
203970,-66.6666666666667,3,2,0,15,0,0
205170,-90.9090909090909,3,2,0,15,0,0
205570,-76.9230769230769,3,2,0,15,0,0
205970,-66.6666666666667,3,2,0,15,0,0
206370,-83.3333333333333,3,2,0,15,0,0
208970,-55.5555555555556,3,2,0,15,0,0
209170,-58.8235294117647,3,2,0,15,0,0
209370,-62.5,3,2,0,15,0,0
209570,-66.6666666666667,3,2,0,15,0,0
209770,-71.4285714285714,3,2,0,15,0,0
209970,-83.3333333333333,3,2,0,15,0,0
214770,-90.9090909090909,3,2,0,15,0,0
215170,-76.9230769230769,3,2,0,15,0,0
215570,-66.6666666666667,3,2,0,15,0,0
215970,-83.3333333333333,3,2,0,15,0,0
223970,400,3,2,0,5,1,0
228770,-100,3,2,0,5,0,0
231170,-50,3,2,0,5,0,0
232370,-133.333333333333,3,2,0,5,0,0
233570,-66.6666666666667,3,2,0,5,0,1
241570,-62.5,3,2,0,5,0,1
241970,-58.8235294117647,3,2,0,5,0,1
242370,-55.5555555555556,3,2,0,5,0,1
242770,-52.6315789473684,3,2,0,5,0,1
243170,-66.6666666666667,3,2,0,5,0,1
251570,-200,3,2,0,5,0,1
252370,-66.6666666666667,3,2,0,35,0,0
252770,-100,3,2,0,35,0,1
252870,-100,3,2,0,35,0,0
260270,-100,3,2,0,5,0,0
260370,-100,3,2,0,35,0,0
260670,-100,3,2,0,5,0,0
260770,-100,3,2,0,35,0,0
261070,-100,3,2,0,5,0,0
261170,-100,3,2,0,35,0,0
267170,-66.6666666666667,3,2,0,35,0,0
271970,-133.333333333333,3,2,0,35,0,0
281170,-100,3,2,0,35,0,0
290936,550.45871559633,3,2,0,15,1,0
291530,606.060606060606,3,2,0,15,1,0
292767,681.818181818182,3,2,0,15,1,0
293789,800,3,2,0,15,1,0
294189,944.88188976378,3,2,0,15,1,0
295133,1600,3,2,0,15,1,0
296320,1120.02986746313,3,2,0,15,1,0
296460,3200,3,2,0,15,1,0
300760,3200,3,2,0,15,1,0
306360,-100,3,2,0,5,0,0

[Colours]
Combo1 : 255,213,236
Combo2 : 255,85,140
Combo3 : 200,200,200
Combo4 : 255,170,200

[HitObjects]
64,158,1970,5,0,0:0:0:0:
196,48,2170,1,0,0:0:0:0:
160,152,2370,6,0,P|160:193|176:248,1,80
280,264,2970,1,0,0:0:0:0:
180,328,3170,2,0,L|136:352,1,40
308,360,3570,6,0,P|343:341|366:309,1,80
376,192,4170,1,0,0:0:0:0:
260,148,4370,1,0,0:0:0:0:
280,264,4570,1,0,0:0:0:0:
456,152,4770,6,0,P|464:200|452:240,1,80
408,308,5370,1,0,0:0:0:0:
332,353,5570,1,0,0:0:0:0:
244,346,5770,1,0,0:0:0:0:
168,296,5970,2,0,L|160:336,1,40
72,328,6370,2,0,L|84:372,1,40
104,240,6770,2,0,L|112:188,1,40
208,116,7170,6,0,P|246:110|285:122,1,80
338,174,7770,1,0,0:0:0:0:
273,215,7970,2,0,P|254:205|241:191,1,40
344,252,8370,2,0,P|344:273|339:291,1,40
236,352,8770,1,0,0:0:0:0:
120,272,8970,1,0,0:0:0:0:
140,384,9170,1,0,0:0:0:0:
224,228,9370,1,0,0:0:0:0:
44,200,9570,6,0,L|32:240,1,40
148,160,9970,2,0,L|153:199,1,40
248,104,10370,2,0,L|272:148,1,40
136,8,10770,5,0,0:0:0:0:
128,116,11570,6,0,P|139:166|192:206,1,120.000004577637
335,152,11970,6,0,B|363:137|373:116|368:88|368:88|334:108|323:158|337:202|373:227,1,240,4|0,0:0|0:0,0:0:0:0:
460,248,12770,2,0,P|496:240|528:208,1,80
248,144,13170,2,0,P|176:160|124:228,1,160
108,320,13770,1,0,0:0:0:0:
139,64,13970,1,4,0:0:0:0:
230,252,14170,1,0,0:0:0:0:
24,188,14370,6,0,P|0:144|48:36,1,160,4|0,0:0|0:0,0:0:0:0:
104,232,14970,1,0,0:0:0:0:
196,124,15170,2,0,P|244:108|292:112,1,80
309,343,15570,2,0,P|250:294|252:217,2,160
432,184,16570,1,0,0:0:0:0:
253,217,16770,6,0,P|201:205|149:157,1,120,4|0,0:0|0:0,0:0:0:0:
154,163,17170,2,0,P|169:214|154:283,1,120
156,278,17570,2,0,P|192:238|259:217,1,120
328,224,17970,2,0,P|355:171|355:112,1,120
276,32,18370,2,0,P|248:84|248:143,1,120
328,224,18770,1,0,0:0:0:0:
464,136,18970,1,0,0:0:0:0:
336,340,19170,6,0,B|279:356|199:358|144:320|155:251|210:233|234:258|241:287|228:300|228:300|185:347|109:323,1,400,4|0,0:0|0:0,0:0:0:0:
92,320,20270,1,0,0:0:0:0:
76,309,20370,2,0,P|60:289|48:237,2,80
148,337,21370,1,0,0:0:0:0:
224,333,21570,5,0,0:0:0:0:
224,333,22370,1,0,0:0:0:0:
292,369,22770,2,0,P|348:361|356:297,1,120
304,164,23570,2,0,P|300:140|300:120,1,40
332,232,23970,6,0,P|284:260|208:252,1,120
156,225,24770,2,0,P|112:217|64:225,1,80
77,221,25570,2,0,L|36:237,1,40
72,305,25970,2,0,L|54:345,1,40
144,328,26370,6,0,P|184:300|192:260,1,80
180,200,26970,2,0,P|176:168|240:228,1,240
252,222,28370,2,0,L|304:224,1,40
356,264,28770,6,0,P|396:256|432:224,1,80
428,148,29370,2,0,P|388:156|352:188,1,80
357,179,29970,1,0,0:0:0:0:
300,80,30370,1,0,0:0:0:0:
272,216,30770,2,0,P|256:240|240:252,1,40
172,264,31170,6,0,P|132:256|64:292,1,120
124,364,31970,2,0,P|148:348|160:332,1,40
172,264,32370,2,0,P|164:224|200:156,1,120
272,128,33170,1,0,0:0:0:0:
344,252,33570,6,0,P|400:272|432:264,1,80
484,228,34170,2,0,P|504:172|496:140,1,80
468,84,34770,1,0,0:0:0:0:
400,188,35170,1,0,0:0:0:0:
276,164,35570,1,0,0:0:0:0:
208,8,35970,6,0,P|192:60|212:120,1,120
276,164,36770,1,0,0:0:0:0:
128,136,37170,2,0,B|68:136|40:172|40:172|80:188,1,120
128,212,37970,1,0,0:0:0:0:
144,64,38370,1,0,0:0:0:0:
276,164,38770,5,0,0:0:0:0:
400,188,39170,1,0,0:0:0:0:
484,160,39570,1,0,0:0:0:0:
512,112,39970,1,0,0:0:0:0:
432,232,40170,1,0,0:0:0:0:
428,256,40270,1,0,0:0:0:0:
432,280,40370,1,0,0:0:0:0:
408,144,40570,1,0,0:0:0:0:
328,328,40770,6,0,P|268:364|188:332,1,160,4|0,0:0|0:0,0:0:0:0:
100,200,41370,1,0,0:0:0:0:
176,256,41570,2,0,P|191:293|189:333,1,80
12,212,41970,2,0,P|36:136|128:112,1,160
232,220,42570,1,0,0:0:0:0:
256,236,42670,1,0,0:0:0:0:
284,236,42770,1,0,0:0:0:0:
376,136,42970,1,0,0:0:0:0:
312,308,43170,6,0,B|298:350|325:383|325:383|362:363|367:318,1,160
312,172,43770,1,0,0:0:0:0:
192,328,43970,2,0,P|152:352|120:356,1,80
107,101,44370,2,0,P|153:105|181:120,1,80
42,336,44770,2,0,P|6:305|-6:276,1,80
232,184,45170,2,0,P|242:229|236:261,1,80
0,196,45570,6,0,P|8:153|112:128,1,160
236,261,46170,1,0,0:0:0:0:
328,160,46370,2,0,P|320:112|296:80,1,80
236,261,46770,2,0,P|186:305|61:296,1,160
65,87,47370,1,0,0:0:0:0:
95,98,47470,1,0,0:0:0:0:
119,122,47570,2,0,P|138:167|131:204,1,80
0,281,47970,21,0,0:0:0:0:
101,338,48170,1,0,0:0:0:0:
173,282,48370,5,0,0:0:0:0:
274,339,48570,1,0,0:0:0:0:
346,283,48770,5,0,0:0:0:0:
447,340,48970,1,0,0:0:0:0:
289,214,49170,6,0,P|265:160|266:127,1,80
346,283,49570,2,0,P|369:336|368:369,1,80
364,193,49870,1,0,0:0:0:0:
364,193,49970,2,0,P|324:195|288:213,1,80
170,336,50370,6,0,B|126:345|95:316|95:316|118:280|162:281,1,160,4|0,0:0|0:0,0:0:0:0:
242,384,50970,1,0,0:0:0:0:
53,239,51170,2,0,P|40:189|47:153,1,80
162,281,51570,2,0,P|210:293|299:227,1,160
222,67,52170,1,0,0:0:0:0:
201,92,52270,1,0,0:0:0:0:
192,123,52370,2,0,P|193:162|210:199,1,80
376,269,52770,6,0,P|436:234|464:152,1,160
348,156,53370,2,0,P|281:115|257:40,1,160
488,77,53970,2,0,P|483:117|463:151,1,80
394,300,54370,2,0,P|398:260|419:226,1,80
446,370,54670,1,0,0:0:0:0:
446,370,54770,2,0,P|409:385|369:384,1,80
184,298,55170,6,0,P|135:315|109:341,1,80
249,217,55570,2,0,P|186:198|141:205,1,100
366,187,55970,2,0,P|333:137|283:104,1,120.000004577637
316,279,56370,2,0,P|425:273|463:161,1,240.000009155274
410,328,56970,1,0,0:0:0:0:
385,354,57070,1,0,0:0:0:0:
351,367,57170,2,0,P|278:364|238:327,1,120.000004577637
261,223,57570,6,0,P|294:244|315:278,1,80
224,124,57970,2,0,P|273:121|320:139,1,100
121,61,58370,2,0,P|167:23|225:8,1,120.000004577637
261,223,58770,2,0,B|253:290|199:320|199:320|158:270|178:207,1,240.000009155274
329,88,59370,1,0,0:0:0:0:
351,118,59470,1,0,0:0:0:0:
329,148,59570,2,0,P|293:135|292:98,1,80
512,73,59970,5,4,0:0:0:0:
512,73,60570,5,0,0:0:0:0:
512,73,60770,2,0,B|488:92|488:92|504:128|496:172,1,90.0000034332277
498,149,61170,2,0,P|444:176|428:176,1,60.0000022888184
328,144,61570,2,0,P|269:152|219:185,1,120.000004577637
184,272,62170,1,0,0:0:0:0:
92,284,62370,6,0,L|124:336,1,60.0000022888184
184,272,62770,2,0,L|237:301,1,60.0000022888184
316,344,63170,1,0,0:0:0:0:
6,249,63570,6,0,L|7:310,1,60.0000022888184
92,284,63970,2,0,L|124:336,1,60.0000022888184
184,272,64370,2,0,L|237:301,1,60.0000022888184
316,344,64770,5,0,0:0:0:0:
328,268,64970,1,0,0:0:0:0:
296,196,65170,1,0,0:0:0:0:
352,140,65370,1,0,0:0:0:0:
420,188,65570,2,0,B|424:224|404:252|404:252|440:240,1,90.0000034332277
425,244,65970,2,0,L|503:215,1,60.0000022888184
400,344,66370,2,0,L|514:294,1,120.000004577637
336,280,66970,1,0,0:0:0:0:
336,280,67170,6,0,P|312:236|312:212,1,60.0000022888184
392,220,67570,2,0,P|393:169|405:149,1,60.0000022888184
470,196,67970,2,0,P|496:153|516:141,1,60.0000022888184
459,284,68370,1,0,0:0:0:0:
430,308,68470,1,0,0:0:0:0:
394,311,68570,1,0,0:0:0:0:
362,292,68670,1,0,0:0:0:0:
347,259,68770,1,0,0:0:0:0:
430,206,68970,37,0,0:0:0:0:
430,206,69070,1,0,1:0:0:0:
430,206,69170,1,0,1:0:0:0:
373,116,69370,1,0,0:0:0:0:
347,259,69570,6,0,P|316:312|205:322,1,160,4|0,0:0|0:0,0:0:0:0:
107,203,70170,1,0,0:0:0:0:
143,280,70370,2,0,P|132:333|103:368,1,80
107,204,70770,2,0,B|166:170|222:197|222:197|206:259|143:280,1,240.000009155274
107,204,71570,2,0,P|118:151|147:116,1,80
174,0,71970,6,0,P|193:55|212:72,1,80
373,276,72370,2,0,P|362:223|333:188,1,80
306,72,72770,2,0,P|287:127|268:144,1,80
173,295,73170,2,0,P|218:236|286:267,1,160
285,266,73670,1,0,0:0:0:0:
285,266,73770,1,0,0:0:0:0:
192,154,73970,2,0,P|142:131|97:134,1,80
60,323,74370,6,0,P|127:353|173:295,1,160,4|0,0:0|0:0,0:0:0:0:
244,190,74970,2,0,P|177:160|132:219,1,160
289,348,75570,6,0,P|290:303|265:340,1,120
355,336,75970,38,0,P|323:289|325:345,1,150
406,285,76370,38,0,P|342:261|384:314,1,180.000006866455
451,198,76770,38,0,P|415:132|332:147,1,160
196,164,77370,2,0,P|232:230|315:215,1,160
100,80,77970,6,0,B|60:67|30:92|30:92|48:126|90:131,1,150
211,90,78370,6,0,B|241:62|234:22|234:22|196:21|171:55,1,150
147,181,78770,6,0,B|155:221|193:235|193:235|213:202|196:163,1,150
91,131,79170,6,0,P|71:179|86:226,1,80
115,274,79570,1,0,0:0:0:0:
147,181,79770,1,0,0:0:0:0:
246,129,79970,1,0,0:0:0:0:
373,127,80170,1,0,0:0:0:0:
497,195,80370,6,0,P|509:245|496:288,1,80
368,384,80770,1,0,0:0:0:0:
284,248,80970,1,0,0:0:0:0:
304,104,81170,1,0,0:0:0:0:
376,212,81370,1,0,0:0:0:0:
332,316,81570,5,0,0:0:0:0:
170,326,83170,6,0,P|199:274|198:215,1,120
114,225,83970,2,0,P|128:283|170:326,1,120,4|0,0:0|0:0,0:0:0:0:
78,149,84370,6,0,B|15:170|-1:232|-1:232|55:259|114:225,1,240.000009155274,0|4,0:0|0:0,0:0:0:0:
234,71,84970,1,0,0:0:0:0:
306,273,85170,38,0,B|320:338|277:383|277:383|223:349|223:283,1,240.000009155274,4|0,0:0|0:0,0:0:0:0:
394,353,85770,1,0,0:0:0:0:
108,291,85970,6,0,P|135:238|186:207,1,120
186,207,86370,38,0,P|150:159|142:100,1,120.000004577637,4|0,0:0|0:0,0:0:0:0:
223,283,86770,6,0,P|167:302|108:291,1,120
142,100,87170,38,0,P|200:110|245:148,1,120,4|0,0:0|0:0,0:0:0:0:
376,256,87570,6,0,B|414:201|390:142|390:142|329:153|303:216,1,240.000009155274,4|0,1:0|0:0,0:0:0:0:
304,296,88103,1,0,0:0:0:0:
376,256,88236,1,0,0:0:0:0:
399,178,88369,37,0,0:0:0:0:
376,98,88503,1,0,0:0:0:0:
307,53,88636,1,0,0:0:0:0:
389,143,88770,6,0,B|445:177|503:149|503:149|488:90|424:68,1,240.000009155274,4|0,0:0|0:0,0:0:0:0:
246,61,89370,2,0,P|242:120|270:172,1,120
296,0,89770,1,0,0:0:0:0:
271,173,89970,38,0,P|313:131|330:75,1,120
221,243,90370,38,0,P|272:272|331:269,1,120
139,218,90770,38,0,P|126:275|147:331,1,120
328,74,91170,22,0,P|268:73|216:102,1,120,4|0,0:0|0:0,0:0:0:0:
331,269,91570,38,0,P|312:212|269:172,1,120
148,331,91970,38,0,P|196:296|220:242,1,120
183,147,92370,37,0,0:0:0:0:
169,200,92470,1,0,0:0:0:0:
178,254,92570,1,0,0:0:0:0:
208,300,92670,1,0,0:0:0:0:
255,330,92770,1,0,0:0:0:0:
309,339,92870,1,0,0:0:0:0:
362,325,92970,1,0,0:0:0:0:
405,291,93070,1,0,0:0:0:0:
431,243,93170,1,0,0:0:0:0:
435,188,93270,1,0,0:0:0:0:
417,136,93370,1,0,0:0:0:0:
379,96,93470,1,0,0:0:0:0:
327,73,93570,38,0,P|268:72|216:101,1,120,4|0,0:0|0:0,0:0:0:0:
84,208,93970,2,0,B|34:163|42:101|42:101|106:97|146:151,1,240.000009155274,0|4,0:0|0:0,0:0:0:0:
112,312,94570,1,0,0:0:0:0:
145,150,94770,6,0,B|172:87|233:76|233:76|257:136|218:190,1,240.000009155274,4|0,0:0|0:0,0:0:0:0:
32,184,95370,1,0,0:0:0:0:
202,270,95570,38,0,P|201:329|172:381,1,120.000004577637
314,251,95970,6,0,P|260:277|201:271,1,120,4|0,0:0|0:0,0:0:0:0:
218,190,96370,2,0,P|274:208|314:252,1,120
171,383,96770,38,0,P|130:340|117:282,1,120,4|0,0:0|0:0,0:0:0:0:
82,207,97170,6,0,B|18:228|2:289|2:289|57:317|116:282,1,240.000009155274,4|0,0:0|0:0,0:0:0:0:
268,112,97770,1,0,0:0:0:0:
342,291,97970,38,0,P|411:323|479:308,1,120.000004577637
265,267,98370,2,0,B|237:328|271:381|271:381|329:358|343:291,1,240.000009155274,4|0,0:0|0:0,0:0:0:0:
341,155,98970,1,0,0:0:0:0:
265,267,99170,38,0,P|205:262|155:228,1,120.000004577637
343,292,99570,2,0,B|328:358|271:381|271:381|237:328|265:267,1,240.000009155274
428,344,100170,1,0,0:0:0:0:
319,168,100370,38,0,P|243:158|183:193,1,120.000004577637
401,167,100770,2,0,B|408:100|359:60|359:60|311:99|318:167,1,240.000009155274,4|0,0:0|0:0,0:0:0:0:
444,280,101370,1,0,0:0:0:0:
204,174,101570,38,0,P|165:240|173:308,1,120.000004577637
268,81,101970,2,0,P|193:64|130:94,1,120.000004577637
376,113,102370,2,0,P|368:36|321:-13,1,120.000004577637
378,225,102770,2,0,P|448:194|481:133,1,120.000004577637
206,159,103170,38,0,B|143:180|127:242|127:242|183:269|242:235,1,240.000009155274,4|0,0:0|0:0,0:0:0:0:
241,235,103970,2,0,B|251:259|275:283|275:283|302:264|314:237,1,120.000004577637
329,105,104370,38,0,B|343:40|297:-5|297:-5|246:30|246:99,1,240.000009155274,4|0,0:0|0:0,0:0:0:0:
247,98,105170,2,0,B|220:94|187:103|187:103|190:136|206:159,1,120.000004577637
314,237,105570,38,0,B|363:281|425:263|425:263|420:201|361:167,1,240.000009155274,4|0,0:0|0:0,0:0:0:0:
232,216,106170,38,0,B|207:277|245:329|245:329|302:304|314:237,1,240.000009155274,4|0,0:0|0:0,0:0:0:0:
244,93,106770,37,4,0:0:0:0:
167,75,106903,1,0,0:0:0:0:
92,100,107036,1,0,0:0:0:0:
43,162,107169,37,0,0:0:0:0:
34,240,107303,1,0,0:0:0:0:
68,311,107436,1,0,0:0:0:0:
136,353,107569,37,0,0:0:0:0:
215,352,107703,1,0,0:0:0:0:
281,308,107836,1,0,0:0:0:0:
313,237,107969,37,0,0:0:0:0:
313,237,109170,1,0,0:0:0:0:
313,237,110370,1,0,0:0:0:0:
281,308,110770,1,0,0:0:0:0:
215,352,111170,1,0,0:0:0:0:
136,353,111570,2,0,P|68:313|37:244,1,120
168,228,112370,6,0,P|232:236|292:220,1,120.000004577637
368,128,112770,6,0,B|416:80|476:84|476:84|484:144|440:200,1,240
336,292,113570,1,0,0:0:0:0:
452,308,113770,1,0,0:0:0:0:
352,204,113970,2,0,P|356:152|372:120,1,80
504,192,114370,1,0,0:0:0:0:
364,16,114570,1,0,0:0:0:0:
192,152,114770,2,0,P|225:191|237:225,1,80
124,336,115170,6,0,B|64:348|4:336|4:336|36:284|92:252,1,240
240,308,115970,2,0,P|252:348|280:376,1,80
424,284,116370,6,0,L|344:291,1,80
276,192,116970,1,0,0:0:0:0:
252,296,117170,1,0,0:0:0:0:
256,88,117370,1,0,0:0:0:0:
152,176,117570,6,0,P|92:204|36:212,1,120
39,211,117970,2,0,P|93:248|128:293,1,120
126,291,118370,2,0,P|131:225|152:172,1,120
256,88,118770,2,0,P|288:144|281:203,1,120
212,248,119170,2,0,P|268:280|327:273,1,120
408,176,119570,1,0,0:0:0:0:
424,280,119770,1,0,0:0:0:0:
283,197,119970,1,0,0:0:0:0:
256,192,120070,12,0,121170,0:0:0:0:
216,96,121770,5,0,0:0:0:0:
240,100,121870,1,0,0:0:0:0:
264,104,121970,1,0,0:0:0:0:
92,80,122170,1,0,0:0:0:0:
292,68,122370,6,0,B|336:60|388:60|388:60|368:96,1,129.999994049073
284,220,123170,2,0,P|249:233|220:236,1,51.999997619629
120,176,123570,2,0,P|96:248|116:288,1,103.999995239258
228,344,124170,1,0,0:0:0:0:
228,344,124370,2,0,L|296:352,1,51.999997619629
460,272,124770,6,0,P|484:200|444:132,1,155.999992858887
260,152,125570,1,0,0:0:0:0:
320,56,125770,1,0,0:0:0:0:
364,208,125970,2,0,P|336:252|348:304,1,103.999995239258
345,300,126770,6,0,L|401:308,1,51.999997619629
244,336,127170,2,0,L|140:348,1,103.999995239258
184,192,127770,1,0,0:0:0:0:
100,256,127970,2,0,L|36:268,1,51.999997619629
268,256,128370,2,0,P|288:216|280:152,1,103.999995239258
200,80,128970,1,0,0:0:0:0:
282,158,129170,2,0,L|324:192,1,51.999997619629
480,72,129570,5,0,0:0:0:0:
472,264,129770,1,0,0:0:0:0:
376,112,129970,5,0,0:0:0:0:
344,264,130170,1,0,0:0:0:0:
264,116,130370,5,0,0:0:0:0:
224,216,130570,5,0,0:0:0:0:
224,216,130670,1,0,0:0:0:0:
224,216,130770,1,0,0:0:0:0:
472,264,131070,1,0,0:0:0:0:
472,264,131170,2,0,P|488:286|494:320,1,51.999997619629
260,352,131570,5,0,0:0:0:0:
276,84,131770,1,0,0:0:0:0:
128,252,131970,2,0,L|20:256,1,103.999995239258
260,352,132770,2,0,L|312:348,1,51.999997619629
416,248,133170,2,0,P|464:269|431:297,1,103.999995239258
240,240,133970,2,0,P|240:212|256:180,1,51.999997619629
328,80,134370,6,0,B|380:56|432:68|432:68|416:120|372:152,1,207.999990478516
216,120,135370,1,0,0:0:0:0:
356,224,135570,2,0,B|370:254|371:276|371:276|347:271|316:252,1,103.999995239258
104,216,136370,6,0,B|83:219|65:226|65:226|72:246|100:265,1,77.9999964294435
172,296,136770,2,0,P|224:316|260:320,1,90.0000034332277
348,312,137170,2,0,P|398:289|428:252,1,80
480,204,137470,1,0,0:0:0:0:
492,181,137570,2,0,B|502:126|501:72|501:72|456:80,1,150
308,136,137970,6,0,B|262:142|239:203|239:203|292:235|333:214,1,200
492,181,138570,1,0,0:0:0:0:
308,136,138770,2,0,P|256:124|208:120,1,100
248,236,139170,6,0,P|256:276|232:324,1,90.0000034332277
152,360,139570,2,0,P|112:360|64:328,1,80
12,276,139870,1,0,0:0:0:0:
0,240,139970,2,0,P|0:156|40:96,1,150
176,40,140370,6,0,B|217:19|270:55|270:55|245:112|199:119,1,200
108,188,140970,1,0,0:0:0:0:
113,224,141070,1,0,0:0:0:0:
150,230,141170,2,0,P|166:195|140:168,1,80
8,272,141570,5,0,0:0:0:0:
84,336,141770,1,0,0:0:0:0:
164,308,141970,1,0,0:0:0:0:
240,372,142170,1,0,0:0:0:0:
232,272,142370,6,0,P|236:236|256:208,1,60.0000022888184
300,120,142670,1,0,0:0:0:0:
300,120,142770,2,0,P|314:153|311:187,1,60.0000022888184
312,264,143170,2,0,P|358:239|424:248,1,120.000004577637
472,312,143770,1,0,0:0:0:0:
423,247,143970,6,0,P|425:195|465:142,1,120.000004577637
360,100,144570,2,0,P|411:102|464:142,1,120.000004577637
476,168,145070,1,0,0:0:0:0:
476,196,145170,1,0,0:0:0:0:
428,256,145370,5,0,0:0:0:0:
382,192,145570,1,0,0:0:0:0:
307,216,145770,1,0,0:0:0:0:
307,294,145970,1,0,0:0:0:0:
382,319,146170,1,0,0:0:0:0:
236,256,146370,6,0,P|203:253|164:264,1,60.0000022888184
68,360,146770,1,0,0:0:0:0:
140,328,146970,1,0,0:0:0:0:
176,259,147170,2,0,P|176:228|160:187,1,60.0000022888184
40,148,147470,5,0,0:0:0:0:
40,148,147570,2,0,P|66:163|110:170,1,60.0000022888184
200,128,147970,2,0,P|268:112|324:156,1,120.000004577637
344,208,148570,1,0,0:0:0:0:
300,36,148770,6,0,L|416:0,1,120.000004577637
305,217,149370,2,0,P|270:171|268:112,1,120.000004577637
164,152,149970,1,0,0:0:0:0:
128,142,150070,1,0,0:0:0:0:
103,115,150170,1,0,0:0:0:0:
96,79,150270,1,0,0:0:0:0:
111,44,150370,1,0,0:0:0:0:
228,252,150570,5,0,0:0:0:0:
232,268,150670,1,0,0:0:0:0:
228,284,150770,1,0,0:0:0:0:
96,256,150970,1,0,0:0:0:0:
220,296,151170,6,0,P|296:320|384:320,1,160
432,132,151770,1,0,0:0:0:0:
508,200,151970,2,0,P|475:224|435:233,1,80
300,176,152370,2,0,B|240:146|185:178|185:178|205:237|271:255,1,240.000009155274
300,176,153170,2,0,P|286:128|270:100,1,80
112,144,153570,6,0,P|104:183|118:223,1,80
276,256,153970,1,0,0:0:0:0:
100,304,154170,1,0,0:0:0:0:
204,176,154370,1,0,0:0:0:0:
236,352,154570,1,0,0:0:0:0:
372,256,154770,2,0,P|428:284|416:332,1,120
324,360,155170,1,0,0:0:0:0:
372,148,155370,1,0,0:0:0:0:
204,176,155570,1,0,0:0:0:0:
324,360,155770,1,0,0:0:0:0:
432,204,155970,6,0,P|448:248|444:288,1,80
324,360,156370,2,0,P|280:376|240:372,1,80
112,320,156770,2,0,P|96:276|100:236,1,80
203,71,157170,6,0,B|228:37|266:38|266:38|273:78|243:106,1,150
122,147,157569,6,0,B|80:142|62:108|62:108|92:83|132:96,1,150
228,179,157970,6,0,B|245:218|225:251|225:251|187:237|179:197,1,150
132,96,158370,6,0,P|87:63|144:26,1,120
242,106,158770,6,0,P|292:84|296:152,1,120
178,196,159170,6,0,P|172:250|111:219,1,120
228,179,159570,6,0,P|286:185|352:167,2,120.000004577637
116,16,160770,5,0,0:0:0:0:
72,196,160970,1,0,0:0:0:0:
72,196,161170,1,0,0:0:0:0:
244,96,161370,5,0,0:0:0:0:
258,262,161570,1,0,0:0:0:0:
258,262,161770,1,0,0:0:0:0:
440,112,161970,5,0,0:0:0:0:
487,147,162070,1,0,0:0:0:0:
508,202,162170,1,0,0:0:0:0:
497,260,162270,1,0,0:0:0:0:
450,288,162370,1,0,0:0:0:0:
405,249,162470,1,0,0:0:0:0:
357,214,162570,1,0,0:0:0:0:
299,219,162670,1,0,0:0:0:0:
258,263,162770,1,0,0:0:0:0:
258,262,163170,6,0,P|280:308|320:260,1,120.000004577637
352,140,163570,2,0,B|365:74|319:30|319:30|268:65|268:133,1,240.000009155274,0|4,0:0|0:0,0:0:0:0:
323,275,164170,1,0,0:0:0:0:
180,340,164370,6,0,B|121:373|65:346|65:346|81:284|144:263,1,240.000009155274,0|4,0:0|0:0,0:0:0:0:
264,372,164970,1,0,0:0:0:0:
143,264,165170,2,0,P|163:204|159:144,1,120.000004577637
80,32,165570,1,0,0:0:0:0:
0,188,165770,1,0,0:0:0:0:
208,64,165970,2,0,P|248:104|251:172,1,120.000004577637
104,280,166370,1,0,0:0:0:0:
40,112,166570,1,0,0:0:0:0:
308,160,166770,6,0,B|372:176|419:134|419:134|388:80|320:77,1,240.000009155274,4|0,1:0|0:0,0:0:0:0:
243,109,167303,1,0,0:0:0:0:
308,160,167436,1,0,0:0:0:0:
323,241,167570,37,0,0:0:0:0:
294,317,167703,1,0,0:0:0:0:
219,350,167836,1,0,0:0:0:0:
313,282,167970,6,0,B|369:248|427:276|427:276|412:335|348:357,1,240.000009155274,4|0,0:0|0:0,0:0:0:0:
219,350,168570,2,0,P|196:284|208:232,1,120.000004577637
308,160,168970,1,0,0:0:0:0:
313,282,169170,2,0,P|273:326|217:350,1,120.000004577637
112,280,169570,1,0,0:0:0:0:
205,236,169770,1,0,0:0:0:0:
34,218,169970,2,0,P|15:275|32:332,1,120.000004577637
313,282,170370,22,0,P|343:230|344:171,1,120,4|0,0:0|0:0,0:0:0:0:
128,208,170770,38,0,P|186:220|243:202,1,120
140,8,171170,38,0,P|146:67|181:114,1,120
332,72,171570,5,0,0:0:0:0:
272,65,171670,1,0,0:0:0:0:
212,72,171770,1,0,0:0:0:0:
159,101,171870,1,0,0:0:0:0:
125,150,171970,1,0,0:0:0:0:
128,208,172070,1,0,0:0:0:0:
172,247,172170,1,0,0:0:0:0:
230,260,172270,1,0,0:0:0:0:
283,233,172370,1,0,0:0:0:0:
324,189,172470,1,0,0:0:0:0:
383,182,172570,1,0,0:0:0:0:
432,215,172670,1,0,0:0:0:0:
455,270,172770,6,0,P|455:328|406:372,1,120.000004577637
205,340,173170,2,0,B|139:326|115:268|115:268|168:232|230:259,1,240.000009155274,0|4,0:0|0:0,0:0:0:0:
324,328,173770,1,0,0:0:0:0:
283,233,173970,6,0,B|275:166|323:125|323:125|373:165|367:232,1,240.000009155274,0|4,0:0|0:0,0:0:0:0:
324,328,174570,1,0,0:0:0:0:
436,334,174770,2,0,B|456:317|471:286|471:286|445:267|416:264,1,120.000004577637
324,328,175170,6,0,P|248:340|196:340,1,120.000004577637
283,233,175570,2,0,P|325:269|321:334,1,120.000004577637
264,144,175970,2,0,P|320:152|368:192,1,120.000004577637
216,316,176370,6,0,B|161:356|102:335|102:335|112:272|173:243,1,240.000009155274,0|4,0:0|0:0,0:0:0:0:
284,232,176970,1,0,0:0:0:0:
344,316,177170,2,0,B|341:344|315:371|315:371|283:354|269:329,1,120.000004577637
288,132,177570,6,0,B|307:67|368:49|368:49|397:106|365:165,1,240.000009155274,0|4,0:0|0:0,0:0:0:0:
171,244,178170,1,0,0:0:0:0:
404,248,178370,1,0,0:0:0:0:
184,148,178570,1,0,0:0:0:0:
376,200,178770,6,0,B|443:203|474:259|474:259|425:300|361:282,1,240.000009155274,0|4,0:0|0:0,0:0:0:0:
171,244,179370,1,0,0:0:0:0:
319,382,179570,2,0,P|359:344|359:274,1,120.000004577637
156,176,179970,6,0,B|105:131|114:68|114:68|178:66|218:120,1,240.000009155274,0|4,0:0|0:0,0:0:0:0:
272,300,180570,1,0,0:0:0:0:
136,344,180770,2,0,B|110:356|74:349|74:349|70:313|84:288,1,120.000004577637
156,176,181170,5,0,0:0:0:0:
205,142,181270,1,0,0:0:0:0:
263,128,181370,1,0,0:0:0:0:
322,137,181470,1,0,0:0:0:0:
375,166,181570,5,0,0:0:0:0:
423,228,181703,1,0,0:0:0:0:
438,306,181836,1,0,0:0:0:0:
366,341,181970,1,0,0:0:0:0:
289,318,182103,1,0,0:0:0:0:
232,264,182236,1,0,0:0:0:0:
207,188,182370,6,0,P|200:136|212:72,1,95.9999970703126
336,252,182770,2,0,P|351:201|389:148,1,95.9999970703126
366,341,183170,1,0,0:0:0:0:
216,340,183370,1,0,0:0:0:0:
96,272,183570,2,0,L|-4:296,1,95.9999970703126
207,188,183970,2,0,L|304:204,1,95.9999970703126
104,244,184370,1,0,0:0:0:0:
144,92,184570,1,0,0:0:0:0:
388,160,184770,6,0,P|400:212|380:268,1,95.9999970703126
376,368,185170,2,0,P|324:352|284:308,1,95.9999970703126
196,256,185570,2,0,P|235:219|292:200,1,95.9999970703126
476,232,185970,6,0,P|460:287|425:322,1,95.9999970703126
200,348,186370,1,0,0:0:0:0:
372,228,186570,1,0,0:0:0:0:
196,256,186770,1,0,0:0:0:0:
360,360,186970,1,0,0:0:0:0:
404,136,187170,6,0,P|352:132|304:156,1,95.9999970703126
260,60,187570,2,0,P|228:91|208:148,1,95.9999970703126
108,112,187970,2,0,P|108:156|131:203,1,80
288,224,188370,5,0,0:0:0:0:
124,304,188570,1,0,0:0:0:0:
380,280,188770,2,0,P|393:242|388:180,1,95.9999970703126
217,119,189170,1,0,0:0:0:0:
368,20,189370,1,0,0:0:0:0:
504,184,189570,6,0,P|504:224|480:280,1,95.9999970703126
419,360,189970,2,0,P|383:320|384:266,1,95.9999970703126
276,240,190370,2,0,P|294:204|344:172,1,95.9999970703126
296,344,190770,6,0,P|256:345|204:316,1,95.9999970703126
132,259,191170,1,0,0:0:0:0:
96,206,191303,1,0,0:0:0:0:
85,143,191436,1,0,0:0:0:0:
93,78,191570,1,0,0:0:0:0:
152,106,191703,1,0,0:0:0:0:
192,155,191836,1,0,0:0:0:0:
220,212,191970,6,0,P|221:252|211:308,1,95.9999970703126
72,360,192370,1,0,0:0:0:0:
256,328,192570,1,0,0:0:0:0:
47,267,192770,2,0,L|72:360,1,95.9999970703126
56,156,193170,6,0,L|65:255,1,95.9999970703126
88,48,193570,2,0,L|75:151,1,95.9999970703126
272,144,193970,1,0,0:0:0:0:
96,128,194170,1,0,0:0:0:0:
348,192,194370,6,0,P|364:152|344:88,1,95.9999970703126
196,188,194770,2,0,P|190:227|220:280,1,95.9999970703126
372,312,195170,2,0,L|472:332,1,95.9999970703126
215,276,195570,6,0,L|120:292,2,95.9999970703126
324,376,196170,1,0,0:0:0:0:
424,248,196370,1,0,0:0:0:0:
236,124,196570,1,0,0:0:0:0:
126,270,196770,5,0,0:0:0:0:
280,212,196970,1,0,0:0:0:0:
172,56,197170,1,0,0:0:0:0:
80,184,197370,1,0,0:0:0:0:
345,149,197570,2,0,P|365:187|356:256,1,95.9999970703126
200,336,197970,6,0,L|204:236,1,95.9999970703126
312,176,198370,1,0,0:0:0:0:
176,140,198570,1,0,0:0:0:0:
312,32,198770,1,0,0:0:0:0:
363,238,198970,1,0,0:0:0:0:
165,250,199170,5,0,0:0:0:0:
165,250,199370,1,0,0:0:0:0:
220,52,199570,5,0,0:0:0:0:
220,52,199770,1,0,0:0:0:0:
12,184,199970,5,0,0:0:0:0:
12,184,200170,1,0,0:0:0:0:
224,328,200370,5,0,0:0:0:0:
258,275,200503,1,0,0:0:0:0:
257,212,200636,1,0,0:0:0:0:
294,160,200770,1,0,0:0:0:0:
343,119,200903,1,0,0:0:0:0:
394,99,201036,1,0,0:0:0:0:
412,160,201170,1,0,0:0:0:0:
416,224,201303,1,0,0:0:0:0:
390,279,201436,1,0,0:0:0:0:
348,324,201570,6,0,P|304:344|256:344,1,95.9999970703126
162,175,201970,2,0,P|210:227|282:243,1,143.999995605469
280,244,202370,2,0,P|300:184|328:160,1,95.9999970703126
456,216,202770,6,0,B|468:268|448:308|448:308|404:288|380:240,1,191.999994140625
404,52,203370,1,0,0:0:0:0:
323,162,203570,2,0,P|261:174|226:162,1,95.9999970703126
456,216,203970,6,0,B|500:200|524:156|512:108|512:108|492:124|492:160,1,180.000006866455
442,249,204370,1,0,0:0:0:0:
440,285,204470,1,0,0:0:0:0:
449,319,204570,1,0,0:0:0:0:
469,349,204670,1,0,0:0:0:0:
498,371,204770,6,0,P|486:335|466:311,1,60.0000022888184
368,264,204970,2,0,P|330:256|300:261,1,60.0000022888184
136,380,205170,6,0,P|186:349|212:295,1,88.000002685547
0,248,205570,6,0,P|1:307|34:355,1,103.999995239258
182,196,205970,6,0,P|130:167|71:172,1,120.000004577637
280,288,206370,6,0,L|376:256,1,95.9999970703126
512,141,206770,2,0,P|452:157|380:121,1,143.999995605469
381,122,207170,2,0,P|359:60|363:28,1,95.9999970703126
488,241,207570,6,0,B|500:293|480:333|480:333|436:313|412:265,1,191.999994140625
381,122,208170,1,0,0:0:0:0:
344,317,208370,2,0,P|308:349|256:361,1,95.9999970703126
172,384,208770,5,0,0:0:0:0:
224,303,208970,6,0,P|249:329|263:363,1,71.9999978027344
219,204,209170,6,0,P|250:205|283:224,1,68.0000012969971
176,120,209370,6,0,P|206:108|239:111,1,64
101,59,209570,6,0,P|121:40|153:29,1,60.0000022888184
2,60,209770,6,0,P|6:34|19:6,1,55.9999982910157
0,152,209970,6,0,P|7:204|44:248,1,95.9999970703126
220,307,210370,1,0,0:0:0:0:
136,364,210570,1,0,0:0:0:0:
121,330,210670,1,0,0:0:0:0:
119,292,210770,1,0,0:0:0:0:
130,257,210870,1,0,0:0:0:0:
153,228,210970,1,0,0:0:0:0:
185,209,211070,1,0,0:0:0:0:
222,203,211170,6,0,P|272:216|316:268,1,95.9999970703126
84,176,211570,2,0,P|47:134|36:48,1,143.999995605469
84,176,211970,2,0,P|120:217|132:272,1,95.9999970703126
36,360,212370,6,0,P|96:296|212:336,1,191.999994140625
304,352,212970,1,0,0:0:0:0:
304,352,213070,1,0,0:0:0:0:
304,352,213170,2,0,P|336:304|340:264,1,95.9999970703126
368,76,213570,6,0,P|336:124|332:164,1,95.9999970703126
440,304,213970,1,0,0:0:0:0:
272,236,214170,1,0,0:0:0:0:
432,156,214370,2,0,P|475:174|505:211,1,95.9999970703126
272,236,214770,6,0,P|244:197|236:152,1,88.000002685547,8|0,0:0|0:0,0:0:0:0:
408,268,215170,6,0,P|390:315|352:350,1,103.999995239258,8|0,0:0|0:0,0:0:0:0:
368,135,215570,6,0,P|426:129|481:151,1,120.000004577637,8|0,0:0|0:0,0:0:0:0:
200,328,215970,6,0,P|108:316|60:232,1,191.999994140625
56,136,216570,1,0,0:0:0:0:
252,260,216770,1,0,0:0:0:0:
132,368,216970,1,0,0:0:0:0:
168,224,217170,2,0,P|200:184|244:168,1,95.9999970703126
308,332,217570,2,0,P|260:350|214:342,1,95.9999970703126
60,236,217970,1,0,0:0:0:0:
240,168,218170,1,0,0:0:0:0:
420,100,218370,6,0,P|363:130|318:201,1,143.999995605469,4|0,0:0|0:0,0:0:0:0:
321,193,218770,2,0,P|322:128|282:54,1,143.999995605469
287,59,219170,2,0,P|341:94|425:97,1,143.999995605469
457,192,219570,2,0,P|434:259|384:309,1,143.999995605469
249,311,219970,2,0,P|269:243|319:193,1,143.999995605469
384,310,220370,1,0,0:0:0:0:
418,99,220570,1,0,0:0:0:0:
168,272,220770,6,0,P|117:275|72:258,1,95.9999970703126
312,368,221170,1,0,0:0:0:0:
324,196,221370,6,0,P|346:150|383:119,1,95.9999970703126,0|0,3:3|3:3,3:3:0:0:
168,272,221770,1,0,3:0:0:0:
440,224,221970,5,0,0:0:0:0:
492,164,222070,1,0,0:0:0:0:
496,92,222170,1,0,0:0:0:0:
462,33,222270,1,0,0:0:0:0:
408,4,222370,1,0,0:0:0:0:
352,4,222470,1,0,0:0:0:0:
304,28,222570,1,0,0:0:0:0:
273,64,222670,1,0,0:0:0:0:
261,105,222770,5,0,0:0:0:0:
261,143,222870,1,0,0:0:0:0:
271,174,222970,1,0,0:0:0:0:
287,197,223070,1,2,0:0:0:0:
287,197,223970,5,2,0:0:0:0:
348,92,224770,1,0,0:0:0:0:
348,92,225170,2,0,B|396:68|436:72|436:72|404:124|376:132|376:132|428:156|436:200|436:200|416:184|388:188,1,320
268,204,226170,5,0,0:0:0:0:
276,108,226370,2,0,B|300:55|331:36|331:36|330:107|313:132|313:132|360:126|385:166|385:166|363:161|345:181,1,320,0|0,0:3|0:3,0:3:0:0:
212,152,227370,1,0,0:0:0:0:
228,236,227570,6,0,P|245:271|278:293,1,80
120,331,227970,2,0,P|142:298|144:258,1,80
128,160,228270,1,0,0:0:0:0:
132,164,228370,2,0,P|136:120|156:92,1,80
145,259,228770,6,0,P|87:249|46:206,1,120,4|0,0:0|0:0,0:0:0:0:
46,206,229170,2,0,P|61:257|46:326,1,120
48,321,229570,2,0,P|84:281|151:260,1,120
217,265,229970,6,0,P|247:214|247:154,1,120
168,75,230370,2,0,P|140:127|140:186,1,120
356,156,230770,2,0,P|341:98|299:56,1,120
393,231,231170,6,0,B|455:208|470:146|470:146|414:120|355:155,1,240.000009155274,0|4,3:0|0:0,0:0:0:0:
332,289,231570,6,0,B|372:341|436:336|436:336|443:274|392:230,1,240.000009155274,0|4,3:0|0:0,0:0:0:0:
257,249,231970,6,0,B|219:303|243:362|243:362|304:350|331:288,1,240.000009155274,0|4,3:0|3:0,3:0:0:0:
271,166,232370,6,0,B|207:147|158:188|158:188|189:242|256:248,1,240.000009155274,0|4,3:0|0:0,0:0:0:0:
299,56,233370,1,0,0:0:0:0:
170,326,233570,6,0,P|121:352|59:347,1,120.000004577637
77,173,233970,6,0,B|83:106|137:75|137:75|178:124|159:188,1,240.000009155274,0|4,3:0|0:0,0:0:0:0:
58,346,234570,1,0,0:0:0:0:
262,101,234770,6,0,B|306:50|368:56|368:56|372:120|319:161,1,240.000009155274,0|4,3:0|0:0,0:0:0:0:
52,257,235370,1,0,0:0:0:0:
319,161,235570,6,8,P|367:195|393:249,1,120
218,335,235970,38,8,P|191:282|196:223,1,120,12|8,0:0|0:0,0:0:0:0:
393,250,236370,6,8,P|334:259|279:236,1,120
279,236,236770,38,8,P|261:293|218:334,1,120.000004577637,12|8,0:0|0:0,0:0:0:0:
262,101,237170,6,0,B|306:50|368:56|368:56|372:120|319:161,1,240.000009155274,0|4,3:0|0:0,0:0:0:0:
196,222,237703,5,0,0:0:0:0:
136,223,237836,1,0,0:0:0:0:
84,195,237970,1,0,0:0:0:0:
126,153,238103,1,0,0:0:0:0:
184,139,238236,1,0,0:0:0:0:
261,100,238370,6,0,B|236:39|174:24|174:24|149:81|184:139,1,240.000009155274,0|4,3:0|3:0,3:0:0:0:
279,236,238970,1,0,0:0:0:0:
454,132,239170,38,8,P|394:131|342:158,1,120.000004577637,12|8,0:0|0:0,0:0:0:0:
301,349,239570,2,0,B|320:285|279:236|279:236|225:267|219:334,1,240.000009155274,0|4,3:0|0:0,0:0:0:0:
384,384,240170,1,0,0:0:0:0:
183,138,240370,38,0,P|132:107|72:105,1,120.000004577637,4|0,0:0|0:0,0:0:0:0:
47,313,240770,2,0,B|99:272|95:208|95:208|33:201|-10:252,1,240.000009155274,0|4,3:0|0:0,0:0:0:0:
126,377,241370,1,0,0:0:0:0:
288,146,241570,38,0,P|273:88|227:41,1,128,4|0,0:0|0:0,0:0:0:0:
335,242,241970,38,0,P|377:200|392:126,1,136.000002593994,4|0,0:0|0:0,0:0:0:0:
253,314,242370,38,0,P|304:347|390:335,1,143.999995605469,4|0,3:0|3:0,3:0:0:0:
181,235,242770,38,0,P|150:285|165:377,1,151.999995941162,4|0,3:0|3:0,3:0:0:0:
248,186,243170,6,0,B|215:127|151:123|151:123|136:183|180:234,1,240.000009155274,0|4,3:0|0:0,0:0:0:0:
180,234,243970,1,0,0:0:0:0:
165,40,244170,1,0,0:0:0:0:
258,273,244370,6,0,B|290:331|354:335|354:335|369:275|325:224,1,240.000009155274,0|4,3:0|0:0,0:0:0:0:
325,224,245170,1,0,0:0:0:0:
448,168,245370,1,0,0:0:0:0:
190,223,245570,6,0,B|145:272|161:334|161:334|223:330|258:273,1,240.000009155274,0|4,3:0|0:0,3:0:0:0:
218,145,246170,6,0,B|157:117|103:151|103:151|126:208|191:224,1,240.000009155274,0|4,3:0|0:0,0:0:0:0:
300,144,246770,5,0,0:0:0:0:
294,85,246903,1,0,0:0:0:0:
260,37,247036,1,0,0:0:0:0:
224,85,247170,5,0,0:0:0:0:
217,144,247303,1,0,0:0:0:0:
259,201,247437,1,0,0:0:0:0:
325,224,247570,5,0,0:0:0:0:
379,199,247703,1,0,0:0:0:0:
414,151,247836,1,0,0:0:0:0:
358,133,247970,5,0,0:0:0:0:
300,144,249170,5,0,0:0:0:0:
259,201,250370,5,0,0:0:0:0:
257,273,250770,1,0,0:0:0:0:
282,341,251170,1,0,0:0:0:0:
161,266,251570,2,0,P|102:254|45:271,1,120
46,279,252370,38,0,P|122:263|192:293,1,120
304,340,252770,6,0,B|343:359|388:349|426:314|426:275|426:275|400:285|386:304|388:336,1,240,4|0,0:0|0:0,0:0:0:0:
500,232,253570,2,0,P|492:168|472:136,1,80
412,0,253970,2,0,P|384:64|296:100,1,160
120,72,254570,1,0,0:0:0:0:
96,84,254670,1,0,0:0:0:0:
80,104,254770,1,4,0:0:0:0:
216,72,254970,1,0,0:0:0:0:
112,192,255170,6,0,P|112:264|192:308,1,160,4|0,0:0|0:0,0:0:0:0:
300,172,255770,1,0,0:0:0:0:
360,304,255970,2,0,P|350:342|324:372,1,80
208,160,256370,2,0,P|224:120|332:84,1,160
420,228,256970,1,0,0:0:0:0:
300,172,257170,1,0,0:0:0:0:
454,67,257370,1,0,0:0:0:0:
468,252,257570,6,0,P|428:312|344:312,1,160,4|0,0:0|0:0,0:0:0:0:
204,168,258170,1,0,0:0:0:0:
176,324,258370,2,0,P|215:321|246:297,1,80
224,84,258770,2,0,P|136:112|124:196,1,160
283,203,259370,1,0,0:0:0:0:
294,180,259470,1,0,0:0:0:0:
290,154,259570,1,4,0:0:0:0:
213,254,259770,1,0,0:0:0:0:
280,32,259970,6,0,P|330:1|390:0,1,120,4|0,0:0|0:0,0:0:0:0:
389,0,260370,2,0,P|370:56|328:97,1,120
327,96,260770,38,0,P|372:135|390:191,1,120
390,192,261170,2,0,P|331:193|279:165,1,120
279,165,261570,37,0,0:0:0:0:
249,239,261703,1,0,0:0:0:0:
199,300,261836,1,0,0:0:0:0:
129,339,261970,37,0,0:0:0:0:
98,267,262103,1,0,0:0:0:0:
95,187,262236,1,0,0:0:0:0:
119,111,262370,38,0,B|146:48|207:37|207:37|231:97|192:151,1,240.000009155274,4|0,0:0|0:0,0:0:0:0:
100,286,263170,2,0,P|118:250|148:224,1,80
376,249,263570,38,0,P|307:287|232:268,1,160
104,108,264170,1,0,0:0:0:0:
120,128,264270,1,0,0:0:0:0:
128,152,264370,1,4,0:0:0:0:
48,308,264570,1,0,0:0:0:0:
192,80,264770,38,0,B|224:51|270:49|316:73|326:111|326:111|298:108|280:93|274:62,1,240,4|0,0:0|0:0,0:0:0:0:
416,28,265570,2,0,P|456:36|496:68,1,80
455,234,265970,38,0,P|420:187|415:128,1,120
415,128,266370,1,0,0:0:0:0:
456,195,266503,1,0,0:0:0:0:
476,272,266636,1,0,0:0:0:0:
466,351,266770,1,0,0:0:0:0:
390,333,266903,1,0,0:0:0:0:
324,288,267036,1,0,0:0:0:0:
276,224,267170,38,0,B|243:184|257:139|257:139|305:144|327:188,1,180.000006866455,4|0,0:0|0:0,0:0:0:0:
293,284,267570,38,0,B|245:302|207:275|207:275|226:231|275:223,1,180.000006866455
355,285,267970,38,0,B|357:335|320:364|320:364|284:332|292:283,1,180.000006866455
376,226,268370,6,0,B|425:239|440:283|440:283|399:307|354:285,1,180.000006866455
327,187,268770,6,0,B|354:144|401:143|401:143|411:190|376:225,1,180.000006866455
276,224,269170,5,0,0:0:0:0:
144,68,269370,1,0,0:0:0:0:
64,352,269570,6,0,P|121:292|132:252,1,120.000004577637,4|0,0:0|0:0,0:0:0:0:
132,124,269970,1,0,0:0:0:0:
240,8,270170,6,0,P|219:87|231:128,1,120.000004577637,4|0,0:0|0:0,0:0:0:0:
315,213,270570,1,4,0:0:0:0:
388,96,270770,5,0,0:0:0:0:
389,55,270903,1,0,0:0:0:0:
376,17,271036,1,0,0:0:0:0:
354,94,271170,5,0,0:0:0:0:
380,169,271303,1,0,0:0:0:0:
442,216,271437,1,0,0:0:0:0:
415,290,271570,5,0,0:0:0:0:
335,288,271703,1,0,0:0:0:0:
315,213,271836,1,0,0:0:0:0:
492,276,271970,5,0,0:0:0:0:
248,140,272570,1,0,0:0:0:0:
315,213,272770,2,0,L|384:200,1,60.0000022888184
164,180,273170,6,0,B|135:221|141:266|141:266|192:259|224:228,1,180.000006866455
260,192,273870,1,0,0:0:0:0:
260,192,273970,1,0,0:0:0:0:
330,138,274170,1,0,0:0:0:0:
330,138,274370,6,0,B|369:148|401:188|401:188|365:216|315:213,1,180.000006866455
155,123,275170,2,0,P|152:152|164:180,1,60.0000022888184
256,280,275570,6,0,B|260:313|290:326|290:326|308:302|296:269,1,120
268,80,276170,1,0,0:0:0:0:
268,80,276270,1,0,0:0:0:0:
268,80,276370,1,0,0:0:0:0:
154,46,276570,1,0,0:0:0:0:
154,46,276770,6,0,B|114:48|75:82|75:82|105:116|155:122,1,180.000006866455
340,152,277570,2,0,P|360:120|364:96,1,60.0000022888184
204,184,277970,6,0,B|194:222|213:270|213:270|255:252|276:206,1,180.000006866455
276,206,278670,1,0,0:0:0:0:
276,206,278770,1,0,0:0:0:0:
268,80,278970,1,0,0:0:0:0:
84,180,279170,6,0,P|84:224|94:255,1,60.0000022888184
168,336,279570,2,0,P|193:299|202:268,1,60.0000022888184
309,256,279970,2,0,P|287:217|262:196,1,60.0000022888184
172,92,280370,6,0,B|140:79|114:98|114:98|126:126|160:132,1,120
256,140,280970,1,0,0:0:0:0:
256,140,281070,1,0,0:0:0:0:
256,140,281170,2,0,P|292:124|324:68,1,80
332,9,281570,22,0,B|400:16|429:71|429:71|380:112|317:92,1,240.000009155274,4|0,0:0|0:0,0:0:0:0:
240,52,282370,1,0,0:0:0:0:
128,80,282770,6,0,P|132:186|208:136,1,240
208,136,283470,1,0,0:0:0:0:
208,136,283570,1,0,0:0:0:0:
128,80,283770,1,0,0:0:0:0:
208,256,283970,6,0,B|247:309|311:305|311:305|319:243|269:198,1,240.000009155274
256,124,284770,2,0,P|275:159|269:198,1,80
221,49,285170,6,0,B|280:15|336:42|336:42|319:104|257:125,1,240.000009155274
244,84,285870,1,0,0:0:0:0:
221,48,285970,2,0,P|186:29|147:37,1,80
140,188,286370,6,0,B|155:217|187:220|187:220|196:190|174:164,1,120
108,161,286769,6,0,B|84:184|91:216|91:216|122:215|141:186,1,120
123,122,287170,6,0,B|93:107|65:123|65:123|75:152|108:160,1,120
166,125,287569,6,0,B|170:92|146:70|146:70|122:89|123:122,1,120
178,166,287969,38,0,B|210:160|223:131|223:131|198:113|166:125,1,120
141,187,288370,38,0,P|164:240|192:260,1,80
263,277,288770,38,0,B|339:277|403:241|379:185|395:128|466:138|497:191|479:233|423:245|410:219|415:193,1,320
414,198,289970,1,0,0:0:0:0:
188,296,290934,5,0,0:0:0:0:
148,184,291206,1,0,0:0:0:0:
280,116,291539,6,0,L|268:196,1,80
100,264,292139,1,0,0:0:0:0:
280,288,292439,1,0,0:0:0:0:
152,152,292754,5,0,0:0:0:0:
16,308,293087,1,0,0:0:0:0:
128,344,293439,1,0,0:0:0:0:
28,224,293792,1,0,0:0:0:0:
232,164,294192,5,0,0:0:0:0:
200,372,295152,5,0,0:0:0:0:
256,192,296352,12,0,300016,0:0:0:0:
256,192,300752,12,0,306352,0:0:0:0:
