osu file format v6

[General]
AudioFilename: Shimotsuki Haruka - Kyouri Haruka.mp3
AudioLeadIn: 0
PreviewTime: 31129
Countdown: 0
SampleSet: Soft
StackLeniency: 0.7
Mode: 0
LetterboxInBreaks: 1

[Editor]
DistanceSpacing: 0.800000011920929
BeatDivisor: 2
GridSize: 8

[Metadata]
Title:Kyouri Haruka
Artist:Shimotsuki Haruka
Creator:gdeath
Version:Easy
Source:Atelier Iris - Eternal Mana
Tags:alvisto Atelier series vocal collection Folkslied

[Difficulty]
HPDrainRate:1
CircleSize:3
OverallDifficulty:1
SliderMultiplier:1.5
SliderTickRate:1

[Events]
//Background and Video events
0,0,"iris-03-800.jpg"
//Break Periods
2,74032,78022
2,141858,160196
//Storyboard Layer 0 (Background)
//Storyboard Layer 1 (Fail)
//Storyboard Layer 2 (Pass)
//Storyboard Layer 3 (Foreground)
//Storyboard Sound Samples
//Background Colour Transformations
3,100,163,162,255

[TimingPoints]
11224,652.173913043478,4,2,1,80,1,0
31767,-100,4,2,1,63,0,0
52637,-100,4,2,1,81,0,0
100245,-100,4,2,1,62,0,0
120463,-100,4,2,1,81,0,0
162854,-100,4,2,1,62,0,0
183071,-100,4,2,1,81,0,0
208506,-200,4,2,1,80,0,0
209810,-100,4,2,1,0,0,0

[Colours]
Combo1 : 255,128,128
Combo2 : 0,128,255
Combo3 : 255,128,255

[HitObjects]
352,104,11224,1,0
296,208,11876,2,0,B|248:272|160:272,1,150,0|8
96,176,13180,2,0,B|80:96|144:32,1,150,0|8
256,40,14484,2,0,B|352:40|392:120,2,150,0|8|0
296,152,16441,6,0,B|352:216|344:304,1,150,8|0
232,328,17745,2,0,B|160:376|80:344,3,150,8|0|8|0
64,232,20354,2,0,B|104:152|184:144,1,150,8|0
296,120,21658,1,8
376,208,22310,6,0,B|432:280|432:280,4,75,0|0|8|0|0
264,176,24267,2,0,B|240:104|136:72,1,150,8|0
88,176,25571,1,8
128,288,26224,1,0
240,328,26876,6,0,B|240:168,1,150,8|0
336,112,28180,2,0,B|336:280,1,150,8|0
432,328,29484,2,0,B|432:168,1,150,8|0
432,56,30789,1,8
432,56,31441,1,0
312,72,32093,6,0,B|216:72|168:144,1,150,0|4
224,240,33397,2,0,B|176:312|80:312,2,150,0|4|0
320,168,35354,2,0,B|376:160|400:216,4,75,0|0|4|0|0
208,120,37310,6,0,B|160:64|72:56,1,150,4|0
16,160,38615,2,0,B|32:248|104:288,1,150,4|0
200,216,39919,1,4
320,224,40571,2,0,B|376:224|400:264,4,75,0|0|4|0|0
216,160,42528,6,0,B|152:104|160:16,2,150,4|0|4
320,216,44484,1,0
416,288,45137,2,0,B|440:320|496:320,4,75,4|0|0|0|4
296,264,47093,2,0,B|208:240|184:136,1,150,0|4
280,88,48397,6,0,B|344:40|432:48,1,150,0|4
440,168,49702,2,0,B|440:248|384:320,2,150,0|4|0
368,72,51658,2,0,B|288:8|192:32,1,150,0|4
160,128,52963,6,0,B|144:176|80:176,4,75,0|0|0|0|8
280,128,54919,2,0,B|352:152|400:224,1,150,0|8
336,320,56223,2,0,B|272:360|184:336,1,150,0|8
112,248,57528,1,0
160,136,58180,2,0,B|208:56|288:40,1,150,8|0
368,120,59484,2,0,B|384:208|480:256,3,150,8|0|8|0
360,320,62093,2,0,B|296:368|200:352,1,150,8|0
120,280,63397,1,8
88,160,64050,6,0,B|56:128|80:64,4,75,0|0|8|0|0
200,200,66006,1,8
296,128,66658,1,0
416,152,67310,1,8
456,264,67963,1,0
360,336,68615,6,0,B|264:352|184:288,1,150,8|0
304,232,69919,2,0,B|368:168|456:168,1,150,8|0
448,48,71223,1,8
328,80,71876,2,0,B|264:120|168:88,1,150,0|8
72,48,73180,2,0,B|40:72|56:120,2,75
320,112,79702,6,0,B|328:168|400:184,4,75,0|0|8|0|0
216,56,81658,1,8
104,104,82310,2,0,B|48:168|48:272,1,150,0|8
96,352,83615,1,0
200,296,84267,6,0,B|224:256|280:256,2,75,8|0|0
304,352,85571,2,0,B|392:352|440:288,1,150,8|0
448,176,86876,2,0,B|424:96|336:64,1,150,8|0
232,72,88180,2,0,B|144:96|104:208,2,150,8|0|8
328,144,90137,6,0,B|384:208|464:200,1,150,0|8
360,264,91441,2,0,B|288:248|176:312,1,150,0|8
104,328,92745,2,0,B|40:280|32:168,2,150,0|8|0
152,216,94702,6,0,B|176:168|240:160,2,75,8|0|0
264,256,96006,2,0,B|360:280|408:216,1,150,8|0
352,112,97310,2,0,B|304:40|168:40,1,150,8|0
104,64,98615,1,8
48,168,99267,2,0,B|144:168,2,75
88,280,100571,6,0,B|144:352|240:344,1,150,0|4
248,232,101876,2,0,B|336:256|416:200,1,150,0|4
352,104,103180,2,0,B|352:56|424:32,4,75,0|0|4|0|0
232,88,105137,5,4
344,136,105789,2,0,B|216:224,1,150,0|4
336,240,107093,2,0,B|192:336,1,150,0|4
88,328,108397,2,0,B|32:328|16:248,4,75,0|0|4|0|0
152,224,110354,6,0,B|168:144|272:96,1,150,4|0
320,208,111658,2,0,B|416:200|472:272,2,150,4|0|4
208,168,113615,2,0,B|136:120,4,75,0|0|4|0|0
296,248,115571,6,0,B|384:240|432:128,1,150,4|0
304,104,116876,2,0,B|216:96|176:32,2,150,4|0|4
344,216,118832,2,0,B|264:208|184:280,1,150,0|4
112,336,120137,1,0
96,216,120789,6,0,B|96:128|160:64,1,150,0|0
264,120,122093,2,0,B|352:128|416:64,1,150,8|0
456,184,123397,2,0,B|472:272|440:336,1,150,8|0
336,272,124702,2,0,B|312:192|224:152,1,150,8|0
136,104,126006,5,8
80,208,126658,1,0
136,312,127310,1,8
256,336,127963,2,0,B|352:328|384:216,1,150,0|8
368,136,129267,2,0,B|352:64|248:32,1,150,0|8
152,72,130571,1,0
104,184,131224,6,0,B|40:240|56:344,2,150,8|0|8
224,208,133180,2,0,B|288:152|272:32,2,150,0|8|0
144,296,135137,1,8
56,216,135789,1,0
112,112,136441,6,0,B|168:48|248:48,1,150,8|0
328,136,137745,2,0,B|408:168|424:248,1,150,8|0
312,296,139050,2,0,B|256:360|144:360,1,150,8|0
120,256,140354,1,8
88,144,141006,1,0
152,40,141658,1,0
256,192,161876,6,0,B|224:160|168:176,2,75
376,200,163180,6,0,B|432:136|424:48,1,150,0|4
304,88,164484,2,0,B|240:32|152:40,1,150,0|4
192,160,165789,2,0,B|144:224|152:312,1,150,0|4
272,304,167093,2,0,B|336:360|424:352,1,150,0|4
384,232,168397,6,0,B|456:88,1,150,0|4
336,120,169702,2,0,B|256:256,1,150,0|4
208,144,171006,2,0,B|256:72,4,75,0|0|4|0|0
104,200,172963,5,4
112,320,173615,1,0
224,360,174267,1,4
336,320,174919,1,0
376,208,175571,1,4
328,96,176223,1,0
216,56,176876,1,4
104,104,177528,1,0
128,224,178180,6,0,B|216:160|296:208,1,150,4|0
360,272,179484,2,0,B|408:208|360:112,1,150,4|0
264,72,180789,1,4
152,120,181441,1,0
88,216,182093,1,4
32,112,182745,1,0
144,64,183397,6,0,B|216:24|320:40,1,150,0|0
272,152,184702,2,0,B|288:240|368:280,1,150,8|0
248,336,186006,2,0,B|208:272|112:248,2,150,8|0|8
360,288,187963,1,0
432,192,188615,6,0,B|416:112|312:72,1,150,8|0
216,72,189919,1,8
120,144,190571,1,0
232,184,191223,1,8
144,264,191876,1,0
256,296,192528,2,0,B|344:328,2,75,8|0|0
176,200,193832,6,0,B|104:152|104:72,1,150,8|0
224,104,195137,2,0,B|312:120|384:56,1,150,8|0
456,144,196441,2,0,B|496:176|464:240,2,75,8|0|0
360,80,197745,1,8
264,152,198397,1,0
152,96,199050,6,0,B|120:72|80:80,2,75,8|0|0
176,216,200354,1,8
280,280,201006,1,0
400,248,201658,1,8
456,144,202310,6,0,B|448:56|368:24,1,150,0|0
336,144,203615,2,0,B|288:216|192:200,1,150,2|0
232,88,204919,2,0,B|176:40|80:40,1,150,2|0
104,160,206223,2,0,B|104:248|184:304,1,150,2|0
280,240,207528,2,0,B|304:152|384:128,1,150,2|0
256,104,208832,6,0,B|256:280,1,150,2|0
256,208,211115,12,0,216006
