osu file format v14

[General]
AudioFilename: Another Flower ver.mp3
AudioLeadIn: 0
PreviewTime: 62159
Countdown: 0
SampleSet: Soft
StackLeniency: 0.7
Mode: 0
LetterboxInBreaks: 0
WidescreenStoryboard: 1

[Editor]
DistanceSpacing: 1.2
BeatDivisor: 2
GridSize: 4
TimelineZoom: 0.4999997

[Metadata]
Title:Konpeitou Retrotica - Another Flower ver. -
TitleUnicode:金平糖レトロチカ - Another Flower ver. -
Artist:Shimotsuki Haruka
ArtistUnicode:霜月はるか
Creator:Narcissu
Version:Easy
Source:
Tags:ABSOLUTE CASTAWAY しちごさん。 中恵光城 Mitsuki Nakae Noah 幾丹弥吹 Sharlo 753. Confetti
BeatmapID:875238
BeatmapSetID:401324

[Difficulty]
HPDrainRate:3
CircleSize:2.5
OverallDifficulty:2
ApproachRate:3
SliderMultiplier:2
SliderTickRate:1

[Events]
//Background and Video events
0,0,"BG.jpg",0,0
//Break Periods
2,131688,141756
//Storyboard Layer 0 (Background)
//Storyboard Layer 1 (Fail)
//Storyboard Layer 2 (Pass)
//Storyboard Layer 3 (Foreground)
//Storyboard Sound Samples

[TimingPoints]
1611,731.707317073171,4,2,1,60,1,0
1611,-250,4,2,1,60,0,0
27952,-250,4,2,1,40,0,0
39659,-250,4,2,1,60,0,0
63074,-250,4,2,1,70,0,1
84842,-250,4,2,1,60,0,0
98196,-250,4,2,1,40,0,0
109903,-250,4,2,1,60,0,0
121611,731.707317073171,3,2,1,60,1,0
121611,-250,3,2,1,60,0,0
131489,731.707317073171,4,2,1,60,1,0
131489,-250,4,2,1,60,0,0
160757,-400,4,2,1,40,0,0
184171,-250,4,2,1,80,0,1
205940,-250,4,2,1,60,0,0
219293,-275,4,2,1,45,0,0
225147,-300,4,2,1,30,0,0

[Colours]
Combo1 : 255,128,255
Combo2 : 128,255,255
Combo3 : 255,255,128
Combo4 : 128,128,255

[HitObjects]
52,196,16245,6,0,L|55:288,1,80,2|0,0:1|1:0,0:0:0:0:
160,312,17708,2,0,L|163:219,1,80,2|0,0:0|1:0,0:0:0:0:
264,280,19171,2,0,P|344:288|424:252,1,160,2|2,0:0|0:0,0:0:0:0:
448,152,21367,1,0,1:0:0:0:
368,72,22098,6,0,L|284:76,1,80,2|0,0:1|1:0,0:0:0:0:
188,124,23562,2,0,L|95:117,1,80,2|0,0:0|1:0,0:0:0:0:
76,228,25025,2,0,P|156:221|236:260,1,160,2|2,0:0|0:0,0:0:0:0:
300,336,27220,1,0,1:0:0:0:
400,284,27952,6,0,L|409:111,1,160,2|0,0:1|3:0,0:0:0:0:
328,48,30147,1,0,0:0:0:0:
232,108,30879,2,0,P|188:104|140:80,1,80,2|0,0:0|0:0,0:0:0:0:
52,136,32342,2,0,L|44:228,1,80,0|0,3:0|0:0,0:0:0:0:
124,296,33806,6,0,L|288:292,1,160,2|0,0:0|3:0,0:0:0:0:
360,212,36001,1,0,0:0:0:0:
464,256,36733,2,0,P|472:216|468:172,1,80,2|0,0:0|0:0,0:0:0:0:
384,104,38196,2,0,L|376:12,1,80,0|0,3:0|0:0,0:0:0:0:
280,84,39659,6,0,B|232:96|232:96|100:88,1,160,2|2,0:1|0:0,0:0:0:0:
36,164,41854,1,0,1:0:0:0:
104,256,42586,2,0,L|108:356,1,80,2|0,0:0|1:0,0:0:0:0:
216,308,44050,2,0,L|216:216,1,80,2|0,0:0|1:0,0:0:0:0:
320,272,45513,6,0,L|479:268,1,160,2|2,0:0|0:0,0:0:0:0:
504,160,47708,1,0,1:0:0:0:
436,68,48440,2,0,L|348:64,1,80,2|0,0:0|1:0,0:0:0:0:
264,128,49904,2,0,P|220:132|176:120,1,80,2|0,0:0|1:0,0:0:0:0:
112,40,51367,6,0,P|128:116|88:208,1,160,4|0,0:1|0:0,0:0:0:0:
256,352,54293,2,0,P|240:276|280:184,1,160,2|0,0:0|0:0,0:0:0:0:
432,48,57220,6,0,L|264:56,1,160,4|0,0:1|0:0,0:0:0:0:
64,144,60147,2,0,L|232:136,1,160,2|0,0:0|0:0,0:0:0:0:
428,40,63074,6,0,P|456:108|436:212,1,160,2|2,0:1|0:0,0:0:0:0:
360,264,65269,1,0,1:0:0:0:
260,216,66001,2,0,L|168:212,1,80,2|0,0:0|1:0,0:0:0:0:
92,280,67464,1,2,0:0:0:0:
16,196,68196,1,0,1:0:0:0:
108,136,68928,6,0,P|116:96|100:28,1,80,2|0,0:1|1:0,0:0:0:0:
220,32,70391,2,0,L|312:36,1,80,2|0,0:0|1:0,0:0:0:0:
404,80,71854,2,0,P|420:120|420:164,1,80,2|0,0:0|1:0,0:0:0:0:
364,256,73318,1,2,0:0:0:0:
436,340,74050,1,0,1:0:0:0:
364,256,74781,6,0,P|284:248|196:284,1,160,2|2,0:1|0:0,0:0:0:0:
140,360,76976,1,0,1:0:0:0:
52,292,77708,2,0,L|48:192,1,80,2|0,0:0|1:0,0:0:0:0:
144,156,79171,1,2,0:0:0:0:
48,96,79903,1,0,1:0:0:0:
152,52,80635,6,0,L|248:44,1,80,2|0,0:1|1:0,0:0:0:0:
328,104,82098,2,0,L|420:108,1,80,2|0,0:0|1:0,0:0:0:0:
476,196,83561,2,0,B|488:236|488:236|480:348,1,140,2|2,0:0|1:0,0:0:0:0:
444,312,86489,6,0,L|352:316,1,80,2|0,0:1|1:0,0:0:0:0:
268,260,87952,2,0,L|180:256,1,80,2|0,0:0|1:0,0:0:0:0:
116,344,89415,2,0,P|80:272|100:184,1,160,2|2,0:0|0:0,0:0:0:0:
192,144,91611,1,0,1:0:0:0:
128,52,92342,6,0,L|40:44,1,80,2|0,0:1|1:0,0:0:0:0:
0,148,93806,2,0,L|79:154,1,80,2|0,0:0|1:0,0:0:0:0:
192,144,95269,2,0,P|268:124|356:136,1,160,2|2,0:0|0:0,0:0:0:0:
424,216,97464,1,0,1:0:0:0:
392,324,98196,6,0,L|216:328,1,160,2|0,0:1|0:0,0:0:0:0:
156,244,100391,1,0,3:0:0:0:
52,288,101123,2,0,P|44:248|52:200,1,80,2|0,0:0|3:0,0:0:0:0:
136,140,102586,2,0,L|144:48,1,80,0|0,0:0|3:0,0:0:0:0:
244,112,104050,6,0,L|408:108,1,160,2|0,0:0|0:0,0:0:0:0:
488,32,106245,1,0,3:0:0:0:
440,136,106977,2,0,L|444:220,1,80,2|0,0:0|3:0,0:0:0:0:
344,268,108440,2,0,L|332:172,1,80,0|0,0:0|3:0,0:0:0:0:
240,248,109903,6,0,B|192:260|192:260|60:252,1,160,2|2,0:1|0:0,0:0:0:0:
8,168,112098,1,0,1:0:0:0:
100,104,112830,2,0,L|104:4,1,80,2|0,0:0|1:0,0:0:0:0:
204,72,114294,2,0,P|244:72|292:60,1,80,2|0,0:0|1:0,0:0:0:0:
384,16,115757,6,0,P|416:88|408:180,1,160,2|2,0:0|0:0,0:0:0:0:
328,240,117952,1,0,1:0:0:0:
232,180,118684,2,0,L|144:176,1,80,2|0,0:0|1:0,0:0:0:0:
56,236,120148,2,0,P|40:276|40:344,1,80,2|0,0:0|1:0,0:0:0:0:
148,300,121611,6,0,L|320:308,1,160,8|0,0:1|0:0,0:0:0:0:
412,268,123806,2,0,P|444:200|424:88,1,160,8|0,0:0|0:0,0:0:0:0:
340,64,126001,6,0,L|180:56,1,160,8|0,0:1|0:0,0:0:0:0:
76,96,128196,2,0,P|44:164|64:276,1,160,8|0,0:0|0:0,0:0:0:0:
148,300,130391,6,0,L|288:308,1,120,2|2,0:0|0:1,0:0:0:0:
240,208,143196,6,0,L|232:352,2,120,0|0|0,1:0|1:0|1:0,0:0:0:0:
172,120,146123,2,0,P|116:104|44:116,2,120,0|0|0,1:0|1:0|1:0,0:0:0:0:
240,208,149049,6,0,B|288:216|288:216|428:200,1,160,2|0,0:1|0:0,0:0:0:0:
476,120,151245,1,0,1:0:0:0:
392,48,151976,2,0,L|300:44,1,80,2|0,0:0|1:0,0:0:0:0:
232,124,153440,2,0,L|148:128,1,80,0|0,0:0|1:0,0:0:0:0:
256,192,154903,12,2,157830,0:3:0:0:
136,104,160757,6,0,P|100:200|136:308,1,200,2|2,0:0|0:0,0:0:0:0:
256,340,165147,1,0,0:0:0:0:
368,264,166610,22,0,L|484:260,1,100,2|0,0:0|0:0,0:0:0:0:
420,128,169537,2,0,L|304:132,1,100,2|0,0:0|0:0,0:0:0:0:
200,56,172464,6,0,B|180:108|180:108|192:268,1,200,2|2,0:0|0:0,0:0:0:0:
304,332,176854,1,0,0:0:0:0:
216,224,178318,6,0,P|168:212|100:236,1,100,2|0,0:0|0:0,0:0:0:0:
168,356,181245,2,0,L|260:348,1,87.5,2|4,0:0|0:1,0:0:0:0:
452,260,184171,6,0,P|468:184|444:104,1,160,2|2,0:1|0:0,0:0:0:0:
344,60,186366,1,0,1:0:0:0:
248,120,187098,2,0,L|156:116,1,80,2|0,0:0|1:0,0:0:0:0:
92,36,188561,1,2,0:0:0:0:
8,108,189293,1,0,1:0:0:0:
84,188,190025,6,0,P|92:228|76:296,1,80,2|0,0:1|1:0,0:0:0:0:
180,328,191488,2,0,L|272:332,1,80,2|0,0:0|1:0,0:0:0:0:
364,296,192952,2,0,P|384:264|388:212,1,80,2|0,0:0|1:0,0:0:0:0:
324,132,194415,1,2,0:0:0:0:
392,44,195147,1,0,1:0:0:0:
324,132,195878,6,0,P|244:140|156:104,1,160,2|2,0:1|0:0,0:0:0:0:
112,20,198073,1,0,1:0:0:0:
16,80,198805,2,0,L|12:180,1,80,2|0,0:0|1:0,0:0:0:0:
80,248,200268,1,2,0:0:0:0:
180,196,201000,1,0,1:0:0:0:
244,288,201732,6,0,L|340:284,1,80,2|0,0:1|1:0,0:0:0:0:
420,344,203196,2,0,P|436:308|432:256,1,80,2|0,0:0|1:0,0:0:0:0:
416,160,204659,2,0,B|376:172|376:172|264:164,1,140,2|2,0:0|1:0,0:0:0:0:
72,96,207586,6,0,L|168:88,1,80,2|0,0:1|1:0,0:0:0:0:
120,196,209049,2,0,P|112:240|120:280,1,80,2|0,0:0|1:0,0:0:0:0:
212,332,210512,2,0,L|376:336,1,160,2|2,0:0|0:0,0:0:0:0:
452,256,212708,1,0,1:0:0:0:
396,160,213439,6,0,L|404:68,1,80,2|0,0:1|1:0,0:0:0:0:
292,104,214903,2,0,L|280:4,1,80,2|0,0:0|1:0,0:0:0:0:
188,84,216366,2,0,P|96:68|16:112,1,160,2|2,0:0|0:0,0:0:0:0:
8,200,218561,1,0,1:0:0:0:
84,268,219293,6,0,L|164:260,1,72.7272727272727,2|0,0:1|1:0,0:0:0:0:
236,324,220757,2,0,P|272:332|324:320,1,72.7272727272727,2|0,0:0|1:0,0:0:0:0:
396,276,222220,2,0,L|408:120,1,145.454545454545,2|2,0:0|0:0,0:0:0:0:
336,60,224415,1,0,1:0:0:0:
256,120,225147,6,0,P|216:128|164:120,1,66.6666666666667,2|0,0:1|1:0,0:0:0:0:
116,72,226610,2,0,L|40:68,1,66.6666666666667,2|0,0:0|1:0,0:0:0:0:
68,160,228073,2,0,L|60:300,1,133.333333333333,2|2,0:0|0:0,0:0:0:0:
152,316,230269,2,0,L|212:312,1,50,0|2,1:0|0:3,0:0:0:0:
