osu file format v12

[General]
AudioFilename: 03. .mp3
AudioLeadIn: 0
PreviewTime: 110408
Countdown: 0
SampleSet: None
StackLeniency: 0.7
Mode: 3
LetterboxInBreaks: 0
SpecialStyle: 0
WidescreenStoryboard: 1

[Editor]
DistanceSpacing: 1
BeatDivisor: 4
GridSize: 8

[Metadata]
Title:Kimi O Noseta Hakobune
TitleUnicode:君を乗せた方舟
Artist:Shimotsuki Haruka
ArtistUnicode:霜月はるか
Creator:Limit Removal
Version:Ark
Source:canoueIII~海に眠る王国~
Tags:
BeatmapID:381312
BeatmapSetID:155465

[Difficulty]
HPDrainRate:7
CircleSize:4
OverallDifficulty:7
ApproachRate:5
SliderMultiplier:1.4
SliderTickRate:1

[Events]
//Background and Video events
0,0,"bg.jpg",0,0
//Break Periods
2,210068,230289
//Storyboard Layer 0 (Background)
//Storyboard Layer 1 (Fail)
//Storyboard Layer 2 (Pass)
//Storyboard Layer 3 (Foreground)
//Storyboard Sound Samples
//Background Colour Transformations
3,100,163,162,255

[TimingPoints]
7706,540.540540540541,4,2,0,5,1,0
110408,-100,4,2,0,5,0,0
110543,-100,4,2,0,5,0,0
110678,-100,4,2,0,5,0,0
110814,-100,4,2,0,5,0,0
110949,-100,4,2,0,70,0,1
141622,-100,4,2,0,5,0,0
231489,-100,4,2,0,50,0,0
248787,-100,4,2,0,70,0,1
261760,-100,4,2,0,5,0,0

[HitObjects]
64,192,7638,1,0,0:0:0:0:
192,192,7672,1,0,0:0:0:0:
320,192,7706,1,0,0:0:0:0:
192,192,9800,1,0,0:0:0:0:
320,192,9834,1,0,0:0:0:0:
448,192,9868,1,0,0:0:0:0:
320,192,11962,1,0,0:0:0:0:
192,192,11996,1,0,0:0:0:0:
64,192,12030,1,0,0:0:0:0:
448,192,14124,1,0,0:0:0:0:
320,192,14158,1,0,0:0:0:0:
192,192,14192,1,0,0:0:0:0:
64,192,16287,1,0,0:0:0:0:
192,192,16320,1,0,0:0:0:0:
320,192,16354,1,0,0:0:0:0:
320,192,18449,1,0,0:0:0:0:
192,192,18483,1,0,0:0:0:0:
64,192,18516,1,0,0:0:0:0:
192,192,20611,1,0,0:0:0:0:
320,192,20645,1,0,0:0:0:0:
448,192,20678,1,0,0:0:0:0:
64,192,22773,1,0,0:0:0:0:
192,192,22807,1,0,0:0:0:0:
320,192,22841,1,0,0:0:0:0:
192,192,24935,1,0,0:0:0:0:
320,192,24969,1,0,0:0:0:0:
448,192,25003,1,0,0:0:0:0:
192,192,25543,1,0,0:0:0:0:
320,192,25814,1,0,0:0:0:0:
192,192,27097,1,0,0:0:0:0:
320,192,27131,1,0,0:0:0:0:
448,192,27165,1,0,0:0:0:0:
448,192,28787,1,0,0:0:0:0:
448,192,29260,1,0,0:0:0:0:
320,192,29293,1,0,0:0:0:0:
192,192,29327,1,0,0:0:0:0:
448,192,30949,1,0,0:0:0:0:
192,192,31422,1,0,0:0:0:0:
320,192,31456,1,0,0:0:0:0:
448,192,31489,1,0,0:0:0:0:
448,192,32300,1,0,0:0:0:0:
320,192,32571,1,0,0:0:0:0:
192,192,32841,1,0,0:0:0:0:
64,192,33111,1,0,0:0:0:0:
448,192,33584,1,0,0:0:0:0:
320,192,33618,1,0,0:0:0:0:
192,192,33651,1,0,0:0:0:0:
64,192,35003,1,0,0:0:0:0:
192,192,35273,1,0,0:0:0:0:
320,192,35544,1,0,0:0:0:0:
192,192,35746,1,0,0:0:0:0:
320,192,35780,1,0,0:0:0:0:
448,192,35814,1,0,0:0:0:0:
320,192,36625,1,0,0:0:0:0:
192,192,37435,1,0,0:0:0:0:
64,192,37908,1,0,0:0:0:0:
192,192,37942,1,0,0:0:0:0:
448,192,37976,1,0,0:0:0:0:
64,192,38787,1,0,0:0:0:0:
192,192,39057,1,0,0:0:0:0:
448,192,39327,1,0,0:0:0:0:
192,192,39598,1,0,0:0:0:0:
448,192,39868,1,0,0:0:0:0:
320,192,40070,1,0,0:0:0:0:
192,192,40104,1,0,0:0:0:0:
64,192,40138,1,0,0:0:0:0:
64,192,40679,1,0,0:0:0:0:
448,192,41219,1,0,0:0:0:0:
320,192,41760,1,0,0:0:0:0:
64,192,41760,128,0,46084:0:0:0:0:
320,192,42300,128,0,42571:0:0:0:0:
192,192,42571,128,0,42841:0:0:0:0:
320,192,42841,128,0,43111:0:0:0:0:
448,192,43111,128,0,43381:0:0:0:0:
192,192,43381,128,0,43922:0:0:0:0:
448,192,43922,128,0,44192:0:0:0:0:
320,192,44192,128,0,44462:0:0:0:0:
192,192,44462,128,0,45003:0:0:0:0:
448,192,44462,128,0,45003:0:0:0:0:
320,192,45003,128,0,46084:0:0:0:0:
64,192,46625,128,0,50949:0:0:0:0:
320,192,46625,128,0,46895:0:0:0:0:
192,192,46895,128,0,47165:0:0:0:0:
320,192,47165,128,0,47435:0:0:0:0:
448,192,47435,128,0,47706:0:0:0:0:
192,192,47706,128,0,48246:0:0:0:0:
320,192,48246,128,0,48516:0:0:0:0:
448,192,48516,128,0,48787:0:0:0:0:
192,192,48787,128,0,49327:0:0:0:0:
320,192,48787,128,0,49868:0:0:0:0:
448,192,49327,128,0,50408:0:0:0:0:
192,192,49868,128,0,50949:0:0:0:0:
320,192,50408,128,0,50949:0:0:0:0:
448,192,50949,128,0,54733:0:0:0:0:
64,192,51219,128,0,51489:0:0:0:0:
192,192,51489,128,0,51760:0:0:0:0:
320,192,51760,128,0,52030:0:0:0:0:
192,192,52030,128,0,52570:0:0:0:0:
64,192,52570,128,0,52841:0:0:0:0:
192,192,52841,128,0,53111:0:0:0:0:
320,192,53111,128,0,53651:0:0:0:0:
64,192,53111,128,0,53651:0:0:0:0:
192,192,53651,128,0,54733:0:0:0:0:
320,192,55273,128,0,57435:0:0:0:0:
192,192,55273,128,0,55543:0:0:0:0:
64,192,55543,128,0,55814:0:0:0:0:
192,192,55814,128,0,56084:0:0:0:0:
448,192,56084,128,0,56354:0:0:0:0:
192,192,56354,128,0,56895:0:0:0:0:
64,192,56895,128,0,57165:0:0:0:0:
192,192,57165,128,0,57976:0:0:0:0:
448,192,57435,128,0,57976:0:0:0:0:
320,192,57976,128,0,58516:0:0:0:0:
192,192,58516,128,0,58787:0:0:0:0:
448,192,58787,128,0,59057:0:0:0:0:
320,192,59057,128,0,59327:0:0:0:0:
192,192,59327,128,0,59597:0:0:0:0:
64,192,59597,128,0,61760:0:0:0:0:
448,192,59597,1,0,0:0:0:0:
192,192,59868,1,0,0:0:0:0:
320,192,60138,1,0,0:0:0:0:
448,192,60408,1,0,0:0:0:0:
320,192,60408,1,0,0:0:0:0:
192,192,61760,1,0,0:0:0:0:
320,192,62030,1,0,0:0:0:0:
64,192,62300,1,0,0:0:0:0:
192,192,62570,1,0,0:0:0:0:
320,192,62570,1,0,0:0:0:0:
64,192,63381,1,0,0:0:0:0:
192,192,63381,1,0,0:0:0:0:
192,192,63922,1,0,0:0:0:0:
448,192,64192,1,0,0:0:0:0:
64,192,64462,1,0,0:0:0:0:
192,192,64733,1,0,0:0:0:0:
448,192,64733,1,0,0:0:0:0:
64,192,65543,1,0,0:0:0:0:
320,192,65543,1,0,0:0:0:0:
192,192,66084,1,0,0:0:0:0:
448,192,66084,1,0,0:0:0:0:
320,192,66354,1,0,0:0:0:0:
64,192,66624,1,0,0:0:0:0:
320,192,66895,1,0,0:0:0:0:
448,192,66895,1,0,0:0:0:0:
320,192,67435,1,0,0:0:0:0:
192,192,67706,1,0,0:0:0:0:
64,192,67976,1,0,0:0:0:0:
192,192,68246,1,0,0:0:0:0:
448,192,68246,1,0,0:0:0:0:
64,192,68516,1,0,0:0:0:0:
192,192,68787,1,0,0:0:0:0:
320,192,69057,1,0,0:0:0:0:
448,192,69057,1,0,0:0:0:0:
192,192,70138,1,0,0:0:0:0:
64,192,70408,1,0,0:0:0:0:
320,192,70408,1,0,0:0:0:0:
448,192,70678,1,0,0:0:0:0:
320,192,70949,1,0,0:0:0:0:
192,192,71219,1,0,0:0:0:0:
448,192,71219,1,0,0:0:0:0:
320,192,72030,1,0,0:0:0:0:
448,192,72030,1,0,0:0:0:0:
192,192,72570,1,0,0:0:0:0:
320,192,72841,1,0,0:0:0:0:
64,192,73111,1,0,0:0:0:0:
192,192,73381,1,0,0:0:0:0:
448,192,73381,1,0,0:0:0:0:
192,192,74192,1,0,0:0:0:0:
448,192,74462,1,0,0:0:0:0:
320,192,74733,1,0,0:0:0:0:
448,192,74733,1,0,0:0:0:0:
448,192,75543,1,0,0:0:0:0:
320,192,75543,1,0,0:0:0:0:
320,192,76084,1,0,0:0:0:0:
192,192,76354,1,0,0:0:0:0:
64,192,76624,1,0,0:0:0:0:
192,192,76895,1,0,0:0:0:0:
448,192,76895,1,0,0:0:0:0:
320,192,76895,1,0,0:0:0:0:
64,192,77165,1,0,0:0:0:0:
192,192,77435,1,0,0:0:0:0:
320,192,77706,1,0,0:0:0:0:
448,192,77706,1,0,0:0:0:0:
448,192,77976,128,0,79057:0:0:0:0:
64,192,79057,128,0,80138:0:0:0:0:
192,192,79057,1,0,0:0:0:0:
320,192,79327,1,0,0:0:0:0:
192,192,79597,1,0,0:0:0:0:
320,192,79868,1,0,0:0:0:0:
448,192,79868,1,0,0:0:0:0:
192,192,80138,128,0,81219:0:0:0:0:
320,192,80678,1,0,0:0:0:0:
320,192,81219,1,0,0:0:0:0:
64,192,81489,1,0,0:0:0:0:
320,192,81760,1,0,0:0:0:0:
192,192,82030,1,0,0:0:0:0:
448,192,82030,1,0,0:0:0:0:
64,192,82841,1,0,0:0:0:0:
448,192,83111,1,0,0:0:0:0:
320,192,83381,1,0,0:0:0:0:
448,192,83651,1,0,0:0:0:0:
192,192,83922,1,0,0:0:0:0:
64,192,84192,1,0,0:0:0:0:
448,192,84192,1,0,0:0:0:0:
320,192,84462,128,0,85003:0:0:0:0:
448,192,84733,1,0,0:0:0:0:
192,192,85003,128,0,85543:0:0:0:0:
320,192,85543,128,0,86624:0:0:0:0:
64,192,85543,1,0,0:0:0:0:
192,192,85814,1,0,0:0:0:0:
448,192,86084,1,0,0:0:0:0:
64,192,86354,1,0,0:0:0:0:
192,192,86354,1,0,0:0:0:0:
448,192,86624,128,0,87706:0:0:0:0:
192,192,87706,128,0,88787:0:0:0:0:
320,192,87706,1,0,0:0:0:0:
64,192,87976,1,0,0:0:0:0:
448,192,88246,1,0,0:0:0:0:
320,192,88516,1,0,0:0:0:0:
64,192,88516,1,0,0:0:0:0:
448,192,89057,1,0,0:0:0:0:
192,192,89057,1,0,0:0:0:0:
320,192,89327,1,0,0:0:0:0:
192,192,89597,1,0,0:0:0:0:
448,192,89597,1,0,0:0:0:0:
64,192,89868,1,0,0:0:0:0:
320,192,89868,1,0,0:0:0:0:
192,192,90138,1,0,0:0:0:0:
320,192,90408,1,0,0:0:0:0:
64,192,90408,1,0,0:0:0:0:
448,192,90678,1,0,0:0:0:0:
64,192,90949,1,0,0:0:0:0:
320,192,90949,1,0,0:0:0:0:
192,192,91219,1,0,0:0:0:0:
448,192,91219,1,0,0:0:0:0:
320,192,91489,1,0,0:0:0:0:
448,192,91760,1,0,0:0:0:0:
64,192,91760,1,0,0:0:0:0:
448,192,92030,1,0,0:0:0:0:
320,192,92030,1,0,0:0:0:0:
192,192,92300,1,0,0:0:0:0:
320,192,92570,1,0,0:0:0:0:
448,192,92570,1,0,0:0:0:0:
192,192,92841,1,0,0:0:0:0:
448,192,92841,1,0,0:0:0:0:
64,192,93111,1,0,0:0:0:0:
448,192,93111,1,0,0:0:0:0:
192,192,93381,1,0,0:0:0:0:
320,192,93651,1,0,0:0:0:0:
448,192,93922,1,0,0:0:0:0:
192,192,94192,1,0,0:0:0:0:
320,192,94192,1,0,0:0:0:0:
64,192,94192,1,0,0:0:0:0:
192,192,95273,1,0,0:0:0:0:
320,192,95273,1,0,0:0:0:0:
448,192,95273,1,0,0:0:0:0:
64,192,96354,1,0,0:0:0:0:
192,192,96624,1,0,0:0:0:0:
320,192,96895,1,0,0:0:0:0:
448,192,97165,1,0,0:0:0:0:
192,192,97976,1,0,0:0:0:0:
64,192,97976,1,0,0:0:0:0:
448,192,97976,1,0,0:0:0:0:
64,192,99057,1,0,0:0:0:0:
320,192,99057,1,0,0:0:0:0:
448,192,99057,1,0,0:0:0:0:
192,192,99597,1,0,0:0:0:0:
192,192,100138,1,0,0:0:0:0:
320,192,100138,1,0,0:0:0:0:
448,192,100138,1,0,0:0:0:0:
64,192,100408,5,0,0:0:0:0:
192,192,100678,1,0,0:0:0:0:
320,192,100949,1,0,0:0:0:0:
448,192,100949,1,0,0:0:0:0:
192,192,101219,1,0,0:0:0:0:
320,192,101489,1,0,0:0:0:0:
192,192,101760,1,0,0:0:0:0:
64,192,102030,1,0,0:0:0:0:
448,192,102300,1,0,0:0:0:0:
192,192,102300,1,0,0:0:0:0:
320,192,102300,1,0,0:0:0:0:
320,192,102570,1,0,0:0:0:0:
192,192,102841,1,0,0:0:0:0:
64,192,103111,1,0,0:0:0:0:
64,192,103381,1,0,0:0:0:0:
192,192,103381,1,0,0:0:0:0:
320,192,103381,1,0,0:0:0:0:
448,192,103651,1,0,0:0:0:0:
320,192,103922,1,0,0:0:0:0:
192,192,104192,1,0,0:0:0:0:
192,192,104462,1,0,0:0:0:0:
448,192,104462,1,0,0:0:0:0:
64,192,104462,1,0,0:0:0:0:
320,192,104733,1,0,0:0:0:0:
448,192,105003,1,0,0:0:0:0:
320,192,105273,1,0,0:0:0:0:
64,192,105543,1,0,0:0:0:0:
448,192,105543,1,0,0:0:0:0:
320,192,105543,1,0,0:0:0:0:
192,192,105814,1,0,0:0:0:0:
320,192,106084,1,0,0:0:0:0:
448,192,106354,1,0,0:0:0:0:
448,192,106624,1,0,0:0:0:0:
320,192,106624,1,0,0:0:0:0:
192,192,106624,1,0,0:0:0:0:
64,192,106895,1,0,0:0:0:0:
192,192,107165,1,0,0:0:0:0:
320,192,107165,1,0,0:0:0:0:
320,192,107435,1,0,0:0:0:0:
192,192,107706,1,0,0:0:0:0:
448,192,107706,1,0,0:0:0:0:
320,192,107841,1,0,0:0:0:0:
192,192,107976,1,0,0:0:0:0:
64,192,108111,1,0,0:0:0:0:
192,192,108246,1,0,0:0:0:0:
320,192,108381,1,0,0:0:0:0:
448,192,108516,1,0,0:0:0:0:
320,192,108651,1,0,0:0:0:0:
192,192,108787,1,0,0:0:0:0:
64,192,108922,1,0,0:0:0:0:
192,192,109057,1,0,0:0:0:0:
320,192,109192,1,0,0:0:0:0:
448,192,109327,1,0,0:0:0:0:
320,192,109462,1,0,0:0:0:0:
192,192,109597,1,0,0:0:0:0:
320,192,109733,1,0,0:0:0:0:
192,192,109868,1,0,0:0:0:0:
320,192,110003,1,0,0:0:0:0:
192,192,110138,1,0,0:0:0:0:
64,192,110273,1,0,0:0:0:0:
192,192,110408,1,0,0:0:0:0:
320,192,110949,128,0,112030:0:0:0:0:
448,192,110949,1,8,0:0:0:0:
192,192,110949,1,0,0:0:0:0:
64,192,111219,1,0,0:0:0:0:
192,192,111354,1,0,0:0:0:0:
448,192,111489,1,0,0:0:0:0:
192,192,111760,1,0,0:0:0:0:
64,192,111760,1,0,0:0:0:0:
192,192,112030,128,0,113111:0:0:0:0:
64,192,112030,1,0,0:0:0:0:
448,192,112165,1,0,0:0:0:0:
320,192,112300,1,0,0:0:0:0:
64,192,112570,1,0,0:0:0:0:
448,192,112570,1,0,0:0:0:0:
320,192,112841,1,0,0:0:0:0:
448,192,112841,1,0,0:0:0:0:
320,192,113111,128,8,115273:0:0:0:0:
64,192,113111,1,0,0:0:0:0:
448,192,113381,1,0,0:0:0:0:
192,192,113516,1,0,0:0:0:0:
64,192,113651,1,2,0:0:0:0:
192,192,113922,1,0,0:0:0:0:
448,192,113922,1,0,0:0:0:0:
64,192,114192,1,0,0:0:0:0:
192,192,114327,1,0,0:0:0:0:
448,192,114462,1,0,0:0:0:0:
64,192,114733,1,0,0:0:0:0:
192,192,114733,1,2,0:0:0:0:
192,192,115003,1,0,0:0:0:0:
448,192,115003,1,2,0:0:0:0:
64,192,115273,1,0,0:0:0:0:
448,192,115273,1,0,0:0:0:0:
192,192,115273,128,8,117435:0:0:0:0:
320,192,115544,1,0,0:0:0:0:
448,192,115679,1,0,0:0:0:0:
320,192,115814,1,0,0:0:0:0:
64,192,116084,1,2,0:0:0:0:
448,192,116084,1,0,0:0:0:0:
448,192,116354,1,0,0:0:0:0:
320,192,116489,1,0,0:0:0:0:
448,192,116625,1,0,0:0:0:0:
64,192,116895,1,0,0:0:0:0:
320,192,116895,1,2,0:0:0:0:
448,192,117165,1,2,0:0:0:0:
320,192,117435,1,0,0:0:0:0:
64,192,117435,1,0,0:0:0:0:
448,192,117706,1,0,0:0:0:0:
64,192,117841,1,0,0:0:0:0:
448,192,117976,1,0,0:0:0:0:
192,192,118246,1,0,0:0:0:0:
64,192,118516,128,0,120138:0:0:0:0:
320,192,118516,1,0,0:0:0:0:
448,192,118516,1,0,0:0:0:0:
320,192,118787,1,0,0:0:0:0:
192,192,118787,1,0,0:0:0:0:
448,192,119057,1,0,0:0:0:0:
320,192,119057,1,0,0:0:0:0:
320,192,119327,1,0,0:0:0:0:
192,192,119327,1,0,0:0:0:0:
192,192,119597,1,0,0:0:0:0:
448,192,119597,1,0,0:0:0:0:
448,192,119868,1,0,0:0:0:0:
192,192,119868,1,0,0:0:0:0:
448,192,120138,128,0,121489:0:0:0:0:
320,192,120138,128,8,121489:0:0:0:0:
64,192,120408,1,0,0:0:0:0:
192,192,120408,1,0,0:0:0:0:
192,192,120678,1,0,0:0:0:0:
64,192,120814,1,0,0:0:0:0:
192,192,120949,1,0,0:0:0:0:
64,192,121219,1,2,0:0:0:0:
64,192,121489,1,2,0:0:0:0:
320,192,121760,1,8,0:0:0:0:
448,192,121760,1,0,0:0:0:0:
448,192,122030,1,0,0:0:0:0:
320,192,122165,1,0,0:0:0:0:
192,192,122300,1,0,0:0:0:0:
448,192,122300,1,0,0:0:0:0:
320,192,122570,1,0,0:0:0:0:
64,192,122841,1,0,0:0:0:0:
192,192,122976,1,0,0:0:0:0:
320,192,123111,1,0,0:0:0:0:
448,192,123381,1,2,0:0:0:0:
64,192,123381,1,0,0:0:0:0:
320,192,123651,1,2,0:0:0:0:
448,192,123651,1,0,0:0:0:0:
320,192,123922,1,0,0:0:0:0:
192,192,123922,1,0,0:0:0:0:
448,192,124327,1,0,0:0:0:0:
192,192,124462,1,0,0:0:0:0:
320,192,124598,1,0,0:0:0:0:
64,192,124733,1,2,0:0:0:0:
448,192,125003,1,0,0:0:0:0:
192,192,125003,1,0,0:0:0:0:
192,192,125273,1,2,0:0:0:0:
320,192,125543,1,0,0:0:0:0:
448,192,125814,1,2,0:0:0:0:
320,192,126084,1,2,0:0:0:0:
64,192,126084,1,0,0:0:0:0:
320,192,126354,1,0,0:0:0:0:
64,192,126354,1,2,0:0:0:0:
448,192,126489,1,0,0:0:0:0:
192,192,126489,1,2,0:0:0:0:
320,192,126760,1,0,0:0:0:0:
64,192,126760,1,2,0:0:0:0:
448,192,126895,1,0,0:0:0:0:
192,192,126895,1,2,0:0:0:0:
448,192,127165,1,0,0:0:0:0:
192,192,127165,1,0,0:0:0:0:
320,192,127435,1,0,0:0:0:0:
448,192,127706,1,0,0:0:0:0:
192,192,127706,1,0,0:0:0:0:
320,192,127976,1,0,0:0:0:0:
64,192,128246,1,8,0:0:0:0:
320,192,128246,1,8,0:0:0:0:
448,192,128246,1,0,0:0:0:0:
192,192,128516,1,0,0:0:0:0:
320,192,128651,1,0,0:0:0:0:
448,192,128787,1,0,0:0:0:0:
192,192,129057,1,2,0:0:0:0:
64,192,129057,1,0,0:0:0:0:
192,192,129327,1,0,0:0:0:0:
320,192,129462,1,0,0:0:0:0:
448,192,129597,1,0,0:0:0:0:
64,192,129868,1,0,0:0:0:0:
192,192,129868,1,2,0:0:0:0:
320,192,130138,1,2,0:0:0:0:
448,192,130138,1,0,0:0:0:0:
64,192,130408,1,8,0:0:0:0:
192,192,130408,1,8,0:0:0:0:
192,192,130678,1,0,0:0:0:0:
320,192,130814,1,0,0:0:0:0:
448,192,130949,1,0,0:0:0:0:
192,192,131219,1,2,0:0:0:0:
320,192,131219,1,0,0:0:0:0:
64,192,131489,1,0,0:0:0:0:
192,192,131624,1,0,0:0:0:0:
320,192,131760,1,0,0:0:0:0:
448,192,132030,1,0,0:0:0:0:
320,192,132030,1,2,0:0:0:0:
64,192,132300,1,0,0:0:0:0:
192,192,132300,1,2,0:0:0:0:
320,192,132570,1,8,0:0:0:0:
448,192,132570,1,0,0:0:0:0:
64,192,132841,1,0,0:0:0:0:
192,192,132976,1,0,0:0:0:0:
320,192,133111,1,0,0:0:0:0:
64,192,133381,1,0,0:0:0:0:
192,192,133381,1,2,0:0:0:0:
192,192,133651,1,0,0:0:0:0:
320,192,133787,1,0,0:0:0:0:
448,192,133922,1,0,0:0:0:0:
64,192,134192,1,0,0:0:0:0:
192,192,134192,1,2,0:0:0:0:
320,192,134462,1,2,0:0:0:0:
448,192,134462,1,0,0:0:0:0:
448,192,134733,1,0,0:0:0:0:
320,192,134733,1,0,0:0:0:0:
192,192,134733,1,8,0:0:0:0:
64,192,135003,1,2,0:0:0:0:
320,192,135273,1,8,0:0:0:0:
448,192,135273,1,0,0:0:0:0:
64,192,135273,1,0,0:0:0:0:
192,192,135543,1,2,0:0:0:0:
64,192,135814,1,0,0:0:0:0:
192,192,135814,1,8,0:0:0:0:
448,192,135814,1,0,0:0:0:0:
320,192,136084,1,2,0:0:0:0:
320,192,136354,1,8,0:0:0:0:
192,192,136354,1,0,0:0:0:0:
64,192,136354,1,0,0:0:0:0:
448,192,136624,1,2,0:0:0:0:
64,192,136895,1,0,0:0:0:0:
192,192,136895,1,0,0:0:0:0:
320,192,136895,1,8,0:0:0:0:
64,192,137165,1,0,0:0:0:0:
448,192,137165,1,2,0:0:0:0:
192,192,137300,1,0,0:0:0:0:
320,192,137435,1,0,0:0:0:0:
192,192,137706,1,0,0:0:0:0:
320,192,137706,1,2,0:0:0:0:
192,192,137976,1,0,0:0:0:0:
320,192,138111,1,0,0:0:0:0:
448,192,138246,1,0,0:0:0:0:
192,192,138516,1,2,0:0:0:0:
64,192,138516,1,0,0:0:0:0:
320,192,138787,1,2,0:0:0:0:
448,192,138787,1,0,0:0:0:0:
64,192,139057,1,0,0:0:0:0:
192,192,139057,1,8,0:0:0:0:
192,192,139327,1,0,0:0:0:0:
320,192,139462,1,0,0:0:0:0:
448,192,139597,1,0,0:0:0:0:
64,192,139868,1,0,0:0:0:0:
192,192,139868,1,2,0:0:0:0:
192,192,140138,1,0,0:0:0:0:
320,192,140273,1,0,0:0:0:0:
448,192,140408,1,0,0:0:0:0:
64,192,140678,1,0,0:0:0:0:
192,192,140678,1,2,0:0:0:0:
320,192,140949,1,2,0:0:0:0:
448,192,140949,1,0,0:0:0:0:
64,192,141219,128,4,143381:0:0:0:0:
192,192,141219,128,4,143381:0:0:0:0:
448,192,143381,1,0,0:0:0:0:
320,192,143381,1,0,0:0:0:0:
448,192,143922,128,0,144462:0:0:0:0:
320,192,144462,128,0,145003:0:0:0:0:
192,192,144462,1,0,0:0:0:0:
192,192,145003,128,0,145543:0:0:0:0:
64,192,145543,128,0,147165:0:0:0:0:
320,192,145543,1,0,0:0:0:0:
448,192,145814,1,0,0:0:0:0:
320,192,146084,128,0,147706:0:0:0:0:
64,192,147435,128,0,147706:0:0:0:0:
192,192,147706,128,0,148787:0:0:0:0:
448,192,147706,1,0,0:0:0:0:
64,192,148787,128,0,149868:0:0:0:0:
192,192,149868,128,0,150678:0:0:0:0:
448,192,149868,1,0,0:0:0:0:
320,192,150138,1,0,0:0:0:0:
448,192,150408,1,0,0:0:0:0:
320,192,150678,128,0,151489:0:0:0:0:
64,192,150678,128,0,151489:0:0:0:0:
448,192,150678,1,0,0:0:0:0:
192,192,151489,128,0,152030:0:0:0:0:
320,192,152030,128,0,153111:0:0:0:0:
64,192,152030,128,0,153111:0:0:0:0:
448,192,152030,1,0,0:0:0:0:
192,192,152300,1,0,0:0:0:0:
448,192,152570,1,0,0:0:0:0:
192,192,152841,1,0,0:0:0:0:
192,192,153111,128,0,154192:0:0:0:0:
448,192,153111,1,0,0:0:0:0:
64,192,153381,1,0,0:0:0:0:
448,192,153651,1,0,0:0:0:0:
320,192,153922,1,0,0:0:0:0:
64,192,154192,128,0,156354:0:0:0:0:
448,192,154192,1,0,0:0:0:0:
320,192,154462,1,0,0:0:0:0:
192,192,154733,1,0,0:0:0:0:
448,192,155003,1,0,0:0:0:0:
320,192,155273,1,0,0:0:0:0:
192,192,155543,1,0,0:0:0:0:
320,192,155814,1,0,0:0:0:0:
448,192,156084,1,0,0:0:0:0:
192,192,156287,1,0,0:0:0:0:
320,192,156320,1,0,0:0:0:0:
448,192,156354,1,0,0:0:0:0:
448,192,157435,1,0,0:0:0:0:
64,192,158516,1,0,0:0:0:0:
320,192,158516,1,0,0:0:0:0:
192,192,158787,1,0,0:0:0:0:
192,192,159057,1,0,0:0:0:0:
448,192,159057,128,0,160678:0:0:0:0:
64,192,159327,1,0,0:0:0:0:
192,192,159327,1,0,0:0:0:0:
320,192,159597,1,0,0:0:0:0:
320,192,159868,1,0,0:0:0:0:
192,192,160138,1,0,0:0:0:0:
320,192,160138,1,0,0:0:0:0:
64,192,160408,1,0,0:0:0:0:
64,192,160678,1,0,0:0:0:0:
320,192,160678,1,0,0:0:0:0:
192,192,160949,1,0,0:0:0:0:
320,192,161219,1,0,0:0:0:0:
192,192,161489,1,0,0:0:0:0:
448,192,161489,1,0,0:0:0:0:
320,192,161760,1,0,0:0:0:0:
320,192,162030,1,0,0:0:0:0:
192,192,162300,1,0,0:0:0:0:
448,192,162300,1,0,0:0:0:0:
320,192,162570,1,0,0:0:0:0:
64,192,162841,1,0,0:0:0:0:
448,192,162841,1,0,0:0:0:0:
320,192,163111,1,0,0:0:0:0:
192,192,163381,1,0,0:0:0:0:
64,192,163651,1,0,0:0:0:0:
320,192,163651,1,0,0:0:0:0:
192,192,163922,1,0,0:0:0:0:
320,192,164192,1,0,0:0:0:0:
192,192,164462,1,0,0:0:0:0:
448,192,164462,1,0,0:0:0:0:
320,192,164733,1,0,0:0:0:0:
64,192,165003,1,0,0:0:0:0:
192,192,165003,1,0,0:0:0:0:
192,192,165273,1,0,0:0:0:0:
192,192,165543,1,0,0:0:0:0:
64,192,165814,1,0,0:0:0:0:
320,192,165814,1,0,0:0:0:0:
192,192,166084,1,0,0:0:0:0:
192,192,166354,1,0,0:0:0:0:
64,192,166624,1,0,0:0:0:0:
320,192,166624,1,0,0:0:0:0:
192,192,166895,1,0,0:0:0:0:
64,192,167165,1,0,0:0:0:0:
320,192,167165,1,0,0:0:0:0:
448,192,167165,128,0,169327:0:0:0:0:
192,192,167435,1,0,0:0:0:0:
192,192,167706,1,0,0:0:0:0:
64,192,167976,1,0,0:0:0:0:
320,192,167976,1,0,0:0:0:0:
192,192,168246,1,0,0:0:0:0:
192,192,168516,1,0,0:0:0:0:
64,192,168787,1,0,0:0:0:0:
320,192,168787,1,0,0:0:0:0:
192,192,169057,1,0,0:0:0:0:
64,192,169327,1,0,0:0:0:0:
192,192,169327,1,0,0:0:0:0:
320,192,169327,128,0,170949:0:0:0:0:
192,192,169597,1,0,0:0:0:0:
448,192,169868,1,0,0:0:0:0:
64,192,170138,1,0,0:0:0:0:
192,192,170138,1,0,0:0:0:0:
192,192,170408,1,0,0:0:0:0:
448,192,170678,1,0,0:0:0:0:
64,192,170949,1,0,0:0:0:0:
448,192,170949,1,0,0:0:0:0:
192,192,171219,1,0,0:0:0:0:
320,192,171489,1,0,0:0:0:0:
64,192,171489,1,0,0:0:0:0:
448,192,171760,1,0,0:0:0:0:
64,192,172030,1,0,0:0:0:0:
192,192,172300,1,0,0:0:0:0:
320,192,172300,1,0,0:0:0:0:
64,192,172570,1,0,0:0:0:0:
448,192,172841,1,0,0:0:0:0:
64,192,173111,1,0,0:0:0:0:
320,192,173111,1,0,0:0:0:0:
192,192,173381,1,0,0:0:0:0:
320,192,173651,1,0,0:0:0:0:
448,192,173651,1,0,0:0:0:0:
192,192,173922,1,0,0:0:0:0:
64,192,174192,1,0,0:0:0:0:
192,192,174192,128,0,175003:0:0:0:0:
64,192,174462,1,0,0:0:0:0:
320,192,174462,1,0,0:0:0:0:
448,192,174733,1,0,0:0:0:0:
320,192,175003,1,0,0:0:0:0:
192,192,175273,1,0,0:0:0:0:
448,192,175273,128,0,176895:0:0:0:0:
64,192,175543,1,0,0:0:0:0:
192,192,175814,1,0,0:0:0:0:
320,192,176084,1,0,0:0:0:0:
192,192,176354,1,0,0:0:0:0:
64,192,176624,1,0,0:0:0:0:
320,192,176624,1,0,0:0:0:0:
192,192,176895,1,0,0:0:0:0:
320,192,176895,128,0,177976:0:0:0:0:
448,192,177165,1,0,0:0:0:0:
64,192,177165,1,0,0:0:0:0:
192,192,177435,1,0,0:0:0:0:
448,192,177706,1,0,0:0:0:0:
64,192,177976,1,0,0:0:0:0:
192,192,177976,1,0,0:0:0:0:
448,192,177976,128,0,179057:0:0:0:0:
192,192,178246,1,0,0:0:0:0:
192,192,178516,1,0,0:0:0:0:
64,192,178787,1,0,0:0:0:0:
320,192,178787,1,0,0:0:0:0:
192,192,179057,1,0,0:0:0:0:
320,192,179057,128,0,179868:0:0:0:0:
448,192,179327,1,0,0:0:0:0:
64,192,179597,1,0,0:0:0:0:
192,192,179597,1,0,0:0:0:0:
448,192,179868,1,0,0:0:0:0:
64,192,180138,1,0,0:0:0:0:
448,192,180138,1,0,0:0:0:0:
320,192,180408,1,0,0:0:0:0:
448,192,180678,1,0,0:0:0:0:
64,192,180949,1,0,0:0:0:0:
320,192,180949,1,0,0:0:0:0:
448,192,181219,1,0,0:0:0:0:
192,192,181489,1,0,0:0:0:0:
64,192,181760,1,0,0:0:0:0:
320,192,181760,1,0,0:0:0:0:
192,192,182030,1,0,0:0:0:0:
64,192,182300,1,0,0:0:0:0:
320,192,182300,1,0,0:0:0:0:
448,192,182570,1,0,0:0:0:0:
192,192,182841,1,0,0:0:0:0:
448,192,182841,128,0,183381:0:0:0:0:
64,192,183111,1,0,0:0:0:0:
320,192,183111,1,0,0:0:0:0:
192,192,183381,1,0,0:0:0:0:
320,192,183381,128,0,183922:0:0:0:0:
448,192,183651,1,0,0:0:0:0:
192,192,183922,1,0,0:0:0:0:
64,192,183922,1,0,0:0:0:0:
448,192,183922,128,0,185543:0:0:0:0:
320,192,184192,1,0,0:0:0:0:
64,192,184462,1,0,0:0:0:0:
192,192,184462,1,0,0:0:0:0:
320,192,184462,128,0,186624:0:0:0:0:
192,192,184733,1,0,0:0:0:0:
64,192,185003,1,0,0:0:0:0:
64,192,185273,1,0,0:0:0:0:
192,192,185273,1,0,0:0:0:0:
192,192,185543,1,0,0:0:0:0:
64,192,185543,128,0,186624:0:0:0:0:
448,192,185814,1,0,0:0:0:0:
448,192,186084,1,0,0:0:0:0:
192,192,186084,1,0,0:0:0:0:
192,192,186354,1,0,0:0:0:0:
448,192,186624,128,0,187706:0:0:0:0:
192,192,186624,128,0,187706:0:0:0:0:
64,192,186895,1,0,0:0:0:0:
320,192,187165,1,0,0:0:0:0:
64,192,187435,1,0,0:0:0:0:
320,192,187435,1,0,0:0:0:0:
64,192,187706,1,0,0:0:0:0:
320,192,187706,128,0,188787:0:0:0:0:
192,192,187976,1,0,0:0:0:0:
64,192,188246,1,0,0:0:0:0:
448,192,188246,1,0,0:0:0:0:
192,192,188516,1,0,0:0:0:0:
448,192,188787,1,0,0:0:0:0:
192,192,188787,1,0,0:0:0:0:
64,192,189057,1,0,0:0:0:0:
192,192,189327,1,0,0:0:0:0:
320,192,189597,1,0,0:0:0:0:
448,192,189597,1,0,0:0:0:0:
192,192,189868,1,0,0:0:0:0:
192,192,190138,1,0,0:0:0:0:
64,192,190408,1,0,0:0:0:0:
320,192,190408,1,0,0:0:0:0:
192,192,190678,1,0,0:0:0:0:
64,192,190949,1,0,0:0:0:0:
320,192,190949,1,0,0:0:0:0:
192,192,191219,1,0,0:0:0:0:
192,192,191489,1,0,0:0:0:0:
64,192,191760,1,0,0:0:0:0:
320,192,191760,1,0,0:0:0:0:
192,192,192030,1,0,0:0:0:0:
192,192,192300,1,0,0:0:0:0:
64,192,192570,1,0,0:0:0:0:
320,192,192570,1,0,0:0:0:0:
192,192,193111,1,0,0:0:0:0:
448,192,193111,1,0,0:0:0:0:
64,192,193111,1,0,0:0:0:0:
320,192,194192,1,0,0:0:0:0:
448,192,194192,1,0,0:0:0:0:
64,192,194192,1,0,0:0:0:0:
192,192,195273,1,0,0:0:0:0:
64,192,195543,1,0,0:0:0:0:
320,192,195543,1,0,0:0:0:0:
64,192,195814,1,0,0:0:0:0:
192,192,196084,1,0,0:0:0:0:
320,192,196084,1,0,0:0:0:0:
448,192,196354,1,0,0:0:0:0:
192,192,196895,1,0,0:0:0:0:
320,192,196895,1,0,0:0:0:0:
448,192,196895,1,0,0:0:0:0:
64,192,197976,1,0,0:0:0:0:
192,192,197976,1,0,0:0:0:0:
448,192,197976,1,0,0:0:0:0:
192,192,198516,1,0,0:0:0:0:
192,192,199057,1,0,0:0:0:0:
320,192,199091,1,0,0:0:0:0:
448,192,199124,1,0,0:0:0:0:
64,192,199868,1,0,0:0:0:0:
192,192,200003,1,0,0:0:0:0:
320,192,200138,1,0,0:0:0:0:
320,192,201219,1,0,0:0:0:0:
448,192,201489,1,0,0:0:0:0:
320,192,201489,1,0,0:0:0:0:
192,192,201760,1,0,0:0:0:0:
192,192,202030,1,0,0:0:0:0:
448,192,202030,1,0,0:0:0:0:
64,192,202300,1,0,0:0:0:0:
320,192,202570,1,0,0:0:0:0:
192,192,202570,1,0,0:0:0:0:
64,192,202841,1,0,0:0:0:0:
320,192,203381,1,0,0:0:0:0:
192,192,203651,1,0,0:0:0:0:
64,192,203922,1,0,0:0:0:0:
192,192,204192,1,0,0:0:0:0:
320,192,204462,1,0,0:0:0:0:
448,192,204733,1,0,0:0:0:0:
64,192,205476,1,0,0:0:0:0:
192,192,205510,1,0,0:0:0:0:
448,192,205543,1,0,0:0:0:0:
64,192,205814,1,0,0:0:0:0:
192,192,205949,1,0,0:0:0:0:
320,192,206084,1,0,0:0:0:0:
64,192,206219,1,0,0:0:0:0:
448,192,206219,1,0,0:0:0:0:
192,192,206354,1,0,0:0:0:0:
320,192,206489,1,0,0:0:0:0:
448,192,206624,1,0,0:0:0:0:
64,192,206624,1,0,0:0:0:0:
192,192,206760,1,0,0:0:0:0:
320,192,206895,1,0,0:0:0:0:
448,192,207030,1,0,0:0:0:0:
64,192,207165,1,0,0:0:0:0:
192,192,207300,1,0,0:0:0:0:
320,192,207435,1,0,0:0:0:0:
448,192,207570,1,0,0:0:0:0:
320,192,207706,1,0,0:0:0:0:
192,192,207706,1,0,0:0:0:0:
448,192,207976,1,0,0:0:0:0:
320,192,208111,1,0,0:0:0:0:
192,192,208246,1,0,0:0:0:0:
448,192,208381,1,0,0:0:0:0:
320,192,208516,1,0,0:0:0:0:
192,192,208651,1,0,0:0:0:0:
64,192,208787,1,0,0:0:0:0:
192,192,209327,1,0,0:0:0:0:
64,192,209868,1,0,0:0:0:0:
448,192,209868,1,0,0:0:0:0:
64,192,231489,5,0,0:0:0:0:
448,192,231489,1,0,0:0:0:0:
64,192,231760,1,0,0:0:0:0:
192,192,231895,1,0,0:0:0:0:
448,192,232030,1,0,0:0:0:0:
320,192,232030,1,2,0:0:0:0:
320,192,232300,128,0,232435:0:0:0:0:
64,192,232300,1,0,0:0:0:0:
448,192,232435,128,0,232570:0:0:0:0:
192,192,232435,1,0,0:0:0:0:
320,192,232570,128,0,232841:0:0:0:0:
64,192,232570,1,2,0:0:0:0:
192,192,232841,128,0,233111:0:0:0:0:
448,192,232841,1,0,0:0:0:0:
448,192,232976,1,0,0:0:0:0:
64,192,233111,128,0,233381:0:0:0:0:
320,192,233111,1,2,0:0:0:0:
192,192,233381,128,0,234192:0:0:0:0:
448,192,233381,1,0,0:0:0:0:
320,192,233516,1,0,0:0:0:0:
64,192,233651,1,2,0:0:0:0:
64,192,233922,1,0,0:0:0:0:
448,192,234057,1,0,0:0:0:0:
320,192,234192,128,0,234733:0:0:0:0:
448,192,234192,1,2,0:0:0:0:
64,192,234462,1,0,0:0:0:0:
192,192,234597,1,0,0:0:0:0:
448,192,234733,128,0,235273:0:0:0:0:
64,192,234733,1,2,0:0:0:0:
320,192,235003,1,0,0:0:0:0:
192,192,235138,1,0,0:0:0:0:
320,192,235273,128,0,235543:0:0:0:0:
64,192,235273,1,2,0:0:0:0:
448,192,235543,1,0,0:0:0:0:
448,192,235678,1,0,0:0:0:0:
64,192,235814,128,0,236084:0:0:0:0:
192,192,235814,1,2,0:0:0:0:
192,192,236084,128,0,236354:0:0:0:0:
320,192,236084,1,0,0:0:0:0:
448,192,236219,1,0,0:0:0:0:
320,192,236354,128,0,236624:0:0:0:0:
64,192,236354,1,2,0:0:0:0:
192,192,236624,128,0,237165:0:0:0:0:
64,192,236624,1,0,0:0:0:0:
448,192,236760,1,0,0:0:0:0:
320,192,236895,1,2,0:0:0:0:
320,192,237165,128,0,237435:0:0:0:0:
64,192,237165,1,0,0:0:0:0:
448,192,237300,1,0,0:0:0:0:
64,192,237435,128,0,237706:0:0:0:0:
448,192,237435,1,2,0:0:0:0:
320,192,237706,1,0,0:0:0:0:
192,192,237841,1,0,0:0:0:0:
320,192,237976,128,0,238516:0:0:0:0:
448,192,237976,1,2,0:0:0:0:
192,192,238246,1,0,0:0:0:0:
448,192,238381,1,0,0:0:0:0:
64,192,238516,128,0,239057:0:0:0:0:
192,192,238516,1,2,0:0:0:0:
320,192,238787,1,0,0:0:0:0:
192,192,238922,1,0,0:0:0:0:
448,192,239057,128,0,239597:0:0:0:0:
320,192,239057,1,2,0:0:0:0:
64,192,239327,1,0,0:0:0:0:
192,192,239462,1,0,0:0:0:0:
320,192,239597,128,0,240138:0:0:0:0:
64,192,239597,128,0,240138:0:0:0:0:
192,192,239597,1,2,0:0:0:0:
192,192,240138,1,0,0:0:0:0:
448,192,240138,1,0,0:0:0:0:
320,192,240273,1,0,0:0:0:0:
192,192,240408,1,0,0:0:0:0:
448,192,240678,1,0,0:0:0:0:
320,192,240814,1,0,0:0:0:0:
192,192,240949,1,0,0:0:0:0:
64,192,241219,1,0,0:0:0:0:
192,192,241354,1,0,0:0:0:0:
320,192,241489,1,0,0:0:0:0:
192,192,241760,128,0,242300:0:0:0:0:
320,192,241760,1,0,0:0:0:0:
448,192,241895,1,0,0:0:0:0:
320,192,242030,1,0,0:0:0:0:
320,192,242300,128,0,243381:0:0:0:0:
64,192,242300,1,0,0:0:0:0:
448,192,242435,1,0,0:0:0:0:
192,192,242570,1,0,0:0:0:0:
448,192,242841,1,0,0:0:0:0:
64,192,242976,1,0,0:0:0:0:
192,192,243111,1,0,0:0:0:0:
64,192,243381,1,0,0:0:0:0:
448,192,243516,1,0,0:0:0:0:
192,192,243651,1,0,0:0:0:0:
448,192,243922,1,0,0:0:0:0:
448,192,244057,1,0,0:0:0:0:
320,192,244192,1,0,0:0:0:0:
192,192,244327,1,0,0:0:0:0:
64,192,244462,128,0,246084:0:0:0:0:
448,192,244462,128,0,245543:0:0:0:0:
320,192,244462,1,0,0:0:0:0:
192,192,244733,1,0,0:0:0:0:
320,192,245003,1,0,0:0:0:0:
192,192,245273,1,0,0:0:0:0:
320,192,245543,128,0,246624:0:0:0:0:
192,192,245814,1,0,0:0:0:0:
192,192,246084,128,0,246624:0:0:0:0:
448,192,246084,1,0,0:0:0:0:
64,192,246354,1,0,0:0:0:0:
448,192,246624,128,0,247165:0:0:0:0:
64,192,246624,128,0,247165:0:0:0:0:
192,192,246895,1,0,0:0:0:0:
320,192,247165,1,0,0:0:0:0:
64,192,247706,1,0,0:0:0:0:
192,192,247706,1,0,0:0:0:0:
192,192,248246,1,0,0:0:0:0:
320,192,248246,1,0,0:0:0:0:
448,192,248787,1,0,0:0:0:0:
64,192,248787,128,0,250949:0:0:0:0:
320,192,248787,1,0,0:0:0:0:
448,192,249057,1,0,0:0:0:0:
320,192,249192,1,0,0:0:0:0:
192,192,249327,1,0,0:0:0:0:
320,192,249597,1,0,0:0:0:0:
192,192,249597,1,0,0:0:0:0:
320,192,249868,1,0,0:0:0:0:
192,192,250003,1,0,0:0:0:0:
320,192,250138,1,0,0:0:0:0:
448,192,250273,1,0,0:0:0:0:
320,192,250408,1,0,0:0:0:0:
192,192,250678,1,0,0:0:0:0:
320,192,250678,1,0,0:0:0:0:
448,192,250949,1,0,0:0:0:0:
320,192,250949,128,0,253111:0:0:0:0:
64,192,251219,1,0,0:0:0:0:
192,192,251354,1,0,0:0:0:0:
448,192,251489,1,0,0:0:0:0:
64,192,251760,1,0,0:0:0:0:
192,192,251760,1,0,0:0:0:0:
64,192,252030,1,0,0:0:0:0:
448,192,252165,1,0,0:0:0:0:
192,192,252300,1,0,0:0:0:0:
448,192,252435,1,0,0:0:0:0:
192,192,252570,1,0,0:0:0:0:
64,192,252841,1,0,0:0:0:0:
448,192,252841,1,0,0:0:0:0:
192,192,253111,128,0,255273:0:0:0:0:
448,192,253111,1,0,0:0:0:0:
64,192,253381,1,0,0:0:0:0:
320,192,253516,1,0,0:0:0:0:
448,192,253651,1,0,0:0:0:0:
448,192,253922,1,0,0:0:0:0:
64,192,254192,1,0,0:0:0:0:
448,192,254327,1,0,0:0:0:0:
64,192,254462,1,0,0:0:0:0:
448,192,254597,1,0,0:0:0:0:
320,192,254733,1,0,0:0:0:0:
448,192,255003,1,0,0:0:0:0:
320,192,255273,128,0,255814:0:0:0:0:
64,192,255273,1,0,0:0:0:0:
192,192,255543,1,0,0:0:0:0:
64,192,255814,1,0,0:0:0:0:
448,192,255814,128,0,256354:0:0:0:0:
192,192,256084,1,0,0:0:0:0:
320,192,256354,1,0,0:0:0:0:
192,192,256354,128,0,256895:0:0:0:0:
448,192,256624,1,0,0:0:0:0:
320,192,256895,1,0,0:0:0:0:
64,192,256895,128,0,257435:0:0:0:0:
192,192,257165,1,0,0:0:0:0:
448,192,257435,1,0,0:0:0:0:
320,192,257435,128,0,258516:0:0:0:0:
64,192,257706,1,0,0:0:0:0:
192,192,257841,1,0,0:0:0:0:
448,192,257976,1,0,0:0:0:0:
64,192,258246,1,0,0:0:0:0:
448,192,258246,1,0,0:0:0:0:
64,192,258516,1,0,0:0:0:0:
448,192,258516,128,0,259597:0:0:0:0:
192,192,258651,1,0,0:0:0:0:
320,192,258787,1,0,0:0:0:0:
192,192,258922,1,0,0:0:0:0:
64,192,259057,1,0,0:0:0:0:
320,192,259327,1,0,0:0:0:0:
192,192,259597,1,0,0:0:0:0:
320,192,259597,128,0,260678:0:0:0:0:
448,192,259868,1,0,0:0:0:0:
192,192,260003,1,0,0:0:0:0:
64,192,260138,1,0,0:0:0:0:
192,192,260408,1,0,0:0:0:0:
64,192,260678,1,0,0:0:0:0:
448,192,260678,128,0,261760:0:0:0:0:
192,192,260814,1,0,0:0:0:0:
320,192,260949,1,0,0:0:0:0:
64,192,261084,1,0,0:0:0:0:
192,192,261219,1,0,0:0:0:0:
320,192,261354,1,0,0:0:0:0:
192,192,261489,1,0,0:0:0:0:
64,192,261624,1,0,0:0:0:0:
192,192,261760,1,0,0:0:0:0:
320,192,261760,128,0,265543:0:0:0:0:
64,192,262030,128,0,262300:0:0:0:0:
192,192,262300,128,0,262570:0:0:0:0:
448,192,262570,128,0,262841:0:0:0:0:
192,192,262841,128,0,263381:0:0:0:0:
64,192,263381,128,0,263651:0:0:0:0:
192,192,263651,128,0,263922:0:0:0:0:
448,192,263922,128,0,264462:0:0:0:0:
192,192,264462,128,0,265543:0:0:0:0:
64,192,266084,128,0,267706:0:0:0:0:
320,192,266084,128,0,266354:0:0:0:0:
192,192,266354,128,0,266624:0:0:0:0:
320,192,266624,128,0,266895:0:0:0:0:
448,192,266895,128,0,267165:0:0:0:0:
320,192,267165,128,0,267706:0:0:0:0:
192,192,267706,128,0,267976:0:0:0:0:
320,192,267976,128,0,268246:0:0:0:0:
192,192,268246,128,0,268787:0:0:0:0:
448,192,268246,128,0,268787:0:0:0:0:
320,192,268787,128,0,269327:0:0:0:0:
192,192,269327,128,0,269868:0:0:0:0:
448,192,269327,128,0,269868:0:0:0:0:
64,192,269868,128,0,270408:0:0:0:0:
320,192,269868,128,0,270408:0:0:0:0:
192,192,270408,128,0,270678:0:0:0:0:
64,192,270678,128,0,270949:0:0:0:0:
192,192,270949,128,0,271219:0:0:0:0:
320,192,271219,128,0,271489:0:0:0:0:
192,192,271489,128,0,272030:0:0:0:0:
64,192,272030,128,0,272300:0:0:0:0:
192,192,272300,128,0,272570:0:0:0:0:
448,192,272638,128,0,273111:0:0:0:0:
320,192,272638,128,0,273111:0:0:0:0:
64,192,273178,128,0,274192:0:0:0:0:
192,192,273178,128,0,274192:0:0:0:0:
192,192,274868,128,0,275138:0:0:0:0:
64,192,275138,128,0,275408:0:0:0:0:
192,192,275408,128,0,275678:0:0:0:0:
320,192,275678,128,0,275949:0:0:0:0:
192,192,275949,128,0,276489:0:0:0:0:
64,192,276489,128,0,276827:0:0:0:0:
192,192,276827,128,0,277097:0:0:0:0:
320,192,277097,128,0,277706:0:0:0:0:
448,192,277706,128,0,278246:0:0:0:0:
320,192,278246,128,0,278584:0:0:0:0:
448,192,278584,128,0,278854:0:0:0:0:
320,192,278854,128,0,279192:0:0:0:0:
192,192,279192,128,0,279597:0:0:0:0:
64,192,279597,128,0,283922:0:0:0:0:
