osu file format v14

[General]
AudioFilename: kimisora.mp3
AudioLeadIn: 0
PreviewTime: 56385
Countdown: 0
SampleSet: Soft
StackLeniency: 0.2
Mode: 0
LetterboxInBreaks: 0
WidescreenStoryboard: 1

[Editor]
DistanceSpacing: 1.5
BeatDivisor: 4
GridSize: 32
TimelineZoom: 1.600002

[Metadata]
Title:Kibou no Sora
TitleUnicode:キボウのソラ
Artist:Shimotsuki Haruka
ArtistUnicode:霜月はるか
Creator:lit120
Version:Lasse's Extra
Source:キミへ贈る、ソラの花
Tags:Kimi e Okuru, Sora no Hana cabbit galgame opening op short ver. -Hakurei- Lasse
BeatmapID:1350419
BeatmapSetID:636031

[Difficulty]
HPDrainRate:9
CircleSize:4.3
OverallDifficulty:8
ApproachRate:9
SliderMultiplier:1.76
SliderTickRate:1

[Events]
//Background and Video events
0,0,"X.jpg",0,0
//Break Periods
//Storyboard Layer 0 (Background)
//Storyboard Layer 1 (Fail)
//Storyboard Layer 2 (Pass)
//Storyboard Layer 3 (Foreground)
//Storyboard Sound Samples

[TimingPoints]
380,355.029585798817,4,2,80,30,1,0
380,-166.666666666667,4,2,80,30,0,0
2687,-166.666666666667,4,2,81,30,0,0
3220,-166.666666666667,4,2,87,30,0,0
3397,-166.666666666667,4,2,81,30,0,0
3575,-166.666666666667,4,2,82,30,0,0
3752,-166.666666666667,4,2,80,30,0,0
4107,-166.666666666667,4,2,83,30,0,0
4462,-166.666666666667,4,2,88,30,0,0
4817,-166.666666666667,4,2,83,30,0,0
4995,-166.666666666667,4,2,81,30,0,0
5172,-166.666666666667,4,2,82,30,0,0
5261,-166.666666666667,4,2,81,30,0,0
5882,-166.666666666667,4,2,22,30,0,0
6060,-73.5294117647059,4,2,1,50,0,0
6593,-73.5294117647059,4,2,22,50,0,0
6948,-73.5294117647059,4,2,1,50,0,0
8057,-62.111801242236,4,2,1,5,0,0
8368,-73.5294117647059,4,2,1,50,0,0
8900,-73.5294117647059,4,2,1,60,0,0
9965,-73.5294117647059,4,2,22,60,0,0
10054,-73.5294117647059,4,2,22,40,0,0
10320,-73.5294117647059,4,2,1,60,0,0
11740,-66.6666666666667,4,2,1,60,0,0
12007,-66.6666666666667,4,3,22,5,0,0
12095,-66.6666666666667,4,2,1,60,0,0
14847,-66.6666666666667,4,3,22,5,0,0
14936,-66.6666666666667,4,2,1,60,0,0
17687,-66.6666666666667,4,3,22,5,0,0
17776,-66.6666666666667,4,2,1,60,0,0
18131,-66.6666666666667,4,2,1,60,0,0
21681,-66.6666666666667,4,2,22,60,0,0
23101,-125,4,2,81,40,0,0
23989,-125,4,2,85,40,0,0
24522,-125,4,2,81,40,0,0
25054,-125,4,2,91,40,0,0
25409,-125,4,2,81,40,0,0
25853,-125,4,2,22,30,0,0
25942,-125,4,2,85,40,0,0
26829,-125,4,2,92,40,0,0
27007,-125,4,2,85,40,0,0
27184,-125,4,2,92,40,0,0
27362,-125,4,2,81,40,0,0
27894,-125,4,2,84,40,0,0
28427,-125,4,2,82,40,0,0
28604,-125,4,2,81,40,0,0
28693,-125,4,2,22,30,0,0
28782,-125,4,2,85,40,0,0
30202,-125,4,2,93,40,0,0
30380,-125,4,2,85,40,0,0
30557,-125,4,2,92,40,0,0
30735,-125,4,2,83,40,0,0
31267,-125,4,2,91,40,0,0
31533,-125,4,2,22,30,0,0
31622,-125,4,2,81,40,0,0
32510,-125,4,2,90,40,0,0
32865,-125,4,2,81,40,0,0
33042,-125,4,2,94,40,0,0
33930,-100,4,2,99,40,0,0
34107,-100,4,2,1,40,0,0
34462,-87.719298245614,4,2,1,50,0,0
45823,-75.7575757575758,4,2,1,60,0,0
46090,-75.7575757575758,4,3,99,5,0,0
46178,-75.7575757575758,4,2,1,60,0,0
46800,-75.7575757575758,4,3,99,5,0,0
46888,-75.7575757575758,4,2,1,60,0,0
49640,-75.7575757575758,4,3,99,5,0,0
49729,-75.7575757575758,4,2,1,60,0,0
53456,-75.7575757575758,4,2,22,40,0,0
53634,-75.7575757575758,4,2,1,60,0,0
56474,-69.9300699300699,4,2,1,60,0,0
57184,-62.111801242236,4,2,1,60,0,1
57451,-62.111801242236,4,2,1,5,0,1
57539,-62.111801242236,4,2,1,60,0,1
68190,-62.111801242236,4,2,1,60,0,0
68545,-62.111801242236,4,2,1,60,0,1
68811,-62.111801242236,4,2,1,5,0,1
68900,-62.111801242236,4,2,1,60,0,1
79906,-166.666666666667,4,2,99,40,0,0
80261,-166.666666666667,4,2,80,40,0,0
82214,-166.666666666667,4,2,81,32,0,0
82391,-166.666666666667,4,2,81,34,0,0
82569,-166.666666666667,4,2,81,36,0,0
82746,-166.666666666667,4,2,87,40,0,0
82924,-166.666666666667,4,2,81,40,0,0
83101,-166.666666666667,4,2,82,40,0,0
83279,-166.666666666667,4,2,80,40,0,0
83634,-166.666666666667,4,2,83,40,0,0
83989,-166.666666666667,4,2,88,40,0,0
84344,-166.666666666667,4,2,82,40,0,0
84433,-166.666666666667,4,2,81,40,0,0
84522,-166.666666666667,4,2,82,40,0,0
84699,-166.666666666667,4,2,81,40,0,0
85054,-166.666666666667,4,2,85,40,0,0
85587,-166.666666666667,4,2,86,40,0,0
85942,-166.666666666667,4,2,85,40,0,0
86474,-166.666666666667,4,2,86,40,0,0
87007,600,4,2,81,30,1,0
87007,-200,4,2,81,30,0,0
87609,563.380281690141,4,2,88,30,1,0
88172,428.571428571429,4,2,89,30,1,0
88600,674.157303370787,4,2,84,30,1,0
88600,-200,4,2,84,30,0,0
89274,895.522388059701,4,2,86,30,1,0
89721,779.220779220779,4,2,83,30,1,0
90500,1043.47826086957,4,2,81,26,1,0
91021,1176.47058823529,4,2,90,26,1,0
91315,-100,4,2,83,24,0,0
91609,1379.31034482759,4,2,86,22,1,0
92988,2926.82926829268,4,2,81,20,1,0
92988,-28.954802259887,4,2,81,20,0,0
93353,1796.40718562874,4,2,1,20,1,0
94026,2105.26315789474,4,2,1,20,1,0
94289,2479.33884297521,4,2,1,20,1,0
94598,2985.07462686567,4,2,91,20,1,0

[Colours]
Combo1 : 250,250,130
Combo2 : 160,150,230
Combo3 : 240,110,140
Combo4 : 150,220,140

[HitObjects]
40,169,380,5,6,0:0:0:0:
120,189,557,1,8,0:3:0:0:
200,166,735,1,2,0:3:0:0:
181,247,912,1,2,0:0:0:0:
181,247,1267,5,8,0:3:0:0:
200,166,1445,1,2,0:3:0:0:
260,223,1622,1,6,0:0:0:0:
260,223,1948,6,0,L|268:248,3,17.5999994628906,4|2|4|8,0:3|0:0|0:3|0:0,0:0:0:0:
200,166,2332,1,2,0:3:0:0:
200,166,2687,5,2,0:0:0:0:
177,88,2865,1,8,0:0:0:0:
195,9,3042,1,2,0:3:0:0:
255,64,3220,5,6,0:0:0:0:
177,88,3397,1,2,0:0:0:0:
97,71,3575,1,8,0:0:0:0:
120,147,3752,5,2,0:3:0:0:
177,88,4107,1,2,0:0:0:0:
255,64,4462,1,12,0:0:0:0:
335,83,4817,5,2,0:0:0:0:
279,142,4995,1,8,0:0:0:0:
258,68,5172,1,8,0:0:0:0:
258,68,5261,1,8,0:0:0:0:
356,160,5527,5,2,0:0:0:0:
413,101,5705,1,4,0:3:0:0:
438,184,5882,5,2,0:0:0:0:
438,184,5971,1,2,0:0:0:0:
438,184,6060,2,0,P|314:212|294:316,1,239.360001460937,6|0,0:0|0:0,0:0:0:0:
148,315,6593,2,0,P|258:290|329:379,1,239.360001460937,2|0,0:0|0:0,0:0:0:0:
337,192,7125,5,8,0:0:0:0:
292,309,7303,1,8,0:3:0:0:
245,163,7480,6,0,P|355:187|426:98,1,239.360001460937,6|0,0:0|0:0,0:0:0:0:
320,84,8013,2,0,L|315:55,1,29.9200001826172,8|0,0:0|0:0,0:0:0:0:
315,55,8368,5,8,0:3:0:0:
228,80,8545,2,0,P|154:85|90:69,1,119.680000730469,4|0,0:3|0:0,0:0:0:0:
122,229,8900,6,0,P|131:113|47:33,1,239.360001460937,6|8,0:0|0:0,0:0:0:0:
55,347,9433,2,0,P|104:242|217:214,1,239.360001460937,6|2,0:0|0:0,0:0:0:0:
293,363,9965,5,10,0:0:0:0:
293,363,10054,1,2,0:0:0:0:
293,363,10143,1,2,0:0:0:0:
293,363,10232,1,2,2:0:0:0:
293,363,10320,2,0,P|238:338|179:336,1,119.680000730469,6|2,0:0|0:0,0:0:0:0:
217,213,10675,5,8,0:0:0:0:
369,290,10853,2,0,P|340:237|334:178,1,119.680000730469,6|0,0:0|0:0,0:0:0:0:
369,290,11208,1,8,0:3:0:0:
453,170,11385,5,8,0:0:0:0:
423,171,11473,1,8,0:0:0:0:
393,173,11562,1,8,0:3:0:0:
363,176,11651,1,8,0:3:0:0:
334,179,11740,6,2,B|262:168|262:168|211:190|211:190|112:172,1,198.000007553101,6|0,0:0|0:0,0:1:0:0:
218,273,12095,2,0,B|267:227|267:227|214:188,1,132.000005035401,8|2,0:0|0:0,0:0:0:0:
89,340,12451,5,2,0:0:0:0:
86,256,12628,2,2,B|37:302|37:302|89:340,1,132.000005035401,0|8,0:0|0:0,0:1:0:0:
15,171,12983,5,2,0:0:0:0:
15,171,13072,1,2,0:0:0:0:
15,171,13161,2,2,L|40:316,1,132.000005035401,2|0,0:0|0:0,0:1:0:0:
46,86,13516,2,0,L|21:231,1,132.000005035401,8|0,0:0|0:0,0:0:0:0:
97,213,13782,1,2,0:0:0:0:
114,203,13871,6,2,B|155:195|155:195|197:209|197:209|242:202,1,132.000005035401,2|0,0:0|0:0,0:1:0:0:
405,338,14226,2,2,B|364:330|364:330|322:344|322:344|276:337,1,132.000005035401,8|0,0:0|0:0,0:1:0:0:
318,72,14581,6,2,B|305:133|305:133|325:196|325:196|310:264,1,198.000007553101,2|0,0:0|0:0,0:1:0:0:
242,202,14936,2,0,B|201:194|201:194|159:208|159:208|113:201,1,132.000005035401,8|0,0:0|0:0,0:0:0:0:
113,201,15202,1,2,0:0:0:0:
113,201,15291,1,2,0:0:0:0:
147,128,15468,1,0,0:0:0:0:
209,273,15646,1,8,0:0:0:0:
209,273,16001,6,2,B|250:281|250:281|292:267|292:267|337:273,1,132.000005035401,2|0,0:0|0:0,0:1:0:0:
337,273,16267,1,2,0:0:0:0:
337,273,16356,1,8,0:0:0:0:
242,202,16533,2,2,L|231:136,2,66.0000025177003,0|8|2,0:0|0:0|0:0,0:1:0:0:
303,102,16888,6,2,B|285:76|285:76|255:60,1,66.0000025177003,8|0,0:3|0:0,0:1:0:0:
153,152,17066,2,2,B|154:120|154:120|167:90,1,66.0000025177003,4|8,0:3|0:0,0:1:0:0:
255,60,17243,2,2,B|287:55|287:55|315:38,1,66.0000025177003,8|8,0:3|0:0,0:1:0:0:
167,89,17421,6,2,B|103:93|103:93|22:76|22:76|69:120,1,198.000007553101,6|0,0:0|0:0,0:1:0:0:
59,110,17776,1,8,0:0:0:0:
109,255,17953,5,2,0:0:0:0:
109,255,18042,1,2,0:0:0:0:
109,255,18131,2,2,B|123:169|123:169|91:200,1,132.000005035401,2|0,0:0|0:0,0:1:0:0:
212,346,18486,2,2,B|198:260|198:260|229:291,1,132.000005035401,8|0,0:0|0:0,0:1:0:0:
292,130,18841,6,2,B|278:216|278:216|309:185,1,132.000005035401,2|0,0:0|0:0,0:1:0:0:
373,137,19107,1,2,0:0:0:0:
387,124,19196,2,0,B|418:92|418:92|404:178,1,132.000005035401,8|0,0:0|0:0,0:1:0:0:
379,253,19462,1,8,0:0:0:0:
377,273,19551,5,2,0:0:0:0:
404,178,19729,1,0,0:0:0:0:
512,260,19906,2,2,B|485:237|485:237|449:240,2,66.0000025177003,8|8|8,0:0|0:0|0:3,0:1:0:0:
294,346,20261,5,6,0:0:0:0:
404,178,20439,1,0,0:0:0:0:
387,359,20616,1,8,0:0:0:0:
311,165,20794,1,6,0:0:0:0:
311,165,20882,1,2,0:0:0:0:
311,165,20971,1,2,0:0:0:0:
349,262,21149,5,8,0:3:0:0:
404,178,21326,1,8,0:0:0:0:
294,346,21504,1,12,0:0:0:0:
218,152,21681,5,10,0:0:0:0:
442,275,21859,1,10,0:0:0:0:
366,81,22036,1,10,0:0:0:0:
294,346,22214,1,10,0:1:0:0:
48,40,22569,5,10,0:1:0:0:
48,40,23101,6,0,P|67:112|70:178,1,140.8,6|0,0:0|0:0,0:0:0:0:
70,177,23811,1,0,0:0:0:0:
142,121,23988,1,8,0:0:0:0:
232,108,24166,1,8,0:3:0:0:
316,141,24344,6,0,P|351:149|395:151,1,70.4,2|2,0:0|0:0,0:0:0:0:
473,82,24699,2,0,P|406:89|385:152,1,140.8,0|8,0:0|0:0,0:0:0:0:
385,151,25409,1,2,0:0:0:0:
328,223,25587,2,0,P|293:215|258:212,1,70.4,0|0,0:0|0:0,0:0:0:0:
265,219,25853,1,2,0:0:0:0:
264,218,25942,6,0,P|261:183|254:149,2,70.4,6|0|0,0:0|0:0|0:0,0:0:0:0:
264,218,26652,1,0,0:0:0:0:
191,273,26829,2,0,P|156:265|121:262,2,70.4,2|8|8,0:0|0:0|0:0,0:0:0:0:
248,344,27362,5,2,0:0:0:0:
248,343,27717,2,0,P|283:351|318:354,1,70.4,0|2,0:0|0:0,0:0:0:0:
361,300,28072,2,0,P|336:326|316:355,1,70.4,0|0,0:0|0:0,0:0:0:0:
361,300,28427,2,0,P|337:274|316:245,1,70.4,8|2,0:0|0:0,0:0:0:0:
316,245,28693,1,2,0:0:0:0:
316,245,28782,1,6,0:0:0:0:
323,252,29492,5,0,0:0:0:0:
238,286,29669,1,0,0:0:0:0:
147,272,29847,1,0,0:0:0:0:
75,214,30024,2,0,P|72:179|65:145,2,70.4,0|2|8,0:0|0:0|0:0,0:0:0:0:
60,305,30557,5,8,0:0:0:0:
147,272,30735,2,0,P|158:238|174:207,1,70.4,8|0,0:0|0:0,0:0:0:0:
175,207,31267,2,0,P|172:172|165:138,1,70.4,8|0,0:0|0:0,0:0:0:0:
164,137,31533,1,2,0:0:0:0:
164,137,31622,5,6,0:0:0:0:
250,171,31800,1,0,0:0:0:0:
339,155,31977,1,0,0:0:0:0:
408,96,32155,2,0,P|411:61|418:27,2,70.4,0|0|2,0:0|0:0|0:0,0:0:0:0:
425,186,32687,1,8,0:0:0:0:
484,255,32865,1,2,0:0:0:0:
495,127,33042,5,8,0:3:0:0:
425,186,33220,5,2,0:3:0:0:
309,209,33397,5,4,0:3:0:0:
133,149,33575,5,2,0:0:0:0:
130,169,33930,5,10,0:0:0:0:
119,62,34107,2,0,P|132:126|130:184,1,88,8|0,0:0|0:0,0:0:0:0:
130,169,34374,1,2,0:0:0:0:
128,190,34462,5,6,0:0:0:0:
98,284,34640,1,0,0:0:0:0:
128,190,34817,2,0,P|106:234|98:283,1,100.319998775391,2|0,0:0|0:0,0:0:0:0:
217,272,35172,5,2,0:0:0:0:
311,346,35350,1,0,0:0:0:0:
410,279,35527,1,2,0:0:0:0:
376,164,35705,6,0,P|366:114|370:65,1,100.319998775391,0|2,0:0|0:0,0:0:0:0:
292,217,36060,2,0,P|338:196|376:164,1,100.319998775391,0|2,0:0|0:0,0:0:0:0:
376,164,36415,6,0,P|423:180|464:209,2,100.319998775391,0|2|0,0:0|0:0|0:0,0:0:0:0:
379,167,36859,1,2,0:0:0:0:
382,170,36948,1,2,0:0:0:0:
382,170,37125,1,0,0:0:0:0:
293,218,37303,5,2,0:0:0:0:
191,213,37480,1,0,0:0:0:0:
105,157,37658,1,2,0:0:0:0:
58,65,37835,1,0,0:0:0:0:
2,152,38013,5,2,0:0:0:0:
58,65,38190,2,0,P|107:56|156:64,1,100.319998775391,0|2,0:0|0:0,0:0:0:0:
276,53,38545,2,0,P|325:48|371:27,2,100.319998775391,0|2|0,0:0|0:0|0:0,0:0:0:0:
156,64,39078,6,0,P|115:92|86:133,1,100.319998775391,2|0,0:0|0:0,0:0:0:0:
197,181,39433,2,0,P|188:230|197:279,1,100.319998775391,2|0,0:0|0:0,0:0:0:0:
308,234,39788,2,0,P|336:274|377:303,1,100.319998775391,2|0,0:0|0:0,0:0:0:0:
302,135,40143,6,0,P|308:233|377:303,1,200.639997550781,2|2,0:0|0:0,0:0:0:0:
377,303,40853,1,2,0:0:0:0:
308,234,41031,1,0,0:0:0:0:
303,135,41208,1,2,0:0:0:0:
377,63,41385,1,0,0:0:0:0:
303,135,41563,6,0,P|204:134|131:69,1,200.639997550781,2|2,0:0|0:0,0:0:0:0:
36,45,42095,2,0,P|85:48|130:69,1,100.319998775391,0|2,0:0|0:0,0:0:0:0:
205,134,42451,2,0,P|253:144|302:135,1,100.319998775391,0|2,0:0|0:0,0:0:0:0:
303,135,42983,6,0,P|269:172|253:219,1,100.319998775391,2|0,0:0|0:0,0:0:0:0:
362,231,43338,1,2,0:0:0:0:
401,127,43516,2,0,P|351:121|303:135,1,100.319998775391,0|2,0:0|0:0,0:0:0:0:
468,197,43871,2,0,P|441:154|400:126,1,100.319998775391,0|2,0:0|0:0,0:0:0:0:
368,342,44226,5,0,0:0:0:0:
454,294,44403,2,0,P|470:247|468:198,1,100.319998775391,2|0,0:0|0:0,0:0:0:0:
303,134,44758,5,8,0:0:0:0:
369,238,44936,1,8,0:0:0:0:
369,238,45024,1,8,0:0:0:0:
369,238,45113,1,8,0:0:0:0:
400,126,45291,5,8,0:3:0:0:
303,134,45468,5,4,0:3:0:0:
228,103,45646,5,4,0:3:0:0:
193,207,45823,6,0,P|215:124|180:46,1,174.239999468262,6|0,0:0|0:0,0:0:0:0:
72,41,46178,2,0,P|137:61|197:32,1,116.159999645508,2|0,0:0|0:0,0:0:0:0:
326,116,46533,2,0,P|265:55|180:46,1,174.239999468262,8|0,0:0|0:0,0:0:0:0:
180,45,46888,1,2,0:0:0:0:
326,116,47066,2,0,P|381:131|434:111,1,116.159999645508,2|0,0:0|0:0,0:0:0:0:
376,35,47421,5,8,0:0:0:0:
326,116,47598,1,2,0:0:0:0:
243,160,47776,1,0,0:0:0:0:
147,156,47953,2,0,P|89:155|43:189,1,116.159999645508,8|0,0:0|0:0,0:0:0:0:
118,247,48308,1,0,0:0:0:0:
147,156,48486,1,2,0:0:0:0:
74,75,48664,6,0,P|123:103|147:156,1,116.159999645508,2|0,0:0|0:0,0:0:0:0:
220,76,49019,2,0,P|170:104|147:156,1,116.159999645508,2|0,0:0|0:0,0:0:0:0:
159,316,49374,2,0,P|182:231|146:154,1,174.239999468262,8|0,0:0|0:0,0:0:0:0:
147,155,49729,1,2,0:0:0:0:
159,316,49906,2,0,P|216:317|262:283,1,116.159999645508,2|0,0:0|0:0,0:0:0:0:
277,191,50261,5,8,0:0:0:0:
350,248,50439,1,2,0:0:0:0:
354,341,50616,2,0,P|298:327|262:283,1,116.159999645508,0|8,0:0|0:0,0:0:0:0:
277,191,50971,1,0,0:0:0:0:
350,248,51149,2,0,P|405:234|441:190,1,116.159999645508,0|0,0:0|0:0,0:0:0:0:
510,101,51504,6,0,P|439:217|483:311,1,232.319999291016,6|0,0:0|0:0,0:0:0:0:
470,298,52214,1,8,0:0:0:0:
441,190,52392,1,0,0:0:0:0:
510,101,52569,1,0,0:0:0:0:
441,190,52746,2,0,P|385:205|332:185,2,116.159999645508,2|0|8,0:0|0:0|0:0,0:0:0:0:
510,101,53279,5,2,0:0:0:0:
458,293,53456,1,2,0:0:0:0:
458,293,53545,1,2,0:0:0:0:
458,293,53634,2,0,P|440:188|331:186,1,232.319999291016,8|0,0:0|0:0,0:0:0:0:
244,281,54166,5,8,0:0:0:0:
332,185,54344,2,0,P|347:129|327:76,1,116.159999645508,2|0,0:0|0:0,0:0:0:0:
237,134,54699,5,2,0:0:0:0:
332,185,54877,1,0,0:0:0:0:
142,84,55054,1,8,0:0:0:0:
328,76,55232,5,8,0:0:0:0:
146,191,55409,1,8,0:0:0:0:
232,25,55587,1,2,0:0:0:0:
232,25,56119,5,8,0:3:0:0:
237,43,56208,1,8,0:0:0:0:
142,84,56385,1,8,0:0:0:0:
140,63,56474,5,8,0:0:0:0:
242,61,56652,1,8,0:3:0:0:
316,132,56829,5,4,0:3:0:0:
418,128,57007,1,0,0:0:0:0:
225,172,57184,6,0,B|262:139|328:166|328:166|388:172|418:128,1,212.52000032428,6|0,0:0|3:0,0:0:0:0:
438,0,57539,2,0,P|403:83|426:140,1,141.680000216187,12|0,0:0|0:0,0:0:0:0:
485,168,57806,1,2,0:0:0:0:
505,174,57894,5,2,0:0:0:0:
438,0,58072,1,0,0:0:0:0:
316,132,58249,1,8,0:0:0:0:
143,70,58427,6,0,P|214:124|223:185,1,141.680000216187,0|2,0:0|0:0,0:0:0:0:
99,280,58782,1,0,0:0:0:0:
28,131,58959,2,0,P|74:79|143:70,1,141.680000216187,8|0,0:0|0:0,0:0:0:0:
142,69,59226,1,2,0:0:0:0:
142,69,59314,1,2,0:0:0:0:
122,170,59492,5,0,0:0:0:0:
61,50,59669,1,8,0:0:0:0:
28,225,59847,5,0,0:0:0:0:
232,239,60024,2,0,P|190:183|122:170,1,141.680000216187,2|0,0:0|0:0,0:0:0:0:
230,338,60380,5,8,0:0:0:0:
347,180,60557,2,0,P|277:188|232:240,1,141.680000216187,0|2,0:0|0:0,0:0:0:0:
469,136,60912,2,0,P|417:181|347:180,1,141.680000216187,0|8,0:0|0:0,0:0:0:0:
225,68,61267,5,0,0:0:0:0:
232,239,61445,2,2,P|191:184|123:170,1,141.680000216187,2|0,0:0|0:0,0:1:0:0:
347,180,61800,2,2,P|334:112|369:53,1,141.680000216187,8|0,0:0|0:0,0:1:0:0:
466,114,62066,1,8,0:0:0:0:
469,136,62155,2,2,P|417:181|347:180,1,141.680000216187,2|0,0:0|0:0,0:1:0:0:
117,300,62510,2,2,P|186:291|232:239,1,141.680000216187,8|8,0:0|0:3,0:1:0:0:
143,168,62776,1,8,0:0:0:0:
121,170,62865,6,2,B|83:212|91:267|116:300|116:300|165:312|216:283|232:239,1,283.360000432373,6|8,0:0|0:0,0:1:0:0:
248,95,63397,1,2,0:0:0:0:
248,95,63486,1,2,0:0:0:0:
248,95,63575,1,2,0:0:0:0:
469,135,63752,6,0,P|417:180|348:179,1,141.680000216187,0|8,0:0|0:0,0:0:0:0:
248,95,64107,2,0,P|312:117|347:178,1,141.680000216187,0|2,0:0|0:0,0:0:0:0:
324,306,64462,5,0,0:0:0:0:
347,179,64640,1,8,0:0:0:0:
435,333,64817,1,2,0:0:0:0:
435,333,64906,1,2,0:0:0:0:
435,333,64995,1,2,0:0:0:0:
388,252,65172,5,0,0:0:0:0:
266,362,65350,1,8,0:0:0:0:
347,179,65527,5,0,0:0:0:0:
324,306,65705,1,2,0:0:0:0:
196,323,65882,1,0,0:0:0:0:
140,206,66060,1,8,0:0:0:0:
233,116,66237,1,2,0:0:0:0:
233,116,66326,1,2,0:0:0:0:
233,116,66415,1,2,0:0:0:0:
196,323,66593,5,0,0:0:0:0:
347,179,66771,1,8,0:0:0:0:
140,206,66948,1,0,0:0:0:0:
324,306,67125,1,8,0:0:0:0:
233,116,67303,1,8,0:0:0:0:
196,323,67480,5,2,0:0:0:0:
240,123,67658,1,6,0:0:0:0:
240,123,67746,1,2,0:0:0:0:
240,123,67835,1,2,0:0:0:0:
324,306,68013,1,8,0:3:0:0:
450,163,68190,5,8,0:0:0:0:
393,122,68279,1,8,0:0:0:0:
323,121,68368,1,8,0:0:0:0:
266,160,68456,1,8,0:0:0:0:
242,227,68545,6,0,P|148:288|83:221,1,212.52000032428,6|0,0:0|0:3,0:0:0:0:
33,350,68900,2,0,P|88:278|80:217,1,141.680000216187,8|0,0:0|0:0,0:0:0:0:
52,163,69166,1,2,0:0:0:0:
43,144,69255,5,2,0:0:0:0:
32,350,69433,1,0,0:0:0:0:
166,204,69610,1,8,0:0:0:0:
244,360,69788,5,2,0:0:0:0:
244,360,69877,1,2,0:0:0:0:
244,360,69965,1,2,0:0:0:0:
166,204,70143,5,0,0:0:0:0:
290,242,70320,2,0,P|220:246|165:203,1,141.680000216187,8|0,0:0|0:0,0:0:0:0:
165,204,70587,1,2,0:0:0:0:
165,204,70675,1,2,0:0:0:0:
247,155,70853,5,0,0:0:0:0:
215,275,71030,1,8,0:0:0:0:
163,109,71208,5,0,0:0:0:0:
290,242,71385,2,0,P|337:191|337:121,1,141.680000216187,2|0,0:0|0:0,0:0:0:0:
163,109,71741,5,8,0:0:0:0:
337,122,71918,1,0,0:0:0:0:
110,190,72095,5,2,0:0:0:0:
215,27,72273,1,2,0:0:0:0:
215,27,72362,1,2,0:0:0:0:
215,27,72451,1,8,0:0:0:0:
247,155,72628,1,0,0:0:0:0:
406,12,72806,6,2,P|351:53|337:121,1,141.680000216187,2|0,0:0|0:0,0:1:0:0:
381,329,73161,2,2,P|372:260|320:214,1,141.680000216187,8|0,0:0|0:0,0:1:0:0:
137,139,73427,1,8,0:0:0:0:
118,149,73516,2,2,P|181:177|247:155,1,141.680000216187,2|8,0:0|0:3,0:1:0:0:
251,323,73871,1,8,0:0:0:0:
281,306,73959,1,8,0:0:0:0:
316,301,74048,1,8,0:0:0:0:
351,308,74137,1,8,0:0:0:0:
380,328,74226,6,2,P|490:294|399:225,1,283.360000432373,6|8,0:0|0:0,0:1:0:0:
258,330,74758,1,2,0:0:0:0:
258,330,74847,1,2,0:0:0:0:
258,330,74936,1,2,0:0:0:0:
200,215,75113,1,0,0:0:0:0:
399,226,75291,6,0,P|426:162|404:96,1,141.680000216187,8|0,0:0|0:0,0:0:0:0:
287,136,75557,1,2,0:0:0:0:
289,157,75646,2,0,P|330:212|398:226,1,141.680000216187,2|0,0:0|0:0,0:0:0:0:
404,97,76001,5,8,0:0:0:0:
317,247,76178,1,2,0:0:0:0:
317,247,76267,1,2,0:0:0:0:
317,247,76356,1,2,0:0:0:0:
207,56,76533,6,0,P|266:90|288:156,1,141.680000216187,0|8,0:0|0:0,0:0:0:0:
403,97,76888,1,2,0:0:0:0:
403,97,76977,1,2,0:0:0:0:
403,97,77066,2,0,P|334:105|288:157,1,141.680000216187,2|0,0:0|0:0,0:0:0:0:
391,236,77421,2,0,P|354:177|288:156,1,141.680000216187,8|0,0:0|0:0,0:0:0:0:
166,198,77687,1,8,0:0:0:0:
174,218,77776,6,0,P|242:209|288:157,1,141.680000216187,2|0,0:0|0:0,0:0:0:0:
288,156,78042,1,2,0:0:0:0:
288,156,78132,1,10,0:0:0:0:
320,300,78308,5,8,0:3:0:0:
196,124,78486,1,8,0:0:0:0:
391,236,78664,1,8,0:0:0:0:
174,218,78841,1,2,0:0:0:0:
359,106,79019,5,6,0:0:0:0:
359,106,79107,1,2,0:0:0:0:
359,106,79196,1,2,0:0:0:0:
174,218,79374,5,8,0:0:0:0:
181,148,79462,1,8,0:0:0:0:
227,95,79551,1,8,0:0:0:0:
294,79,79640,1,8,0:0:0:0:
359,106,79729,1,8,0:3:0:0:
395,165,79817,1,8,0:3:0:0:
391,236,79906,1,14,0:0:0:0:
451,17,80261,5,2,0:3:0:0:
437,96,80438,1,2,0:0:0:0:
74,332,81149,5,6,0:0:0:0:
74,332,81504,5,4,0:3:0:0:
60,253,81681,1,8,0:0:0:0:
47,175,81859,1,2,0:3:0:0:
107,123,82214,5,2,0:0:0:0:
47,175,82391,1,8,0:0:0:0:
60,253,82569,1,2,0:3:0:0:
122,202,82746,5,6,0:0:0:0:
180,258,82924,1,2,0:0:0:0:
221,327,83101,1,8,0:0:0:0:
259,256,83279,1,2,0:3:0:0:
259,256,83634,5,2,0:0:0:0:
74,52,83989,5,12,0:0:0:0:
74,52,84344,6,0,L|23:43,2,26.399999194336,8|8|8,0:0|0:0|0:0,0:0:0:0:
125,111,84699,1,2,0:0:0:0:
125,111,85054,5,2,0:0:0:0:
346,43,85409,5,0,0:0:0:0:
346,43,85498,1,0,0:0:0:0:
346,43,85587,1,6,0:0:0:0:
346,43,85942,5,8,0:0:0:0:
358,122,86119,1,8,0:3:0:0:
358,122,86474,5,2,0:0:0:0:
128,115,87007,6,0,P|168:99|212:99,1,88.3,6|8,0:0|0:0,0:0:0:0:
188,201,88172,5,2,0:0:0:0:
129,131,88600,6,0,P|169:114|212:114,1,88,6|2,0:0|0:0,0:0:0:0:
188,201,89721,5,8,0:0:0:0:
389,317,90500,5,6,0:0:0:0:
389,317,91021,5,2,0:0:0:0:
398,243,91315,1,8,0:0:0:0:
408,170,91609,1,2,0:0:0:0:
62,90,92988,6,0,B|80:56|120:46|157:63|157:63|196:18|297:26|318:156|187:222|187:222|124:219|92:177,1,528.000020141602,6|2,0:0|0:0,0:0:0:0:
