osu file format v14

[General]
AudioFilename: kimisora.mp3
AudioLeadIn: 0
PreviewTime: 56385
Countdown: 0
SampleSet: Soft
StackLeniency: 0.4
Mode: 0
LetterboxInBreaks: 0
WidescreenStoryboard: 0

[Editor]
Bookmarks: 380,6060,11740,23101,34462,45823,57184,68545,79906,85587,92988,95530
DistanceSpacing: 1.5
BeatDivisor: 4
GridSize: 4
TimelineZoom: 7.6

[Metadata]
Title:Kibou no Sora
TitleUnicode:キボウのソラ
Artist:Shimotsuki Haruka
ArtistUnicode:霜月はるか
Creator:lit120
Version:Hard
Source:キミへ贈る、ソラの花
Tags:Kimi e Okuru, Sora no Hana cabbit galgame opening op short ver. -Hakurei- Lasse
BeatmapID:1349697
BeatmapSetID:636031

[Difficulty]
HPDrainRate:6
CircleSize:3.5
OverallDifficulty:6
ApproachRate:7.5
SliderMultiplier:1.55
SliderTickRate:1

[Events]
//Background and Video events
0,0,"H.jpg",0,0
//Break Periods
//Storyboard Layer 0 (Background)
//Storyboard Layer 1 (Fail)
//Storyboard Layer 2 (Pass)
//Storyboard Layer 3 (Foreground)
//Storyboard Sound Samples

[TimingPoints]
380,355.029585798817,4,2,80,30,1,0
380,-133.333333333333,4,2,80,30,0,0
2687,-133.333333333333,4,2,81,30,0,0
3220,-133.333333333333,4,2,87,30,0,0
3397,-133.333333333333,4,2,81,30,0,0
3575,-133.333333333333,4,2,82,30,0,0
3752,-133.333333333333,4,2,80,30,0,0
4107,-133.333333333333,4,2,83,30,0,0
4462,-133.333333333333,4,2,88,30,0,0
4817,-133.333333333333,4,2,83,30,0,0
4995,-133.333333333333,4,2,81,30,0,0
5172,-133.333333333333,4,2,82,30,0,0
5261,-133.333333333333,4,2,81,30,0,0
6060,-100,4,2,1,50,0,0
8900,-100,4,2,1,60,0,0
23101,-133.333333333333,4,2,81,40,0,0
23989,-133.333333333333,4,2,85,40,0,0
24522,-133.333333333333,4,2,81,40,0,0
25054,-133.333333333333,4,2,91,40,0,0
25409,-133.333333333333,4,2,81,40,0,0
25942,-133.333333333333,4,2,85,40,0,0
26829,-133.333333333333,4,2,92,40,0,0
27184,-133.333333333333,4,2,92,40,0,0
27362,-133.333333333333,4,2,81,40,0,0
27894,-133.333333333333,4,2,84,40,0,0
28427,-133.333333333333,4,2,82,40,0,0
28604,-133.333333333333,4,2,81,40,0,0
28782,-133.333333333333,4,2,85,40,0,0
30557,-133.333333333333,4,2,92,40,0,0
30735,-133.333333333333,4,2,83,40,0,0
31267,-133.333333333333,4,2,91,40,0,0
31622,-133.333333333333,4,2,81,40,0,0
32510,-133.333333333333,4,2,90,40,0,0
32865,-133.333333333333,4,2,81,40,0,0
33042,-133.333333333333,4,2,94,40,0,0
33930,-133.333333333333,4,2,99,40,0,0
34107,-133.333333333333,4,2,1,40,0,0
34462,-100,4,2,1,50,0,0
45823,-100,4,2,1,60,0,0
57184,-100,4,2,1,60,0,1
79906,-133.333333333333,4,2,99,40,0,0
80261,-133.333333333333,4,2,80,40,0,0
82214,-133.333333333333,4,2,81,40,0,0
82746,-133.333333333333,4,2,87,40,0,0
82924,-133.333333333333,4,2,81,40,0,0
83101,-133.333333333333,4,2,82,40,0,0
83279,-133.333333333333,4,2,80,40,0,0
83634,-133.333333333333,4,2,83,40,0,0
83989,-133.333333333333,4,2,88,40,0,0
84344,-133.333333333333,4,2,82,40,0,0
84699,-133.333333333333,4,2,81,40,0,0
85054,-133.333333333333,4,2,85,40,0,0
85587,-133.333333333333,4,2,86,40,0,0
85942,-133.333333333333,4,2,85,40,0,0
86474,-133.333333333333,4,2,86,40,0,0
87007,600,4,2,81,30,1,0
87609,563.380281690141,4,2,88,30,1,0
88172,428.571428571429,4,2,89,30,1,0
88600,674.157303370787,4,2,84,30,1,0
89274,895.522388059701,4,2,86,30,1,0
89721,779.220779220779,4,2,83,30,1,0
90500,1043.47826086957,4,2,81,30,1,0
91021,1176.47058823529,4,2,90,30,1,0
91315,-100,4,2,83,30,0,0
91609,1379.31034482759,4,2,86,30,1,0
92988,2926.82926829268,4,2,81,30,1,0
92988,-31.0230024213075,4,2,81,30,0,0
93353,1796.40718562874,4,2,1,30,1,0
94026,2105.26315789474,4,2,1,30,1,0
94289,2479.33884297521,4,2,1,30,1,0
94598,2985.07462686567,4,2,91,30,1,0

[Colours]
Combo1 : 225,159,122
Combo2 : 215,160,222
Combo3 : 136,205,254
Combo4 : 238,106,126

[HitObjects]
44,140,380,6,0,L|13:70,2,58.1250022172929,6|8|2,0:0|0:3|0:3,0:0:0:0:
88,207,912,2,0,P|145:214|202:205,1,116.250004434586,2|8,0:0|0:3,0:0:0:0:
256,144,1445,1,2,0:3:0:0:
309,205,1622,6,0,P|366:214|423:207,1,116.250004434586,6|0,0:0|0:0,0:0:0:0:
484,152,2155,1,0,0:0:0:0:
501,232,2332,1,2,0:3:0:0:
501,232,2687,2,0,P|487:257|465:277,2,58.1250022172929,2|8|2,0:0|0:0|0:3,0:0:0:0:
483,152,3220,6,0,P|460:134|433:125,2,58.1250022172929,6|2|8,0:0|0:0|0:0,0:0:0:0:
423,206,3752,2,0,P|366:214|309:205,1,116.250004434586,2|2,0:3|0:0,0:0:0:0:
166,127,4462,2,0,P|200:173|221:227,1,116.250004434586,12|2,0:0|0:0,0:0:0:0:
212,308,4995,1,8,0:0:0:0:
138,340,5172,1,8,0:0:0:0:
138,340,5261,2,0,P|61:321|41:300,1,87.1875033259393,8|2,0:0|0:0,0:0:0:0:
38,237,5705,1,4,0:3:0:0:
38,237,6060,5,6,0:0:0:0:
38,237,7125,5,8,0:0:0:0:
66,156,7303,1,8,0:3:0:0:
94,75,7480,1,6,0:0:0:0:
94,75,8013,5,8,0:0:0:0:
38,237,8368,1,8,0:3:0:0:
38,237,8545,1,4,0:3:0:0:
206,204,8900,6,0,P|299:182|386:204,1,155,6|8,0:0|0:0,0:0:0:0:
367,276,9433,2,0,P|274:298|187:276,1,155,6|2,0:0|0:0,0:0:0:0:
138,254,9965,1,8,0:0:0:0:
138,254,10320,6,0,L|46:258,2,77.5,6|2|8,0:0|0:0|0:0,0:0:0:0:
205,204,10853,2,0,P|279:182|356:191,1,155,6|8,0:0|0:3,0:0:0:0:
433,224,11385,1,8,0:0:0:0:
433,224,11474,1,8,0:0:0:0:
433,224,11563,1,8,0:3:0:0:
466,148,11740,6,0,P|461:73|399:31,2,155,6|8|2,0:0|0:0|0:0,0:0:0:0:
390,115,12628,2,0,L|292:115,1,77.5,0|8,0:0|0:0,0:0:0:0:
249,55,12983,6,0,P|213:121|139:132,1,155,0|0,0:0|0:0,0:0:0:0:
104,53,13516,2,0,P|73:78|56:112,1,77.5,8|0,0:0|0:0,0:0:0:0:
6,181,13871,2,0,P|42:195|81:193,1,77.5,2|0,0:0|0:0,0:0:0:0:
167,203,14226,2,0,P|161:165|140:133,1,77.5,8|0,0:0|0:0,0:0:0:0:
80,193,14581,6,0,P|105:264|176:289,2,155,2|8|2,0:0|0:0|0:0,0:0:0:0:
140,133,15468,1,0,0:0:0:0:
225,143,15646,2,0,P|295:145|325:133,1,77.5,8|0,0:0|0:0,0:0:0:0:
359,80,16001,5,2,0:0:0:0:
359,80,16178,2,0,P|380:113|385:151,1,77.5,0|8,0:0|0:0,0:0:0:0:
336,219,16533,2,0,P|432:216|460:316,1,155,0|8,0:0|0:3,0:0:0:0:
434,337,17066,1,4,0:3:0:0:
351,352,17243,1,8,0:3:0:0:
351,352,17332,1,8,0:0:0:0:
351,352,17421,6,0,P|245:336|190:356,1,155,6|8,0:0|0:0,0:0:0:0:
122,380,17953,2,0,P|104:274|68:228,1,155,0|0,0:0|0:0,0:0:0:0:
24,170,18486,2,0,P|119:120|151:72,1,155,8|2,0:0|0:0,0:0:0:0:
192,12,19018,6,0,P|268:87|324:103,1,155,0|0,0:0|0:0,0:0:0:0:
394,125,19551,2,0,P|428:106|452:76,1,77.5,2|0,0:0|0:0,0:0:0:0:
373,40,19906,1,8,0:0:0:0:
373,40,19995,1,8,0:0:0:0:
373,40,20084,1,8,0:3:0:0:
290,17,20261,5,6,0:0:0:0:
312,101,20439,1,0,0:0:0:0:
373,40,20616,1,8,0:0:0:0:
394,125,20794,2,0,P|404:199|355:255,1,155,6|8,0:0|0:3,0:0:0:0:
271,240,21326,2,0,P|207:233|166:246,1,77.5,8|12,0:0|0:0,0:0:0:0:
137,297,21681,5,8,0:0:0:0:
61,261,21859,1,8,0:0:0:0:
71,177,22036,1,8,0:0:0:0:
153,161,22214,1,8,0:0:0:0:
153,161,22569,6,0,P|219:153|316:163,1,155,8|0,0:0|0:0,0:0:0:0:
375,212,23101,6,0,P|370:155|412:100,2,116.250004434586,6|0|0,0:0|0:0|0:0,0:0:0:0:
430,271,23989,2,0,P|405:287|377:293,1,58.1250022172929,8|8,0:0|0:3,0:0:0:0:
304,253,24344,2,0,L|236:255,1,58.1250022172929,2|2,0:0|0:0,0:0:0:0:
183,306,24699,2,0,P|190:236|164:188,2,116.250004434586,0|8|2,0:0|0:0|0:0,0:0:0:0:
132,370,25587,1,0,0:0:0:0:
132,370,25942,6,0,P|113:347|103:320,1,58.1250022172929,6|0,0:0|0:0,0:0:0:0:
183,306,26297,2,0,P|257:295|325:307,1,116.250004434586,0|0,0:0|0:0,0:0:0:0:
366,342,26829,2,0,P|342:272|373:216,1,116.250004434586,2|8,0:0|0:0,0:0:0:0:
415,179,27362,1,2,0:0:0:0:
415,179,27717,6,0,P|429:203|436:231,1,58.1250022172929,0|2,0:0|0:0,0:0:0:0:
356,235,28072,2,0,P|327:235|299:227,1,58.1250022172929,0|0,0:0|0:0,0:0:0:0:
337,155,28427,2,0,P|351:129|371:109,1,58.1250022172929,8|2,0:0|0:0,0:0:0:0:
452,106,28782,6,0,P|407:36|324:42,1,174.375006651879,6|0,0:0|0:0,0:0:0:0:
256,86,29492,2,0,L|256:169,2,58.1250022172929,0|0|0,0:0|0:0|0:0,0:0:0:0:
187,42,30024,2,0,P|104:36|59:106,1,174.375006651879,0|8,0:0|0:0,0:0:0:0:
140,109,30735,2,0,P|163:193|150:282,1,174.375006651879,8|8,0:0|0:0,0:0:0:0:
120,353,31445,1,0,0:0:0:0:
120,353,31622,6,0,P|96:338|79:314,2,58.1250022172929,6|0|0,0:0|0:0|0:0,0:0:0:0:
201,341,32155,2,0,P|273:324|394:353,1,174.375006651879,0|8,0:0|0:0,0:0:0:0:
448,325,32865,1,2,0:0:0:0:
448,325,33042,6,0,P|449:354|440:381,2,58.1250022172929,8|2|4,0:3|0:3|0:3,0:0:0:0:
396,265,33575,1,2,0:0:0:0:
252,189,33930,1,10,0:0:0:0:
252,189,34107,1,8,0:0:0:0:
115,265,34462,6,0,P|105:228|114:191,1,77.5,6|0,0:0|0:0,0:0:0:0:
183,140,34817,2,0,P|116:136|120:52,1,155,2|2,0:0|0:0,0:0:0:0:
187,24,35350,2,0,P|229:21|275:28,1,77.5,0|2,0:0|0:0,0:0:0:0:
309,97,35705,6,0,P|351:100|397:93,1,77.5,0|2,0:0|0:0,0:0:0:0:
460,54,36060,2,0,P|469:92|463:130,1,77.5,0|2,0:0|0:0,0:0:0:0:
394,180,36415,2,0,P|456:173|457:275,1,155,0|0,0:0|0:0,0:0:0:0:
413,299,36948,2,0,P|375:290|336:292,1,77.5,2|0,0:0|0:0,0:0:0:0:
267,342,37303,6,0,P|237:287|232:255,1,77.5,2|0,0:0|0:0,0:0:0:0:
156,237,37658,2,0,P|188:184|213:163,1,77.5,2|0,0:0|0:0,0:0:0:0:
191,88,38013,1,2,0:0:0:0:
191,88,38190,2,0,P|253:90|283:101,1,77.5,0|2,0:0|0:0,0:0:0:0:
338,43,38545,6,0,P|299:108|325:178,1,155,0|0,0:0|0:0,0:0:0:0:
408,197,39078,2,0,P|446:202|483:193,1,77.5,2|0,0:0|0:0,0:0:0:0:
458,112,39433,2,0,P|420:107|383:116,1,77.5,2|0,0:0|0:0,0:0:0:0:
325,178,39788,2,0,P|320:216|328:253,1,77.5,2|0,0:0|0:0,0:0:0:0:
406,287,40143,6,0,P|349:335|275:321,2,155,2|2|2,0:0|0:0|0:0,0:0:0:0:
328,254,41030,1,0,0:0:0:0:
275,321,41208,2,0,P|225:312|175:319,1,77.5,2|0,0:0|0:0,0:0:0:0:
138,373,41563,6,0,P|158:269|133:195,1,155,2|2,0:0|0:0,0:0:0:0:
62,229,42095,2,0,P|67:190|89:159,1,77.5,0|2,0:0|0:0,0:0:0:0:
173,142,42451,2,0,P|205:163|225:195,1,77.5,0|2,0:0|0:0,0:0:0:0:
252,275,42806,1,0,0:0:0:0:
252,275,42983,6,0,P|307:208|376:203,1,155,2|2,0:0|0:0,0:0:0:0:
432,259,43516,2,0,P|450:224|453:186,1,77.5,0|2,0:0|0:0,0:0:0:0:
472,105,43871,2,0,P|433:105|399:123,1,77.5,0|2,0:0|0:0,0:0:0:0:
371,202,44226,1,0,0:0:0:0:
371,202,44403,6,0,P|296:190|252:128,1,155,2|8,0:0|0:0,0:0:0:0:
208,55,44936,2,0,L|208:17,2,38.75,0|8|8,0:0|0:0|0:0,0:0:0:0:
166,130,45291,2,0,P|123:142|91:136,2,77.5,8|4|4,0:3|0:3|0:3,0:0:0:0:
122,56,45823,6,0,P|48:63|7:125,2,155,6|2|8,0:0|0:0|0:0,0:0:0:0:
166,130,46711,2,0,P|171:168|165:206,1,77.5,0|2,0:0|0:0,0:0:0:0:
120,280,47066,6,0,P|191:253|257:289,1,155,2|8,0:0|0:0,0:0:0:0:
256,373,47598,1,2,0:0:0:0:
256,288,47776,2,0,P|322:252|393:279,1,155
454,335,48308,2,0,P|472:300|474:262,1,77.5,0|2,0:0|0:0,0:0:0:0:
419,199,48664,6,0,P|420:161|438:127,2,77.5,2|0|2,0:0|0:0|0:0,0:0:0:0:
392,278,49196,2,0,P|326:314|255:287,1,155,0|0,0:0|0:0,0:0:0:0:
226,207,49729,1,2,0:0:0:0:
281,140,49906,6,0,P|209:122|149:167,1,155,2|8,0:0|0:0,0:0:0:0:
154,254,50439,1,2,0:0:0:0:
154,254,50616,2,0,P|133:181|64:152,1,155,0|0,0:0|0:0,0:0:0:0:
7,215,51149,2,0,P|1:262|4:305,1,77.5,0|0,0:0|0:0,0:0:0:0:
46,365,51504,6,0,P|136:340|222:371,2,155,6|0|8,0:0|0:0|0:0,0:0:0:0:
2,292,52391,2,0,P|1:254|7:216,1,77.5,0|0,0:0|0:0,0:0:0:0:
64,152,52746,6,0,P|138:173|213:157,1,155,2|8,0:0|0:0,0:0:0:0:
256,82,53279,1,2,0:0:0:0:
298,157,53456,2,0,P|373:173|447:152,1,155,0|0,0:0|0:0,0:0:0:0:
511,96,53989,2,0,P|479:73|441:66,1,77.5,0|8,0:0|0:0,0:0:0:0:
447,152,54344,6,0,P|456:229|440:305,1,155,2|2,0:0|0:0,0:0:0:0:
401,383,54877,1,0,0:0:0:0:
315,371,55054,1,8,0:0:0:0:
300,286,55232,1,8,0:0:0:0:
377,245,55409,1,8,0:0:0:0:
440,304,55587,1,2,0:0:0:0:
440,304,56119,5,8,0:3:0:0:
440,304,56208,2,0,P|458:271|462:232,1,77.5,8|8,0:0|0:0,0:0:0:0:
439,196,56474,2,0,P|477:191|511:173,2,77.5,8|8|4,0:0|0:3|0:3,0:0:0:0:
372,142,57007,1,0,0:0:0:0:
372,142,57095,1,0,0:0:0:0:
372,142,57184,6,0,P|297:122|221:134,2,155,6|12|2,0:0|0:0|0:0,0:0:0:0:
439,196,58072,2,0,P|407:219|370:229,1,77.5,0|8,0:0|0:0,0:0:0:0:
285,228,58427,6,0,P|208:219|131:227,1,155,0|0,0:0|0:0,0:0:0:0:
96,304,58959,2,0,P|172:312|249:304,2,155,8|2|8,0:0|0:0|0:0,0:0:0:0:
47,235,59847,1,0,0:0:0:0:
47,235,60024,6,0,P|42:154|75:68,1,155,2|8,0:0|0:0,0:0:0:0:
112,14,60557,2,0,P|138:44|148:81,1,77.5,0|2,0:0|0:0,0:0:0:0:
152,167,60912,2,0,P|189:155|218:130,1,77.5,0|8,0:0|0:0,0:0:0:0:
234,46,61267,1,0,0:0:0:0:
234,46,61445,6,0,P|270:58|298:85,1,77.5,2|0,0:0|0:0,0:0:0:0:
378,56,61800,2,0,P|385:93|375:131,1,77.5,8|0,0:0|0:0,0:0:0:0:
441,186,62155,2,0,P|411:211|374:221,1,77.5,2|0,0:0|0:0,0:0:0:0:
360,305,62510,1,8,0:0:0:0:
295,251,62687,1,8,0:3:0:0:
295,251,62776,1,8,0:0:0:0:
295,251,62865,6,0,P|219:240|143:252,1,155,6|8,0:0|0:0,0:0:0:0:
128,335,63397,2,0,P|204:346|281:334,1,155,0|0,0:0|0:0,0:0:0:0:
360,305,63930,1,8,0:0:0:0:
359,305,64107,6,0,P|376:231|329:173,1,155,0|0,0:0|0:0,0:0:0:0:
295,251,64640,1,8,0:0:0:0:
295,251,64817,2,0,P|370:245|412:183,1,155,0|0,0:0|0:0,0:0:0:0:
444,106,65350,1,8,0:0:0:0:
382,52,65527,1,0,0:0:0:0:
311,95,65705,6,0,P|265:81|208:78,2,77.5,2|0|8,0:0|0:0|0:0,0:0:0:0:
329,173,66237,2,0,P|222:168|150:140,1,155,0|0,0:0|0:0,0:0:0:0:
128,81,66770,2,0,P|102:110|91:147,1,77.5,8|0,0:0|0:0,0:0:0:0:
41,216,67125,5,8,0:0:0:0:
77,295,67303,1,8,0:0:0:0:
162,303,67480,1,2,0:0:0:0:
211,232,67658,1,12,0:0:0:0:
246,310,67835,2,0,P|306:317|347:308,1,77.5,2|8,0:0|0:3,0:0:0:0:
390,262,68190,2,0,L|421:236,3,38.75,8|8|8|8,0:0|0:0|0:0|0:0,0:0:0:0:
391,205,68545,6,0,P|398:134|365:38,2,155,6|8|2,0:0|0:0|0:0,0:0:0:0:
311,236,69433,2,0,P|253:238|220:230,1,77.5,0|8,0:0|0:0,0:0:0:0:
186,163,69788,6,0,P|213:249|165:293,1,155,0|0,0:0|0:0,0:0:0:0:
89,286,70320,2,0,P|62:200|110:156,2,155,8|2|8,0:0|0:0|0:0,0:0:0:0:
174,289,71208,1,0,0:0:0:0:
234,234,71385,6,0,P|295:220|391:247,1,155,2|8,0:0|0:0,0:0:0:0:
440,305,71918,1,0,0:0:0:0:
466,224,72095,1,2,0:0:0:0:
466,224,72273,2,0,P|488:193|494:155,2,77.5,0|8|0,0:0|0:0|0:0,0:0:0:0:
410,161,72806,6,0,P|412:122|399:86,1,77.5,2|0,0:0|0:0,0:0:0:0:
328,133,73161,2,0,P|312:97|284:71,1,77.5,8|0,0:0|0:0,0:0:0:0:
242,149,73516,2,0,P|211:125|173:118,1,77.5,2|8,0:0|0:3,0:0:0:0:
176,206,73871,1,8,0:0:0:0:
148,288,74048,1,8,0:0:0:0:
148,288,74137,1,8,0:0:0:0:
148,288,74226,6,0,P|214:298|301:273,2,155,6|8|2,0:0|0:0|0:0,0:0:0:0:
66,260,75113,1,0,0:0:0:0:
19,187,75291,2,0,P|55:174|94:178,1,77.5,8|0,0:0|0:0,0:0:0:0:
176,206,75646,6,0,P|156:123|209:80,1,155,2|8,0:0|0:0,0:0:0:0:
285,97,76178,2,0,P|338:101|382:84,1,77.5,0|2,0:0|0:0,0:0:0:0:
439,61,76533,2,0,P|435:114|440:144,1,77.5,0|8,0:0|0:0,0:0:0:0:
478,213,76888,1,0,0:0:0:0:
478,213,77066,6,0,P|373:208|341:269,1,155,2|8,0:0|0:0,0:0:0:0:
299,309,77598,1,0,0:0:0:0:
229,260,77776,2,0,P|181:249|129:258,1,77.5,2|0,0:0|0:0,0:0:0:0:
92,310,78131,1,8,0:0:0:0:
92,310,78220,1,8,0:0:0:0:
92,310,78308,1,8,0:3:0:0:
16,271,78486,5,8,0:0:0:0:
30,187,78664,1,8,0:0:0:0:
115,174,78841,1,2,0:0:0:0:
153,250,79019,2,0,P|182:225|198:190,1,77.5,12|2,0:0|0:0,0:0:0:0:
170,108,79374,2,0,L|167:70,5,38.75,8|8|8|8|8|8,0:0|0:0|0:0|0:0|0:3|0:3,0:0:0:0:
206,86,79906,6,0,P|261:80|335:85,1,116.250004434586,14|2,0:0|0:3,0:0:0:0:
395,47,80439,2,0,P|352:103|356:208,1,174.375006651879,2|0,0:0|0:0,0:0:0:0:
328,280,81149,2,0,P|410:250|472:264,2,116.250004434586,6|4|2,0:0|0:3|0:3,0:0:0:0:
172,328,82214,2,0,P|119:333|94:330,2,58.1250022172929,2|8|2,0:0|0:0|0:3,0:0:0:0:
253,326,82746,6,0,P|283:369|293:392,2,58.1250022172929,6|2|8,0:0|0:0|0:0,0:0:0:0:
211,257,83279,2,0,P|216:190|201:108,1,116.250004434586,2|2,0:3|0:0,0:0:0:0:
47,142,83989,2,0,P|42:209|57:291,2,116.250004434586,12|8|2,0:0|0:0|0:0,0:0:0:0:
180,48,85054,1,2,0:0:0:0:
180,48,85232,1,8,0:0:0:0:
326,115,85587,6,0,P|382:126|432:98,1,116.250004434586,6|8,0:0|0:0,0:0:0:0:
370,47,86119,1,8,0:3:0:0:
284,185,86474,2,0,P|283:265|296:336,1,116.250004434586,2|0,0:0|0:0,0:0:0:0:
349,351,87007,6,0,P|264:336|171:376,1,155.3,6|8,0:0|0:0,0:0:0:0:
34,298,88172,1,2,0:0:0:0:
34,298,88600,6,0,P|61:221|50:136,1,155,6|2,0:0|0:0,0:0:0:0:
101,73,89721,1,8,0:0:0:0:
101,73,90500,6,0,P|165:91|206:82,1,77.5,6|2,0:0|0:0,0:0:0:0:
256,66,91315,1,8,0:0:0:0:
337,90,91609,1,2,0:0:0:0:
230,334,92988,6,0,B|232:301|218:261|200:281|151:257|154:183|217:150|266:186|266:186|304:148|374:175|369:238|345:266|328:245|323:304,1,434,6|2,0:0|0:0,0:0:0:0:
