osu file format v14

[General]
AudioFilename: kimisora.mp3
AudioLeadIn: 0
PreviewTime: 56385
Countdown: 0
SampleSet: Soft
StackLeniency: 0.4
Mode: 0
LetterboxInBreaks: 0
WidescreenStoryboard: 0

[Editor]
Bookmarks: 380,6060,11740,23101,34462,45823,57184,68545,79906,85587,92988,95530
DistanceSpacing: 1.5
BeatDivisor: 4
GridSize: 4
TimelineZoom: 3.9

[Metadata]
Title:Kibou no Sora
TitleUnicode:キボウのソラ
Artist:Shimotsuki Haruka
ArtistUnicode:霜月はるか
Creator:lit120
Version:Easy
Source:キミへ贈る、ソラの花
Tags:Kimi e Okuru, Sora no Hana cabbit galgame opening op short ver. -Hakurei- Lasse
BeatmapID:1349695
BeatmapSetID:636031

[Difficulty]
HPDrainRate:3
CircleSize:3
OverallDifficulty:3
ApproachRate:3
SliderMultiplier:0.9
SliderTickRate:1

[Events]
//Background and Video events
0,0,"E.jpg",0,0
//Break Periods
//Storyboard Layer 0 (Background)
//Storyboard Layer 1 (Fail)
//Storyboard Layer 2 (Pass)
//Storyboard Layer 3 (Foreground)
//Storyboard Sound Samples

[TimingPoints]
380,355.029585798817,4,2,80,30,1,0
2687,-100,4,2,81,30,0,0
3220,-100,4,2,87,30,0,0
3752,-100,4,2,80,30,0,0
4107,-100,4,2,83,30,0,0
4462,-100,4,2,88,30,0,0
4817,-100,4,2,83,30,0,0
5172,-100,4,2,82,30,0,0
5705,-100,4,2,81,30,0,0
6060,-100,4,2,1,50,0,0
8900,-100,4,2,1,60,0,0
23101,-100,4,2,81,40,0,0
24522,-100,4,2,81,40,0,0
25054,-100,4,2,91,40,0,0
25942,-100,4,2,85,40,0,0
27362,-100,4,2,81,40,0,0
27894,-100,4,2,84,40,0,0
28427,-100,4,2,82,40,0,0
28782,-100,4,2,85,40,0,0
30202,-100,4,2,93,40,0,0
30735,-100,4,2,83,40,0,0
31267,-100,4,2,91,40,0,0
31622,-100,4,2,81,40,0,0
33042,-100,4,2,94,40,0,0
33930,-100,4,2,99,40,0,0
34107,-100,4,2,1,40,0,0
34462,-100,4,2,1,50,0,0
45823,-100,4,2,1,60,0,0
57184,-100,4,2,1,60,0,1
79906,-100,4,2,99,40,0,0
80439,-100,4,2,80,40,0,0
82391,-100,4,2,81,40,0,0
82746,-100,4,2,87,40,0,0
83279,-100,4,2,80,40,0,0
83634,-100,4,2,83,40,0,0
83989,-100,4,2,88,40,0,0
84344,-100,4,2,82,40,0,0
84699,-100,4,2,81,40,0,0
85232,-100,4,2,85,40,0,0
85587,-100,4,2,86,40,0,0
87007,600,4,2,81,30,1,0
87007,-59.1715976331361,4,2,81,30,0,0
87609,563.380281690141,4,2,88,30,1,0
88172,428.571428571429,4,2,89,30,1,0
88600,674.157303370787,4,2,84,30,1,0
89274,895.522388059701,4,2,86,30,1,0
89274,-66.6666666666667,4,2,86,30,0,0
89721,779.220779220779,4,2,83,30,1,0
90500,1043.47826086957,4,2,81,30,1,0
90500,-55.5555555555556,4,2,81,30,0,0
91021,1176.47058823529,4,2,90,30,1,0
91609,1379.31034482759,4,2,86,30,1,0
92988,2926.82926829268,4,2,81,30,1,0
92988,-21.7391304347826,4,2,81,30,0,0
93353,1796.40718562874,4,2,1,30,1,0
94026,2105.26315789474,4,2,1,30,1,0
94289,2479.33884297521,4,2,1,30,1,0
94598,2985.07462686567,4,2,91,30,1,0

[Colours]
Combo1 : 177,207,140
Combo2 : 223,18,186
Combo3 : 198,221,231
Combo4 : 210,82,116

[HitObjects]
35,140,380,6,0,P|96:163|158:140,1,135,6|2,0:0|0:0,0:0:0:0:
186,54,1267,1,8,0:3:0:0:
97,73,1622,2,0,L|99:266,1,180,6|2,0:0|0:3,0:0:0:0:
182,359,2865,1,8,0:0:0:0:
230,283,3220,6,0,P|289:273|368:297,1,135,6|2,0:0|0:3,0:0:0:0:
426,353,4107,1,2,0:0:0:0:
445,266,4462,2,0,L|447:159,1,90,12|2,0:0|0:0,0:0:0:0:
469,88,5172,2,0,P|397:132|316:119,1,135,8|4,0:0|0:3,0:0:0:0:
286,62,6060,6,0,P|287:184|164:196,1,270,6|8,0:0|0:0,0:0:0:0:
221,125,7480,2,0,P|158:105|98:133,2,135,6|8|4,0:0|0:0|0:3,0:0:0:0:
287,185,8900,6,0,P|350:205|410:177,2,135,6|6|8,0:0|0:0|0:0,0:0:0:0:
221,124,10320,2,0,P|198:186|223:247,2,135,6|6|8,0:0|0:0|0:0,0:0:0:0:
286,185,11740,6,0,P|305:100|245:38,1,180,6|2,0:0|0:0,0:0:0:0:
157,59,12806,1,8,0:0:0:0:
221,125,13161,2,0,P|306:111|413:140,1,180,2|2,0:0|0:0,0:0:0:0:
461,192,14226,1,8,0:0:0:0:
396,253,14581,6,0,B|343:278|279:281|221:259|221:259|231:294|227:323|192:365,1,270,2|8,0:0|0:0,0:0:0:0:
136,288,16001,2,0,P|72:306|12:278,2,135,2|0|4,0:0|0:0|0:3,0:0:0:0:
80,217,17421,6,0,B|100:152|77:84|77:84|142:104|210:81,1,270,6|8,0:0|0:0,0:0:0:0:
289,121,18841,2,0,P|297:78|285:35,2,90,2|8|2,0:0|0:0|0:0,0:0:0:0:
214,170,19906,1,8,0:0:0:0:
294,211,20261,6,0,P|372:193|451:218,2,135,6|6|8,0:0|0:0|0:0,0:0:0:0:
219,260,21681,2,0,P|141:278|62:253,1,135,8|8,0:0|0:0,0:0:0:0:
37,192,22569,1,8,0:0:0:0:
139,104,23101,6,0,P|218:85|325:106,1,180,6|0,0:0|0:0,0:0:0:0:
467,196,24522,2,0,L|463:59,2,135,2|8|0,0:0|0:0|0:0,0:0:0:0:
485,284,25942,2,0,P|436:224|307:234,1,180,6|0,0:0|0:0,0:0:0:0:
175,292,27362,2,0,L|176:153,2,135,2|2|8,0:0|0:0|0:0,0:0:0:0:
133,371,28782,6,0,P|219:368|263:294,1,180,6|0,0:0|0:0,0:0:0:0:
288,113,30202,2,0,B|235:67|235:67|162:53,2,135,2|8|8,0:0|0:0|0:0,0:0:0:0:
251,195,31622,2,0,P|315:130|420:166,1,180,6|0,0:0|0:0,0:0:0:0:
497,291,33042,2,0,B|414:325|414:325|339:325,1,135,8|2,0:3|0:0,0:0:0:0:
282,355,33930,2,0,P|278:333|279:311,1,45,10|8,0:0|0:0,0:0:0:0:
336,241,34462,6,0,P|224:264|168:203,1,180,6|2,0:0|0:0,0:0:0:0:
149,142,35527,1,2,0:0:0:0:
208,73,35882,2,0,P|261:63|305:71,2,90,2|2|2,0:0|0:0|0:0,0:0:0:0:
149,142,36948,1,2,0:0:0:0:
108,59,37303,6,0,P|59:131|91:212,1,180,2|2,0:0|0:0,0:0:0:0:
179,227,38368,1,2,0:0:0:0:
237,157,38723,1,2,0:0:0:0:
207,73,39078,2,0,P|252:69|293:86,2,90,2|2|2,0:0|0:0|0:0,0:0:0:0:
118,62,40143,6,0,P|151:141|237:157,1,180,2|2,0:0|0:0,0:0:0:0:
293,86,41208,1,2,0:0:0:0:
381,99,41563,2,0,P|455:142|459:228,1,180,2|2,0:0|0:0,0:0:0:0:
438,315,42628,1,2,0:0:0:0:
357,275,42983,6,0,P|314:243|264:228,2,90,2|2|2,0:0|0:0|0:0,0:0:0:0:
362,365,44048,1,2,0:0:0:0:
281,325,44403,2,0,P|228:319|178:331,1,90,2|8,0:0|0:0,0:0:0:0:
107,356,45113,2,0,L|112:226,1,90,8|4,0:0|0:3,0:0:0:0:
162,192,45823,6,0,P|116:202|73:189,1,90,6|2,0:0|0:0,0:0:0:0:
61,103,46533,2,0,P|127:88|190:108,1,135,8|2,0:0|0:0,0:0:0:0:
256,169,47421,1,8,0:0:0:0:
321,108,47776,2,0,P|384:88|450:103,1,135,0|0,0:0|0:0,0:0:0:0:
443,193,48664,6,0,P|440:262|451:312,1,90,2|2,0:0|0:0,0:0:0:0:
471,368,49374,2,0,P|410:338|344:342,1,135,8|2,0:0|0:0,0:0:0:0:
256,360,50261,1,8,0:0:0:0:
167,342,50616,2,0,P|101:338|40:368,1,135,0|0,0:0|0:0,0:0:0:0:
1,287,51504,6,0,P|31:214|25:108,1,180,6|8,0:0|0:0,0:0:0:0:
59,30,52569,1,0,0:0:0:0:
143,62,52924,2,0,P|211:68|243:62,1,90,0|2,0:0|0:0,0:0:0:0:
312,23,53634,2,0,P|356:18|401:25,1,90,8|0,0:0|0:0,0:0:0:0:
458,95,54344,6,0,L|460:209,1,90,2|2,0:0|0:0,0:0:0:0:
449,274,55054,1,8,0:0:0:0:
377,220,55409,2,0,L|325:220,1,45,8|2,0:0|0:0,0:0:0:0:
138,333,56474,6,0,L|135:213,1,90,8|4,0:0|0:3,0:0:0:0:
61,189,57184,6,0,P|146:206|206:144,1,180,6|2,0:0|0:0,0:0:0:0:
256,69,58249,1,8,0:0:0:0:
305,144,58604,2,0,P|365:206|450:189,1,180,2|2,0:0|0:0,0:0:0:0:
481,105,59669,1,8,0:0:0:0:
419,38,60024,6,0,P|395:76|392:120,2,90,2|8|2,0:0|0:0|0:0,0:0:0:0:
481,105,61090,1,8,0:0:0:0:
450,189,61445,2,0,P|445:234|450:279,1,90,2|8,0:0|0:0,0:0:0:0:
499,354,62155,1,2,0:0:0:0:
409,353,62510,1,8,0:0:0:0:
321,371,62865,6,0,P|212:373|120:335,1,180,6|2,0:0|0:0,0:0:0:0:
101,272,63930,1,8,0:0:0:0:
108,180,64285,2,0,P|167:210|191:272,2,135,2|0|8,0:0|0:0|0:0,0:0:0:0:
26,219,65705,6,0,L|30:66,2,135,2|0|8,0:0|0:0|0:0,0:0:0:0:
23,311,67125,2,0,P|66:300|100:272,1,90,8|2,0:0|0:0,0:0:0:0:
166,209,67835,1,2,0:0:0:0:
254,237,68190,1,8,0:0:0:0:
274,324,68545,6,0,P|337:266|323:180,1,180,6|2,0:0|0:0,0:0:0:0:
239,149,69610,1,8,0:0:0:0:
254,237,69965,2,0,P|335:269|404:218,1,180,2|2,0:0|0:0,0:0:0:0:
396,128,71030,1,8,0:0:0:0:
313,89,71385,6,0,P|342:54|383:37,2,90,2|8|2,0:0|0:0|0:0,0:0:0:0:
322,179,72451,1,8,0:0:0:0:
403,217,72806,2,0,P|445:201|475:168,1,90,2|8,0:0|0:0,0:0:0:0:
396,128,73516,1,2,0:0:0:0:
322,179,73871,1,8,0:0:0:0:
330,268,74226,6,0,P|253:196|161:230,1,180,6|2,0:0|0:0,0:0:0:0:
119,267,75291,1,8,0:0:0:0:
34,238,75646,2,0,B|33:148|33:148|54:103,1,135,2|0,0:0|0:0,0:0:0:0:
121,49,76533,1,0,0:0:0:0:
178,117,76888,6,0,P|248:129|342:108,1,135,0|8,0:0|0:0,0:0:0:0:
381,62,77776,2,0,P|399:102|394:155,1,90,2|8,0:0|0:0,0:0:0:0:
330,206,78486,2,0,P|420:203|456:249,1,135,8|12,0:0|0:0,0:0:0:0:
423,317,79374,2,0,L|343:324,1,45,8|8,0:0|0:0,0:0:0:0:
290,340,79906,6,0,P|211:317|141:336,1,135,14|2,0:0|0:0,0:0:0:0:
85,376,80794,1,0,0:0:0:0:
4,333,81149,2,0,B|11:208|11:208|76:154,1,180,6|2,0:0|0:3,0:0:0:0:
178,122,82391,1,8,0:0:0:0:
239,186,82746,6,0,P|266:125|244:62,1,135,6|2,0:0|0:3,0:0:0:0:
178,122,83634,1,2,0:0:0:0:
154,208,83989,2,0,P|175:246|213:271,1,90,12|8,0:0|0:0,0:0:0:0:
298,248,84699,2,0,P|361:225|421:251,1,135,2|8,0:0|0:0,0:0:0:0:
359,317,85587,6,0,B|334:219|366:140|366:140|324:162|274:143,1,270,6|0,0:0|0:0,0:0:0:0:
193,117,87007,2,0,P|146:112|64:183,1,152.100002843056,6|8,0:0|0:0,0:0:0:0:
178,346,88600,5,6,0:0:0:0:
250,275,89274,2,0,P|288:264|346:273,1,67.5000025749208,2|8,0:0|0:0,0:0:0:0:
461,325,90500,6,0,L|463:223,1,80.9999975280763,6|2,0:0|0:0,0:0:0:0:
437,152,91609,1,2,0:0:0:0:
225,97,92988,6,0,B|184:13|55:70|47:200|180:192|218:224|216:293,1,359.5,6|2,0:0|0:0,0:0:0:0:
