osu file format v14

[General]
AudioFilename: kimisora.mp3
AudioLeadIn: 0
PreviewTime: 56385
Countdown: 0
SampleSet: Soft
StackLeniency: 0.4
Mode: 0
LetterboxInBreaks: 0
WidescreenStoryboard: 0

[Editor]
Bookmarks: 380,6060,11740,23101,34462,45823,57184,68545,79906,85587,92988,95530
DistanceSpacing: 1
BeatDivisor: 2
GridSize: 4
TimelineZoom: 2.6

[Metadata]
Title:Kibou no Sora
TitleUnicode:キボウのソラ
Artist:Shimotsuki Haruka
ArtistUnicode:霜月はるか
Creator:lit120
Version:Normal
Source:キミへ贈る、ソラの花
Tags:Kimi e Okuru, Sora no Hana cabbit galgame opening op short ver. -Hakurei- Lasse
BeatmapID:1349700
BeatmapSetID:636031

[Difficulty]
HPDrainRate:5
CircleSize:3
OverallDifficulty:5
ApproachRate:5
SliderMultiplier:1.06
SliderTickRate:1

[Events]
//Background and Video events
0,0,"N.jpg",0,0
//Break Periods
//Storyboard Layer 0 (Background)
//Storyboard Layer 1 (Fail)
//Storyboard Layer 2 (Pass)
//Storyboard Layer 3 (Foreground)
//Storyboard Sound Samples

[TimingPoints]
380,355.029585798817,4,2,80,30,1,0
2687,-100,4,2,81,30,0,0
3220,-100,4,2,87,30,0,0
3575,-100,4,2,82,30,0,0
3752,-100,4,2,80,30,0,0
4107,-100,4,2,83,30,0,0
4462,-100,4,2,88,30,0,0
4817,-100,4,2,83,30,0,0
4995,-100,4,2,81,30,0,0
5172,-100,4,2,82,30,0,0
5261,-100,4,2,81,30,0,0
5350,-100,4,2,82,30,0,0
5527,-100,4,2,81,30,0,0
6060,-100,4,2,1,50,0,0
8900,-100,4,2,1,60,0,0
23101,-100,4,2,81,40,0,0
23989,-100,4,2,85,40,0,0
24522,-100,4,2,81,40,0,0
25054,-100,4,2,91,40,0,0
25409,-100,4,2,81,40,0,0
25942,-100,4,2,85,40,0,0
26829,-100,4,2,92,40,0,0
27184,-100,4,2,92,40,0,0
27362,-100,4,2,81,40,0,0
28427,-100,4,2,82,40,0,0
28782,-100,4,2,85,40,0,0
30557,-100,4,2,92,40,0,0
30735,-100,4,2,83,40,0,0
31267,-100,4,2,91,40,0,0
31622,-100,4,2,81,40,0,0
32510,-100,4,2,90,40,0,0
33042,-100,4,2,94,40,0,0
33930,-100,4,2,99,40,0,0
34107,-100,4,2,1,40,0,0
34462,-100,4,2,1,50,0,0
45823,-100,4,2,1,60,0,0
57184,-100,4,2,1,60,0,1
79906,-100,4,2,99,40,0,0
80261,-100,4,2,80,40,0,0
82214,-100,4,2,81,40,0,0
82746,-100,4,2,87,40,0,0
83101,-100,4,2,82,40,0,0
83279,-100,4,2,80,40,0,0
83634,-100,4,2,83,40,0,0
83989,-100,4,2,88,40,0,0
84344,-100,4,2,82,40,0,0
84699,-100,4,2,81,40,0,0
85054,-100,4,2,85,40,0,0
85587,-100,4,2,86,40,0,0
85942,-100,4,2,85,40,0,0
86474,-100,4,2,86,40,0,0
87007,600,4,2,81,30,1,0
87609,563.380281690141,4,2,88,30,1,0
88172,428.571428571429,4,2,89,30,1,0
88600,674.157303370787,4,2,84,30,1,0
89274,895.522388059701,4,2,86,30,1,0
89721,779.220779220779,4,2,83,30,1,0
90500,1043.47826086957,4,2,81,30,1,0
90500,-76.9230769230769,4,2,81,30,0,0
91021,1176.47058823529,4,2,90,30,1,0
91609,1379.31034482759,4,2,86,30,1,0
92988,2926.82926829268,4,2,81,30,1,0
92988,-24.2130750605327,4,2,81,30,0,0
93353,1796.40718562874,4,2,1,30,1,0
94026,2105.26315789474,4,2,1,30,1,0
94289,2479.33884297521,4,2,1,30,1,0
94598,2985.07462686567,4,2,91,30,1,0

[Colours]
Combo1 : 183,110,160
Combo2 : 242,125,177
Combo3 : 110,202,210
Combo4 : 254,218,182

[HitObjects]
57,88,380,6,0,L|178:95,1,106,6|2,0:0|0:3,0:0:0:0:
206,124,912,2,0,L|327:131,1,106,2|8,0:0|0:3,0:0:0:0:
408,86,1622,2,0,P|356:147|347:242,1,159,6|0,0:0|0:0,0:0:0:0:
354,274,2332,1,2,0:3:0:0:
412,362,2687,2,0,L|482:361,2,53,2|8|2,0:0|0:0|0:3,0:0:0:0:
359,367,3220,6,0,L|253:368,1,106,6|8,0:0|0:0,0:0:0:0:
200,373,3752,2,0,L|94:374,1,106,2|2,0:3|0:0,0:0:0:0:
67,271,4462,2,0,L|172:272,1,106,12|2,0:0|0:0,0:0:0:0:
224,284,4995,1,8,0:0:0:0:
224,284,5172,2,0,P|202:193|212:137,1,106,8|2,0:0|0:0,0:0:0:0:
213,129,5705,1,4,0:3:0:0:
293,60,6060,6,0,B|366:92|448:63|448:63|416:136|445:218,1,318,6|8,0:0|0:0,0:0:0:0:
464,267,7303,1,8,0:3:0:0:
464,267,7480,2,0,P|403:257|307:302,1,159,6|8,0:0|0:0,0:0:0:0:
236,365,8368,1,8,0:3:0:0:
236,365,8545,1,4,0:3:0:0:
164,285,8900,6,0,P|173:210|161:153,1,106,6|8,0:0|0:0,0:0:0:0:
147,131,9433,2,0,P|222:140|279:128,1,106,6|2,0:0|0:0,0:0:0:0:
304,129,9965,1,8,0:0:0:0:
366,43,10320,2,0,L|442:45,2,53,6|2|8,0:0|0:0|0:0,0:0:0:0:
312,43,10853,2,0,L|206:40,1,106,6|8,0:0|0:3,0:0:0:0:
152,40,11385,1,8,0:0:0:0:
64,100,11740,6,0,P|55:171|67:221,1,106,6|8,0:0|0:0,0:0:0:0:
139,276,12451,2,0,L|252:259,1,106,2|8,0:0|0:0,0:0:0:0:
294,275,12983,1,0,0:0:0:0:
294,275,13161,2,0,L|407:258,1,106,2|8,0:0|0:0,0:0:0:0:
437,160,13871,1,2,0:0:0:0:
333,176,14226,1,8,0:0:0:0:
294,275,14581,6,0,P|293:350|301:381,2,106,2|8|2,0:0|0:0|0:0,0:0:0:0:
333,176,15646,1,8,0:0:0:0:
266,93,16001,2,0,P|214:83|162:94,1,106,2|8,0:0|0:0,0:0:0:0:
124,194,16711,2,0,P|176:203|228:193,1,106,2|4,0:0|0:3,0:0:0:0:
266,93,17421,6,0,P|317:102|369:91,1,106,6|8,0:0|0:0,0:0:0:0:
402,50,17953,2,0,P|409:102|435:147,1,106,0|0,0:0|0:0,0:0:0:0:
484,166,18486,2,0,P|436:189|401:228,1,106,8|2,0:0|0:0,0:0:0:0:
399,280,19019,2,0,P|362:242|314:220,1,106
265,236,19551,1,2,0:0:0:0:
196,317,19906,1,8,0:0:0:0:
115,248,20261,6,0,P|121:195|107:107,1,106,6|8,0:0|0:0,0:0:0:0:
84,100,20794,2,0,P|137:106|225:92,1,106,6|8,0:0|0:3,0:0:0:0:
241,93,21326,1,8,0:0:0:0:
343,67,21681,2,0,L|411:39,2,53,8|8|8,0:0|0:0|0:0,0:0:0:0:
326,117,22214,1,8,0:0:0:0:
312,222,22569,1,8,0:0:0:0:
429,329,23101,6,0,P|347:306|244:327,1,159,6|0,0:0|0:0,0:0:0:0:
227,338,23811,1,0,0:0:0:0:
130,382,24166,1,8,0:3:0:0:
86,284,24522,2,0,P|92:236|87:154,1,106,2|0,0:0|0:0,0:0:0:0:
59,136,25054,2,0,P|107:141|189:136,1,106,8|2,0:0|0:0,0:0:0:0:
216,129,25587,1,0,0:0:0:0:
307,74,25942,6,0,L|327:24,2,53,6|0|0,0:0|0:0|0:0,0:0:0:0:
309,180,26652,1,0,0:0:0:0:
309,180,26829,2,0,L|306:293,1,106,2|8,0:0|0:0,0:0:0:0:
300,338,27362,1,2,0:0:0:0:
204,291,27717,2,0,P|121:284|87:293,2,106,0|0|8,0:0|0:0|0:0,0:0:0:0:
300,338,28782,6,0,P|376:344|465:270,1,159,6|0,0:0|0:0,0:0:0:0:
458,251,29492,2,0,L|506:230,2,53,0|0|0,0:0|0:0|0:0,0:0:0:0:
431,205,30024,2,0,P|360:170|282:178,1,159,0|8,0:0|0:0,0:0:0:0:
229,178,30735,2,0,P|151:170|80:205,1,159,8|8,0:0|0:0,0:0:0:0:
45,304,31622,6,0,L|-3:340,2,53,6|0|0,0:0|0:0|0:0,0:0:0:0:
96,291,32155,2,0,P|157:357|241:327,1,159,0|8,0:0|0:0,0:0:0:0:
298,277,33042,2,0,L|368:291,2,53,8|2|4,0:3|0:3|0:3,0:0:0:0:
248,258,33575,1,2,0:0:0:0:
170,185,33930,1,10,0:0:0:0:
170,185,34107,1,8,0:0:0:0:
272,153,34462,6,0,L|342:167,2,53,6|0|2,0:0|0:0|0:0,0:0:0:0:
194,81,35172,2,0,L|124:95,2,53,2|0|2,0:0|0:0|0:0,0:0:0:0:
246,71,35705,2,0,L|367:71,1,106
401,53,36237,1,2,0:0:0:0:
401,53,36415,2,0,P|397:122|440:214,1,159,0|2,0:0|0:0,0:0:0:0:
500,284,37303,5,2,0:0:0:0:
419,352,37658,1,2,0:0:0:0:
352,273,38013,1,2,0:0:0:0:
352,273,38190,2,0,L|208:273,1,106,0|0,0:0|0:0,0:0:0:0:
194,283,38723,1,2,0:0:0:0:
157,382,39078,1,2,0:0:0:0:
51,377,39433,1,2,0:0:0:0:
22,275,39788,1,2,0:0:0:0:
111,218,40143,6,0,P|126:167|121:114,1,106,2|2,0:0|0:0,0:0:0:0:
27,65,40853,2,0,P|12:116|18:169,1,106,2|2,0:0|0:0,0:0:0:0:
111,218,41563,2,0,L|220:214,1,106,2|2,0:0|0:0,0:0:0:0:
265,237,42095,2,0,P|298:175|347:160,1,106,0|0,0:0|0:0,0:0:0:0:
380,154,42628,1,2,0:0:0:0:
473,203,42983,6,0,L|478:333,1,106,2|2,0:0|0:0,0:0:0:0:
499,357,43516,2,0,P|441:336|377:341,1,106,0|0,0:0|0:0,0:0:0:0:
295,364,44226,1,0,0:0:0:0:
295,364,44403,2,0,L|181:362,1,106,2|8,0:0|0:0,0:0:0:0:
136,352,44936,1,0,0:0:0:0:
136,352,45113,2,0,P|116:266|130:203,1,106,8|4,0:0|0:3,0:0:0:0:
155,150,45823,5,6,0:0:0:0:
254,187,46178,1,2,0:0:0:0:
292,88,46533,2,0,L|282:12,2,53,8|0|2,0:0|0:0|0:0,0:0:0:0:
323,130,47066,2,0,P|404:139|447:122,1,106,2|8,0:0|0:0,0:0:0:0:
473,109,47598,1,2,0:0:0:0:
473,109,47776,2,0,P|428:193|426:289,1,159,0|0,0:0|0:0,0:0:0:0:
469,350,48664,6,0,L|510:317,2,53,2|0|2,0:0|0:0|0:0,0:0:0:0:
417,362,49196,1,0,0:0:0:0:
417,362,49374,2,0,L|293:359,1,106,8|2,0:0|0:0,0:0:0:0:
259,371,49906,2,0,L|135:368,1,106,2|8,0:0|0:0,0:0:0:0:
101,380,50439,1,2,0:0:0:0:
101,380,50616,2,0,P|133:298|126:228,1,159,0|0,0:0|0:0,0:0:0:0:
50,152,51504,6,0,P|96:125|148:123,1,106,6|0,0:0|0:0,0:0:0:0:
229,196,52214,2,0,L|231:261,2,53,8|0|0,0:0|0:0|0:0,0:0:0:0:
264,155,52746,2,0,P|313:137|366:136,1,106,2|8,0:0|0:0,0:0:0:0:
417,151,53279,1,2,0:0:0:0:
417,151,53456,2,0,P|435:226|418:330,1,159,0|0,0:0|0:0,0:0:0:0:
341,370,54344,5,2,0:0:0:0:
255,309,54699,1,2,0:0:0:0:
286,208,55054,2,0,L|298:143,2,53,8|8|8,0:0|0:0|0:0,0:0:0:0:
324,244,55587,1,2,0:0:0:0:
67,309,56474,6,0,L|66:168,1,106,8|4,0:0|0:3,0:0:0:0:
37,100,57184,6,0,P|98:119|190:115,1,106,6|12,0:0|0:0,0:0:0:0:
235,77,57894,2,0,L|235:22,2,53,2|0|8,0:0|0:0|0:0,0:0:0:0:
267,118,58427,2,0,P|333:123|386:105,1,106
415,84,58959,2,0,P|410:150|428:203,1,106,8|2,0:0|0:0,0:0:0:0:
485,271,59669,1,8,0:0:0:0:
381,286,60024,6,0,L|233:287,1,106,2|8,0:0|0:0,0:0:0:0:
224,300,60557,2,0,L|118:300,2,106,0|0|0,0:0|0:0|0:0,0:0:0:0:
237,247,61445,1,2,0:0:0:0:
294,156,61800,1,8,0:0:0:0:
226,74,62155,1,2,0:0:0:0:
127,113,62510,1,8,0:0:0:0:
133,219,62865,6,0,P|82:208|41:175,1,106,6|8,0:0|0:0,0:0:0:0:
29,70,63575,2,0,L|30:7,2,53,2|0|8,0:0|0:0|0:0,0:0:0:0:
78,92,64107,2,0,P|129:102|182:98,1,106
226,74,64640,1,8,0:0:0:0:
226,74,64817,2,0,L|341:75,1,106,0|0,0:0|0:0,0:0:0:0:
383,86,65350,1,8,0:0:0:0:
457,161,65705,6,0,L|510:161,2,53,2|0|8,0:0|0:0|0:0,0:0:0:0:
416,194,66237,2,0,P|356:226|283:233,1,106,0|0,0:0|0:0,0:0:0:0:
266,230,66770,1,8,0:0:0:0:
169,185,67125,2,0,L|152:123,2,53,8|8|2,0:0|0:0|0:0,0:0:0:0:
179,237,67658,1,12,0:0:0:0:
179,237,67835,2,0,P|183:308|136:370,1,106,2|8,0:0|0:0,0:0:0:0:
116,346,68368,1,8,0:0:0:0:
116,346,68545,6,0,P|62:298|52:221,1,106,6|8,0:0|0:0,0:0:0:0:
53,161,69255,2,0,L|0:164,2,53,2|0|8,0:0|0:0|0:0,0:0:0:0:
92,125,69788,2,0,P|177:102|224:108,1,106
244,118,70320,1,8,0:0:0:0:
346,145,70675,2,0,P|398:141|447:122,1,106,2|8,0:0|0:0,0:0:0:0:
483,82,71208,1,0,0:0:0:0:
483,82,71385,6,0,L|500:226,1,106,2|8,0:0|0:0,0:0:0:0:
509,290,72095,1,2,0:0:0:0:
509,290,72273,2,0,P|449:272|391:278,1,106,0|0,0:0|0:0,0:0:0:0:
353,282,72806,1,2,0:0:0:0:
278,356,73161,1,8,0:0:0:0:
184,307,73516,1,2,0:0:0:0:
201,203,73871,1,8,0:0:0:0:
305,186,74226,6,0,P|282:138|242:105,1,106,6|8,0:0|0:0,0:0:0:0:
136,118,74936,2,0,P|104:159|95:211,1,106,2|8,0:0|0:0,0:0:0:0:
156,299,75646,2,0,L|270:288,1,106,2|8,0:0|0:0,0:0:0:0:
308,312,76178,2,0,L|422:301,2,106,0|0|0,0:0|0:0|0:0,0:0:0:0:
302,259,77066,5,2,0:0:0:0:
338,159,77421,1,8,0:0:0:0:
439,194,77776,2,0,P|442:142|422:93,1,106,2|8,0:0|0:0,0:0:0:0:
379,63,78308,1,8,0:3:0:0:
379,63,78486,2,0,L|382:2,2,53,8|8|2,0:0|0:0|0:0,0:0:0:0:
327,76,79019,1,12,0:0:0:0:
222,55,79374,1,8,0:0:0:0:
222,55,79551,1,8,0:0:0:0:
119,30,79906,6,0,P|91:67|74:125,1,106,14|2,0:0|0:3,0:0:0:0:
43,166,80439,2,0,P|110:158|153:255,1,159,2|0,0:0|0:0,0:0:0:0:
140,277,81149,2,0,L|30:284,2,106,6|4|2,0:0|0:3|0:3,0:0:0:0:
242,305,82214,2,0,L|245:373,2,53,2|8|2,0:0|0:0|0:3,0:0:0:0:
262,256,82746,6,0,L|375:248,1,106,6|8,0:0|0:0,0:0:0:0:
411,278,83279,2,0,P|396:212|415:134,1,106,2|2,0:3|0:0,0:0:0:0:
485,112,83989,2,0,P|500:178|481:256,2,106,12|8|2,0:0|0:0|0:0,0:0:0:0:
397,51,85054,1,2,0:0:0:0:
397,51,85232,1,8,0:0:0:0:
301,97,85587,6,0,P|226:108|181:91,1,106,6|8,0:0|0:0,0:0:0:0:
151,74,86119,2,0,P|162:149|145:194,1,106,8|2,0:3|0:0,0:0:0:0:
110,265,87007,6,0,L|231:262,1,106.3,6|8,0:0|0:0,0:0:0:0:
341,326,88600,5,6,0:0:0:0:
381,248,89274,2,0,L|376:173,1,53,2|8,0:0|0:0,0:0:0:0:
407,60,90500,6,0,P|361:81|314:84,1,68.8999968460084,6|2,0:0|0:0,0:0:0:0:
250,68,91609,1,2,0:0:0:0:
88,268,92988,6,0,B|90:190|-31:183|-39:108|9:-2|103:5|140:117,1,380.3,6|2,0:0|0:0,0:0:0:0:
