osu file format v14

[General]
AudioFilename: kimisora.mp3
AudioLeadIn: 0
PreviewTime: 56385
Countdown: 0
SampleSet: Soft
StackLeniency: 0.4
Mode: 0
LetterboxInBreaks: 0
WidescreenStoryboard: 0

[Editor]
Bookmarks: 380,6060,11740,23101,34462,45823,57184,68545,79906,85587,92988,95530
DistanceSpacing: 1
BeatDivisor: 4
GridSize: 4
TimelineZoom: 2.2

[Metadata]
Title:Kibou no Sora
TitleUnicode:キボウのソラ
Artist:Shimotsuki Haruka
ArtistUnicode:霜月はるか
Creator:lit120
Version:Insane
Source:キミへ贈る、ソラの花
Tags:Kimi e Okuru, Sora no Hana cabbit galgame opening op short ver. -Hakurei- Lasse
BeatmapID:1349699
BeatmapSetID:636031

[Difficulty]
HPDrainRate:6
CircleSize:4
OverallDifficulty:7
ApproachRate:8.5
SliderMultiplier:1.64
SliderTickRate:1

[Events]
//Background and Video events
0,0,"I.jpg",0,0
//Break Periods
//Storyboard Layer 0 (Background)
//Storyboard Layer 1 (Fail)
//Storyboard Layer 2 (Pass)
//Storyboard Layer 3 (Foreground)
//Storyboard Sound Samples

[TimingPoints]
380,355.029585798817,4,2,80,30,1,0
380,-166.666666666667,4,2,80,30,0,0
2687,-166.666666666667,4,2,81,30,0,0
3220,-166.666666666667,4,2,87,30,0,0
3397,-166.666666666667,4,2,81,30,0,0
3575,-166.666666666667,4,2,82,30,0,0
3752,-166.666666666667,4,2,80,30,0,0
4107,-166.666666666667,4,2,83,30,0,0
4462,-166.666666666667,4,2,88,30,0,0
4817,-166.666666666667,4,2,83,30,0,0
4995,-166.666666666667,4,2,81,30,0,0
5172,-166.666666666667,4,2,82,30,0,0
5261,-166.666666666667,4,2,81,30,0,0
5527,-166.666666666667,4,2,81,30,0,0
6060,-133.333333333333,4,2,1,50,0,0
8900,-100,4,2,1,60,0,0
23101,-166.666666666667,4,2,81,40,0,0
23989,-166.666666666667,4,2,85,40,0,0
24522,-166.666666666667,4,2,81,40,0,0
25054,-166.666666666667,4,2,91,40,0,0
25409,-166.666666666667,4,2,81,40,0,0
25942,-166.666666666667,4,2,85,40,0,0
26829,-166.666666666667,4,2,92,40,0,0
27007,-166.666666666667,4,2,85,40,0,0
27184,-166.666666666667,4,2,92,40,0,0
27362,-166.666666666667,4,2,81,40,0,0
27894,-166.666666666667,4,2,84,40,0,0
28427,-166.666666666667,4,2,82,40,0,0
28604,-166.666666666667,4,2,81,40,0,0
28782,-166.666666666667,4,2,85,40,0,0
30380,-166.666666666667,4,2,85,40,0,0
30557,-166.666666666667,4,2,92,40,0,0
30735,-166.666666666667,4,2,83,40,0,0
31090,-166.666666666667,4,2,85,40,0,0
31267,-166.666666666667,4,2,91,40,0,0
31622,-166.666666666667,4,2,81,40,0,0
32510,-166.666666666667,4,2,90,40,0,0
32865,-166.666666666667,4,2,81,40,0,0
33042,-166.666666666667,4,2,94,40,0,0
33930,-166.666666666667,4,2,99,40,0,0
34107,-166.666666666667,4,2,1,40,0,0
34462,-100,4,2,1,50,0,0
45823,-100,4,2,1,60,0,0
57184,-90.9090909090909,4,2,1,60,0,1
79906,-166.666666666667,4,2,99,40,0,0
80261,-166.666666666667,4,2,80,40,0,0
82214,-166.666666666667,4,2,81,40,0,0
82746,-166.666666666667,4,2,87,40,0,0
82924,-166.666666666667,4,2,81,40,0,0
83101,-166.666666666667,4,2,82,40,0,0
83279,-166.666666666667,4,2,80,40,0,0
83634,-166.666666666667,4,2,83,40,0,0
83989,-166.666666666667,4,2,88,40,0,0
84344,-166.666666666667,4,2,82,40,0,0
84433,-166.666666666667,4,2,81,40,0,0
84522,-166.666666666667,4,2,82,40,0,0
84699,-166.666666666667,4,2,81,40,0,0
85054,-166.666666666667,4,2,85,40,0,0
85587,-166.666666666667,4,2,86,40,0,0
85942,-166.666666666667,4,2,85,40,0,0
86474,-166.666666666667,4,2,86,40,0,0
87007,600,4,2,81,30,1,0
87609,563.380281690141,4,2,88,30,1,0
87609,-125,4,2,88,30,0,0
88172,428.571428571429,4,2,89,30,1,0
88600,674.157303370787,4,2,84,30,1,0
89274,895.522388059701,4,2,86,30,1,0
89721,779.220779220779,4,2,83,30,1,0
90500,1043.47826086957,4,2,81,30,1,0
91021,1176.47058823529,4,2,90,30,1,0
91315,-100,4,2,83,30,0,0
91609,1379.31034482759,4,2,86,30,1,0
92988,2926.82926829268,4,2,81,30,1,0
92988,-41.8410041841004,4,2,81,30,0,0
93353,1796.40718562874,4,2,1,30,1,0
94026,2105.26315789474,4,2,1,30,1,0
94289,2479.33884297521,4,2,1,30,1,0
94598,2985.07462686567,4,2,91,30,1,0

[Colours]
Combo1 : 143,182,225
Combo2 : 247,143,189
Combo3 : 158,149,201
Combo4 : 206,178,165

[HitObjects]
139,109,380,6,0,P|140:85|137:61,2,49.1999984985352,6|8|2,0:0|0:3|0:3,0:0:0:0:
68,86,912,2,0,P|68:135|98:173,1,98.3999969970704,2|8,0:0|0:3,0:0:0:0:
173,174,1445,1,2,0:3:0:0:
59,236,1622,1,6,0:0:0:0:
59,236,1948,6,0,L|35:223,3,16.3999994995117,4|2|4|8,0:3|0:0|0:3|0:0,0:0:0:0:
170,305,2332,1,2,0:3:0:0:
170,305,2687,5,2,0:0:0:0:
134,239,2865,1,8,0:0:0:0:
173,174,3042,1,2,0:3:0:0:
94,304,3220,6,0,P|62:311|36:310,2,49.1999984985352,6|2|8,0:0|0:0|0:0,0:0:0:0:
208,240,3752,2,0,P|257:231|306:234,1,98.3999969970704,2|2,0:3|0:0,0:0:0:0:
473,376,4462,6,0,P|441:339|420:295,1,98.3999969970704,12|2,0:0|0:0,0:0:0:0:
380,232,4995,1,8,0:0:0:0:
414,166,5172,1,8,0:0:0:0:
414,166,5261,1,8,0:0:0:0:
346,297,5527,5,2,0:0:0:0:
306,234,5705,1,4,0:3:0:0:
306,233,6060,6,0,P|272:282|286:341,2,123.000004692078,6|0|0,0:0|0:0|0:0,0:0:0:0:
346,297,6948,1,0,0:0:0:0:
414,166,7125,1,8,0:0:0:0:
266,171,7303,1,8,0:3:0:0:
417,252,7480,6,0,P|472:227|499:173,1,123.000004692078,6|0,0:0|0:0,0:0:0:0:
414,166,8013,1,8,0:0:0:0:
256,284,8368,1,8,0:3:0:0:
256,284,8545,1,4,0:3:0:0:
97,166,8900,6,0,P|80:244|127:309,1,164,6|8,0:0|0:0,0:0:0:0:
256,284,9433,2,0,P|273:206|226:141,1,164,6|2,0:0|0:0,0:0:0:0:
176,225,9965,1,8,0:0:0:0:
176,225,10320,5,6,0:0:0:0:
226,141,10498,1,2,0:0:0:0:
97,166,10675,1,8,0:0:0:0:
272,205,10853,2,0,P|303:133|260:68,1,164,6|8,0:0|0:3,0:0:0:0:
147,82,11385,1,8,0:0:0:0:
147,82,11474,1,8,0:0:0:0:
147,82,11563,1,8,0:3:0:0:
272,205,11740,6,0,P|337:217|440:191,2,164,6|8|2,0:0|0:0|0:0,0:0:0:0:
226,141,12628,2,0,P|262:128|319:143,1,82,0|8,0:0|0:0,0:0:0:0:
192,213,12983,6,0,P|146:150|176:77,1,164,0|0,0:0|0:0,0:0:0:0:
304,133,13516,2,0,P|266:147|227:141,1,82,8|0,0:0|0:0,0:0:0:0:
130,14,13871,2,0,P|161:39|176:78,1,82,2|0,0:0|0:0,0:0:0:0:
115,223,14226,2,0,P|121:182|147:151,1,82,8|0,0:0|0:0,0:0:0:0:
303,133,14581,6,0,P|381:151|447:105,2,164,2|8|2,0:0|0:0|0:0,0:0:0:0:
364,56,15468,1,0,0:0:0:0:
398,246,15646,2,0,L|399:327,1,82,8|0,0:0|0:0,0:0:0:0:
305,214,16001,5,2,0:0:0:0:
305,214,16178,2,0,L|304:133,1,82,0|8,0:0|0:0,0:0:0:0:
274,307,16533,1,0,0:0:0:0:
274,307,16622,1,8,0:0:0:0:
274,307,16711,2,0,P|218:272|189:268,1,82,2|8,0:0|0:3,0:0:0:0:
104,206,17066,5,4,0:3:0:0:
123,201,17154,1,8,0:0:0:0:
142,193,17243,1,8,0:3:0:0:
159,182,17332,1,8,0:0:0:0:
174,168,17421,6,0,P|187:89|138:25,1,164,6|8,0:0|0:0,0:0:0:0:
93,113,17953,2,0,P|174:121|255:113,1,164,0|0,0:0|0:0,0:0:0:0:
419,113,18486,6,0,P|337:121|256:113,1,164,8|2,0:0|0:0,0:0:0:0:
373,25,19018,2,0,P|324:89|337:168,1,164,0|0,0:0|0:0,0:0:0:0:
426,212,19551,5,2,0:0:0:0:
419,113,19729,1,0,0:0:0:0:
344,268,19906,1,8,0:0:0:0:
344,268,19995,1,8,0:0:0:0:
344,268,20084,1,8,0:3:0:0:
246,124,20261,6,0,P|206:117|166:125,1,82,6|0,0:0|0:0,0:0:0:0:
95,282,20616,1,8,0:0:0:0:
96,86,20794,2,0,P|135:99|166:126,1,82,6|0,0:0|0:0,0:0:0:0:
220,275,21149,1,8,0:3:0:0:
336,168,21326,1,8,0:0:0:0:
96,184,21504,1,12,0:0:0:0:
344,268,21681,5,8,0:0:0:0:
166,125,21859,1,8,0:0:0:0:
389,119,22036,1,8,0:0:0:0:
220,275,22214,1,8,0:0:0:0:
220,274,22569,6,0,P|279:226|344:267,1,164,8|0,0:0|0:0,0:0:0:0:
386,293,23013,1,0,0:0:0:0:
386,293,23101,6,0,L|394:186,1,98.3999969970704,6|0,0:0|0:0,0:0:0:0:
401,121,23634,1,0,0:0:0:0:
401,121,23811,2,0,L|405:67,2,49.1999984985352,0|8|8,0:0|0:0|0:3,0:0:0:0:
333,152,24344,6,0,P|300:155|271:150,1,49.1999984985352,2|2,0:0|0:0,0:0:0:0:
242,92,24699,2,0,P|208:89|179:94,1,49.1999984985352,0|0,0:0|0:0,0:0:0:0:
127,57,25054,2,0,P|152:119|140:164,1,98.3999969970704,8|2,0:0|0:0,0:0:0:0:
111,213,25587,1,0,0:0:0:0:
111,213,25942,5,6,0:0:0:0:
74,150,26119,1,0,0:0:0:0:
147,148,26297,2,0,P|169:168|187:206,1,49.1999984985352,0|0,0:0|0:0,0:0:0:0:
170,258,26652,1,0,0:0:0:0:
170,258,26829,2,0,P|151:273|129:284,2,49.1999984985352,2|8|8,0:0|0:0|0:0,0:0:0:0:
239,229,27362,1,2,0:0:0:0:
238,229,27717,6,0,P|263:228|287:233,1,49.1999984985352,0|2,0:0|0:0,0:0:0:0:
346,340,28072,2,0,P|334:319|327:296,1,49.1999984985352,0|0,0:0|0:0,0:0:0:0:
389,191,28427,1,8,0:0:0:0:
454,159,28604,1,2,0:0:0:0:
454,159,28693,1,0,0:0:0:0:
454,159,28782,6,0,P|458:207|433:248,1,98.3999969970704,6|0,0:0|0:0,0:0:0:0:
389,191,29314,1,0,0:0:0:0:
328,151,29492,2,0,P|288:152|260:147,2,49.1999984985352,0|0|0,0:0|0:0|0:0,0:0:0:0:
393,118,30024,6,0,P|370:75|326:55,1,98.3999969970704,0|8,0:0|0:0,0:0:0:0:
256,78,30557,1,8,0:0:0:0:
185,55,30735,2,0,P|141:75|118:118,1,98.3999969970704,8|8,0:0|0:0,0:0:0:0:
124,191,31267,1,8,0:0:0:0:
184,150,31445,1,0,0:0:0:0:
58,158,31622,6,0,P|34:157|10:162,2,49.1999984985352,6|0|0,0:0|0:0|0:0,0:0:0:0:
124,191,32155,1,0,0:0:0:0:
68,304,32332,1,0,0:0:0:0:
128,263,32510,1,2,0:0:0:0:
193,294,32687,1,8,0:0:0:0:
253,253,32865,1,2,0:0:0:0:
188,222,33042,6,0,L|191:158,2,49.1999984985352,8|2|4,0:3|0:3|0:3,0:0:0:0:
193,294,33575,1,2,0:0:0:0:
193,294,33930,5,10,0:0:0:0:
259,118,34107,1,8,0:0:0:0:
259,118,34462,5,6,0:0:0:0:
189,160,34640,1,0,0:0:0:0:
261,197,34817,2,0,P|269:157|259:118,1,82,2|0,0:0|0:0,0:0:0:0:
328,73,35172,2,0,P|357:44|397:35,2,82,2|0|2,0:0|0:0|0:0,0:0:0:0:
398,117,35705,6,0,P|377:152|377:192,1,82,0|2,0:0|0:0,0:0:0:0:
456,174,36060,1,0,0:0:0:0:
397,35,36237,1,2,0:0:0:0:
377,192,36415,2,0,P|396:228|430:251,1,82,0|2,0:0|0:0,0:0:0:0:
456,174,36770,1,0,0:0:0:0:
306,155,36948,2,0,P|266:154|226:163,1,82,2|0,0:0|0:0,0:0:0:0:
155,278,37303,5,2,0:0:0:0:
103,214,37480,1,0,0:0:0:0:
146,145,37658,1,2,0:0:0:0:
226,164,37835,1,0,0:0:0:0:
231,246,38013,1,2,0:0:0:0:
231,246,38190,2,0,L|229:348,1,82,0|2,0:0|0:0,0:0:0:0:
226,164,38545,6,0,L|228:62,1,82,0|2,0:0|0:0,0:0:0:0:
140,166,38900,1,0,0:0:0:0:
229,327,39078,2,0,P|268:317|299:290,1,82,2|0,0:0|0:0,0:0:0:0:
306,130,39433,2,0,P|295:169|304:209,1,82,2|0,0:0|0:0,0:0:0:0:
438,295,39788,2,0,P|409:266|370:253,1,82,2|0,0:0|0:0,0:0:0:0:
210,207,40143,6,0,P|142:247|72:212,2,164,2|2|2,0:0|0:0|0:0,0:0:0:0:
140,166,41030,1,0,0:0:0:0:
279,163,41208,2,0,P|249:135|210:125,1,82,2|0,0:0|0:0,0:0:0:0:
71,211,41563,6,0,P|65:133|127:84,1,164,2|2,0:0|0:0,0:0:0:0:
140,166,42095,2,0,P|152:204|146:245,1,82,0|2,0:0|0:0,0:0:0:0:
210,125,42451,2,0,P|231:159|237:199,1,82,0|2,0:0|0:0,0:0:0:0:
220,280,42806,1,0,0:0:0:0:
317,216,42983,6,0,P|371:213|407:221,1,82,2|0,0:0|0:0,0:0:0:0:
334,136,43338,1,2,0:0:0:0:
334,136,43516,2,0,P|385:118|421:116,1,82,0|2,0:0|0:0,0:0:0:0:
329,53,43871,2,0,P|373:22|408:11,1,82,0|2,0:0|0:0,0:0:0:0:
495,55,44226,1,0,0:0:0:0:
334,136,44403,6,0,P|258:108|182:133,1,164,2|8,0:0|0:0,0:0:0:0:
182,266,44936,1,0,0:0:0:0:
182,266,45024,1,8,0:0:0:0:
182,266,45113,1,8,0:0:0:0:
104,158,45290,1,8,0:3:0:0:
230,199,45468,1,4,0:3:0:0:
104,240,45646,1,4,0:3:0:0:
296,247,45823,6,0,P|364:206|434:240,2,164,6|2|8,0:0|0:0|0:0,0:0:0:0:
301,330,46711,2,0,P|339:316|367:288,1,82,0|2,0:0|0:0,0:0:0:0:
359,126,47066,6,0,P|352:166|363:206,1,82,2|0,0:0|0:0,0:0:0:0:
507,279,47421,1,8,0:0:0:0:
363,206,47598,2,0,P|322:198|283:209,1,82,2|0,0:0|0:0,0:0:0:0:
179,347,47953,2,0,P|204:272|156:208,1,164,8|0,0:0|0:0,0:0:0:0:
123,286,48486,1,2,0:0:0:0:
191,131,48664,5,2,0:0:0:0:
191,131,48841,2,0,P|229:119|270:123,2,82,0|2|0,0:0|0:0|0:0,0:0:0:0:
123,286,49374,2,0,P|202:279|241:211,1,164,8|2,0:0|0:0,0:0:0:0:
132,71,49906,6,0,P|108:146|157:209,1,164,2|8,0:0|0:0,0:0:0:0:
270,123,50439,1,2,0:0:0:0:
191,131,50616,1,0,0:0:0:0:
328,183,50794,2,0,P|349:147|352:107,1,82,8|0,0:0|0:0,0:0:0:0:
293,47,51149,2,0,P|272:82|270:123,1,82,0|0,0:0|0:0,0:0:0:0:
387,242,51504,6,0,P|318:203|248:241,2,164,6|0|8,0:0|0:0|0:0,0:0:0:0:
391,324,52391,1,0,0:0:0:0:
321,367,52568,1,0,0:0:0:0:
318,286,52746,6,0,P|312:207|375:160,1,164,2|8,0:0|0:0,0:0:0:0:
465,274,53279,1,2,0:0:0:0:
387,242,53456,1,0,0:0:0:0:
375,75,53634,2,0,P|444:113|452:192,1,164,8|0,0:0|0:0,0:0:0:0:
387,242,54166,1,8,0:0:0:0:
375,75,54344,6,0,P|306:113|298:191,1,164,2|2,0:0|0:0,0:0:0:0:
375,160,54877,1,0,0:0:0:0:
218,172,55054,1,8,0:0:0:0:
229,329,55232,1,8,0:0:0:0:
387,318,55409,1,8,0:0:0:0:
298,192,55587,5,2,0:0:0:0:
298,192,56119,5,8,0:3:0:0:
298,192,56208,2,0,P|256:212|193:207,1,82,8|8,0:0|0:0,0:0:0:0:
184,195,56474,1,8,0:0:0:0:
113,154,56652,1,8,0:3:0:0:
184,279,56829,1,4,0:3:0:0:
184,111,57007,1,0,0:0:0:0:
184,111,57095,1,0,0:0:0:0:
184,111,57184,6,0,P|106:133|17:85,2,180.400005505371,6|12|2,0:0|0:0|0:0,0:0:0:0:
287,79,58072,1,0,0:0:0:0:
358,159,58249,1,8,0:0:0:0:
275,231,58427,6,0,P|193:199|116:240,1,180.400005505371,0|0,0:0|0:0,0:0:0:0:
200,307,58959,2,0,P|122:347|40:316,2,180.400005505371,8|2|8,0:0|0:0|0:0,0:0:0:0:
116,240,59847,1,0,0:0:0:0:
116,240,59936,1,0,0:0:0:0:
116,240,60024,6,0,P|194:200|276:231,1,180.400005505371,2|8,0:0|0:0,0:0:0:0:
370,277,60557,2,0,P|342:311|303:333,1,90.2000027526856,0|2,0:0|0:0,0:0:0:0:
307,148,60912,2,0,P|299:192|277:231,1,90.2000027526856,0|8,0:0|0:0,0:0:0:0:
186,70,61267,1,0,0:0:0:0:
186,70,61445,6,0,P|201:112|201:156,1,90.2000027526856,2|0,0:0|0:0,0:0:0:0:
77,319,61800,2,0,P|89:276|116:240,1,90.2000027526856,8|0,0:0|0:0,0:0:0:0:
304,299,62155,6,0,P|292:256|266:220,1,90.2000027526856,2|0,0:0|0:0,0:0:0:0:
186,70,62510,1,8,0:0:0:0:
277,231,62687,1,8,0:3:0:0:
277,231,62776,1,8,0:0:0:0:
277,231,62865,6,0,P|340:170|427:177,1,180.400005505371,6|8,0:0|0:0,0:0:0:0:
462,278,63397,2,0,P|418:283|375:272,1,90.2000027526856,0|2,0:0|0:0,0:0:0:0:
476,104,63752,2,0,P|458:145|427:177,1,90.2000027526856,0|8,0:0|0:0,0:0:0:0:
331,7,64107,6,0,P|358:42|369:86,1,90.2000027526856,0|2,0:0|0:0,0:0:0:0:
427,177,64462,1,0,0:0:0:0:
267,276,64640,1,8,0:0:0:0:
208,184,64817,2,0,P|295:171|362:227,1,180.400005505371,0|0,0:0|0:0,0:0:0:0:
238,379,65350,1,8,0:0:0:0:
163,304,65527,1,0,0:0:0:0:
342,351,65705,5,2,0:0:0:0:
238,379,65882,1,0,0:0:0:0:
362,227,66060,1,8,0:0:0:0:
263,187,66237,2,0,P|256:232|267:276,1,90.2000027526856,0|2,0:0|0:0,0:0:0:0:
342,351,66593,1,0,0:0:0:0:
163,304,66770,1,8,0:0:0:0:
362,227,66948,1,0,0:0:0:0:
141,179,67125,5,8,0:0:0:0:
238,379,67303,1,8,0:0:0:0:
61,332,67480,1,2,0:0:0:0:
290,279,67658,1,12,0:0:0:0:
54,178,67835,6,0,P|72:220|101:255,1,90.2000027526856,2|8,0:0|0:3,0:0:0:0:
263,187,68190,1,8,0:0:0:0:
295,179,68278,1,8,0:0:0:0:
329,177,68367,1,8,0:0:0:0:
363,181,68456,1,8,0:0:0:0:
395,190,68545,6,0,P|417:278|396:375,2,180.400005505371,6|8|2,0:0|0:0|0:0,0:0:0:0:
326,106,69433,1,0,0:0:0:0:
256,188,69610,1,8,0:0:0:0:
185,105,69788,6,0,P|97:90|8:105,1,180.400005505371,0|0,0:0|0:0,0:0:0:0:
78,187,70320,2,0,P|167:202|256:188,2,180.400005505371,8|2|8,0:0|0:0|0:0,0:0:0:0:
45,290,71208,1,0,0:0:0:0:
45,290,71297,1,0,0:0:0:0:
45,290,71385,6,0,P|133:275|222:290,1,180.400005505371,2|8,0:0|0:0,0:0:0:0:
291,373,71918,1,0,0:0:0:0:
304,222,72095,1,2,0:0:0:0:
372,304,72273,1,0,0:0:0:0:
222,290,72451,2,0,P|187:261|161:224,1,90.2000027526856,8|0,0:0|0:0,0:0:0:0:
125,40,72806,6,0,P|159:68|185:105,1,90.2000027526856,2|0,0:0|0:0,0:0:0:0:
371,115,73161,2,0,P|326:118|285:135,1,90.2000027526856,8|0,0:0|0:0,0:0:0:0:
243,169,73427,1,8,0:0:0:0:
243,169,73516,5,2,0:0:0:0:
297,297,73693,1,8,0:3:0:0:
123,163,73871,1,8,0:0:0:0:
111,195,73959,1,8,0:0:0:0:
106,228,74048,1,8,0:0:0:0:
107,262,74137,1,8,0:0:0:0:
114,295,74226,6,0,P|199:298|240:377,2,180.400005505371,6|8|2,0:0|0:0|0:0,0:0:0:0:
45,378,75113,1,0,0:0:0:0:
111,195,75291,2,0,P|149:185|211:194,1,90.2000027526856,8|0,0:0|0:0,0:0:0:0:
297,297,75646,6,0,P|269:213|310:136,1,180.400005505371,2|8,0:0|0:0,0:0:0:0:
418,145,76178,2,0,P|403:187|375:223,1,90.2000027526856,0|2,0:0|0:0,0:0:0:0:
310,136,76533,2,0,P|269:155|225:161,1,90.2000027526856,0|8,0:0|0:0,0:0:0:0:
241,55,76888,1,0,0:0:0:0:
241,55,76977,1,0,0:0:0:0:
241,55,77066,6,0,P|345:33|427:68,2,180.400005505371,2|8|2,0:0|0:0|0:0,0:0:0:0:
135,72,77953,1,0,0:0:0:0:
146,104,78041,1,0,0:0:0:0:
166,131,78130,1,8,0:0:0:0:
194,151,78219,1,8,0:0:0:0:
226,162,78308,1,8,0:3:0:0:
347,35,78486,5,8,0:0:0:0:
324,208,78664,1,8,0:0:0:0:
241,55,78841,1,2,0:0:0:0:
397,129,79019,2,0,P|421:168|430:212,1,90.2000027526856,12|2,0:0|0:0,0:0:0:0:
287,308,79374,5,8,0:0:0:0:
263,288,79462,1,8,0:0:0:0:
238,273,79551,1,8,0:0:0:0:
210,262,79640,1,8,0:0:0:0:
181,255,79729,1,8,0:3:0:0:
151,253,79817,1,8,0:3:0:0:
121,255,79906,6,0,P|82:263|14:249,1,98.3999969970704,14|2,0:0|0:3,0:0:0:0:
10,181,80439,2,0,P|84:167|166:189,1,147.599995495606,2|0,0:0|0:0,0:0:0:0:
238,273,81149,6,0,P|251:218|291:179,2,98.3999969970704,6|4|2,0:0|0:3|0:3,0:0:0:0:
377,320,82214,1,2,0:0:0:0:
322,271,82392,1,8,0:0:0:0:
307,343,82569,1,2,0:3:0:0:
392,248,82746,6,0,P|394:214|389:180,2,49.1999984985352,6|2|8,0:0|0:0|0:0,0:0:0:0:
307,343,83279,2,0,P|231:321|198:330,1,98.3999969970704,2|2,0:3|0:0,0:0:0:0:
71,363,83989,6,0,P|128:308|136:275,1,98.3999969970704,12|8,0:0|0:0,0:0:0:0:
133,291,84433,1,8,0:0:0:0:
133,291,84522,1,8,0:0:0:0:
171,148,84699,2,0,P|189:224|214:248,1,98.3999969970704,2|2,0:0|0:0,0:0:0:0:
201,237,85232,1,8,0:0:0:0:
311,277,85409,1,0,0:0:0:0:
311,277,85498,1,0,0:0:0:0:
311,277,85587,6,0,P|353:253|381:214,1,98.3999969970704,6|8,0:0|0:0,0:0:0:0:
392,135,86119,1,8,0:3:0:0:
256,42,86474,1,2,0:0:0:0:
127,263,87007,5,6,0:0:0:0:
127,263,87609,2,0,P|134:198|120:135,1,131.2,8|2,0:0|0:0,0:0:0:0:
240,61,88600,6,0,P|316:87|392:61,1,164,6|2,0:0|0:0,0:0:0:0:
455,131,89721,1,8,0:0:0:0:
455,131,90500,6,0,L|455:219,1,82,6|2,0:0|0:0,0:0:0:0:
416,283,91315,1,8,0:0:0:0:
374,215,91609,1,2,0:0:0:0:
155,257,92988,6,0,B|156:231|145:200|131:216|94:197|96:140|144:114|182:142|182:142|212:113|266:134|262:182|243:204|230:188|226:233,1,340.5,6|2,0:0|0:0,0:0:0:0:
