osu file format v12

[General]
AudioFilename: OP.mp3
AudioLeadIn: 0
PreviewTime: 59395
Countdown: 0
SampleSet: Soft
StackLeniency: 0.7
Mode: 0
LetterboxInBreaks: 0
WidescreenStoryboard: 0

[Editor]
DistanceSpacing: 1
BeatDivisor: 4
GridSize: 4
TimelineZoom: 1

[Metadata]
Title:Kibou no Sora
TitleUnicode:キボウのソラ
Artist:Shimotsuki Haruka
ArtistUnicode:霜月はるか
Creator:kajiyatta
Version:Normal
Source:Kimi e Okuru, Sora no Hana
Tags:opening Cabbit visual novel eroge キミへ贈る、ソラの花
BeatmapID:267852
BeatmapSetID:97819

[Difficulty]
HPDrainRate:4
CircleSize:3
OverallDifficulty:4
ApproachRate:5
SliderMultiplier:1
SliderTickRate:1

[Events]
//Background and Video events
Video,0,"OP.avi"
0,0,"BG.jpg",0,0
//Break Periods
//Storyboard Layer 0 (Background)
//Storyboard Layer 1 (Fail)
//Storyboard Layer 2 (Pass)
//Storyboard Layer 3 (Foreground)
//Storyboard Sound Samples
//Background Colour Transformations
3,100,163,162,255

[TimingPoints]
1880,355.029585798817,4,2,0,100,1,0
3300,-100,4,2,1,30,0,0
8980,-100,4,2,1,50,0,0
11820,-100,4,2,1,60,0,0
12530,-100,4,2,2,30,0,0
12885,-100,4,2,1,60,0,0
13951,-100,4,2,2,30,0,0
14306,-100,4,2,1,60,0,0
14661,-100,4,2,1,70,0,0
23891,-100,4,2,2,30,0,0
24246,-100,4,2,1,70,0,0
26022,-100,4,2,1,30,0,0
28329,-100,4,2,2,30,0,0
28507,-100,4,2,1,30,0,0
30104,-100,4,2,2,30,0,0
30282,-100,4,2,1,30,0,0
34010,-100,4,2,2,30,0,0
34187,-100,4,2,1,30,0,0
36317,-100,4,2,2,30,0,0
36495,-100,4,2,1,30,0,0
36672,-100,4,2,2,30,0,0
37027,-100,4,2,1,60,0,0
54779,-100,4,2,1,30,0,0
55134,-100,4,2,1,60,0,0
59039,-100,4,2,1,40,0,0
60104,-100,4,2,1,70,0,1
60459,-100,4,2,1,80,0,1
63655,-100,4,2,2,30,0,1
64010,-100,4,2,1,80,0,1
65785,-100,4,2,1,70,0,1
66140,-100,4,2,1,80,0,1
70045,-100,4,2,1,70,0,1
70400,-100,4,2,1,80,0,1
71110,-100,4,2,1,80,0,0
71465,-100,4,2,1,70,0,1
71820,-100,4,2,1,80,0,1
77146,-100,4,2,1,70,0,1
77501,-100,4,2,1,80,0,1
81406,-100,4,2,1,70,0,1
82826,-100,4,2,1,50,0,0
84246,-100,4,2,1,40,0,0
85666,-100,4,2,1,30,0,0

[Colours]
Combo1 : 251,140,242
Combo2 : 63,183,254
Combo3 : 245,140,54
Combo4 : 69,211,44

[HitObjects]
76,112,3300,6,0,L|44:72,2,50,2|0|0,0:0|0:0|0:0,0:0:0:0:
124,100,3832,2,0,B|172:80|224:100,1,100,2|0,0:0|0:0,0:0:0:0:
224,200,4542,2,0,B|172:220|124:200,2,100,2|0|2,0:0|0:0|0:0,0:0:0:0:
304,140,5607,2,0,L|356:104,2,50,2|0|0,0:0|0:0|0:0,0:0:0:0:
316,188,6140,6,0,B|316:244|348:284,1,100,2|0,0:0|0:0,0:0:0:0:
388,308,6672,2,0,B|436:332|484:308,2,100,2|2|2,0:0|0:0|0:0,0:0:0:0:
436,220,7737,1,2,0:0:0:0:
436,220,7915,2,0,L|436:116,2,100,2|0|2,0:0|0:0|0:0,0:0:0:0:
388,308,8980,5,4,0:0:0:0:
388,308,10045,2,0,L|448:308,2,50,8|8|4,0:0|0:0|0:0,0:0:0:0:
236,308,10933,2,0,B|164:344|92:308,1,150,8|8,0:0|0:0,0:0:0:0:
40,220,11820,6,0,B|0:148|40:76,2,150,4|4|8,0:0|0:0|0:0,0:0:0:0:
140,220,13240,2,0,B|180:148|140:76,2,150,4|4|8,0:0|0:0|0:0,0:0:0:0:
88,304,14661,6,0,B|100:340|172:376|244:336|256:304,1,200,4|0,0:0|0:0,0:0:0:0:
320,228,15726,1,8,0:0:0:0:
408,180,16081,2,0,B|456:156|504:180,1,100,0|8,0:0|0:0,0:0:0:0:
504,280,16791,2,0,B|456:304|408:280,1,100,0|8,0:0|0:0,0:0:0:0:
320,228,17501,6,0,B|268:128|160:128,1,200,0|0,0:0|0:0,0:0:0:0:
72,180,18566,1,8,0:0:0:0:
112,272,18921,2,0,B|44:344,2,100,0|8|0,0:0|0:0|0:0,0:0:0:0:
212,272,19986,1,8,0:0:0:0:
312,272,20341,6,0,B|380:344,2,100,4|8|0,0:0|0:0|0:0,0:0:0:0:
256,188,21406,1,8,0:0:0:0:
168,140,21761,2,0,B|120:120|68:140,1,100,0|8,0:0|0:0,0:0:0:0:
68,240,22471,2,0,B|116:260|168:240,1,100,0|8,0:0|0:0,0:0:0:0:
256,188,23181,6,0,P|308:144|388:148,2,150,4|4|8,0:0|0:0|0:0,0:0:0:0:
344,232,24601,2,0,L|344:284,1,50,4|8,0:0|0:0,0:0:0:0:
304,372,25134,2,0,B|256:392|204:372,1,100,4|4,0:0|0:0,0:0:0:0:
112,256,26022,6,0,B|48:332,2,100,2|0|8,0:0|0:0|0:0,0:0:0:0:
160,256,26909,2,0,L|212:256,1,50,0|0,0:0|0:0,0:0:0:0:
260,256,27264,2,0,B|260:204|224:164,1,100,0|0,0:0|0:0,0:0:0:0:
192,68,27974,2,0,B|260:28|336:68,1,150,2|8,0:0|0:0,0:0:0:0:
420,124,28862,6,0,B|456:160|455:214,1,100,2|0,0:0|0:0,0:0:0:0:
392,292,29572,1,0,0:0:0:0:
392,292,29749,2,0,B|324:332|248:292,1,150,0|2,0:0|0:0,0:0:0:0:
152,268,30637,2,0,L|60:224,2,100,0|0|2,0:0|0:0|0:0,0:0:0:0:
228,200,31702,6,0,B|264:164|264:108,1,100,2|0,0:0|0:0,0:0:0:0:
168,76,32412,2,0,B|132:112|132:168,2,100,8|0|0,0:0|0:0|0:0,0:0:0:0:
248,12,33477,1,0,0:0:0:0:
248,12,33655,2,0,B|324:12|384:68,1,150,2|0,0:0|0:0,0:0:0:0:
464,124,34542,6,0,B|476:176|440:216,1,100,2|0,0:0|0:0,0:0:0:0:
344,244,35252,2,0,B|296:220|248:244,1,100,8|0,0:0|0:0,0:0:0:0:
172,308,35962,2,0,B|96:348|28:308,2,150,2|2|8,0:0|0:0|0:0,0:0:0:0:
152,212,37382,6,0,B|108:180|108:124,1,100,4|8,0:0|0:0,0:0:0:0:
8,124,38093,2,0,B|13:69|60:44,1,100,8|8,0:0|0:0,0:0:0:0:
160,44,38803,2,0,B|207:69|212:124,1,100,8|8,0:0|0:0,0:0:0:0:
296,180,39513,2,0,B|344:200|396:180,1,100,8|8,0:0|0:0,0:0:0:0:
404,80,40223,6,0,B|440:44|496:56,2,100,8|8|8,0:0|0:0|0:0,0:0:0:0:
476,152,41288,1,8,0:0:0:0:
448,248,41643,1,0,0:0:0:0:
348,248,41998,2,0,L|276:320,2,100,8|8|8,0:0|0:0|0:0,0:0:0:0:
316,152,43063,6,0,B|256:68|144:68,2,200,8|8|8,0:0|0:0|0:0,0:0:0:0:
256,236,44838,2,0,B|220:272|164:272,2,100,8|8|8,0:0|0:0|0:0,0:0:0:0:
312,152,45903,6,0,B|364:152|404:184,1,100,8|8,0:0|0:0,0:0:0:0:
476,112,46613,2,0,B|512:152|500:208,1,100,8|8,0:0|0:0,0:0:0:0:
448,292,47323,1,8,0:0:0:0:
384,368,47678,1,8,0:0:0:0:
284,368,48033,1,8,0:0:0:0:
216,292,48388,1,8,0:0:0:0:
280,216,48743,6,0,L|344:140,2,100,4|8|8,0:0|0:0|0:0,0:0:0:0:
216,292,49808,2,0,L|164:292,1,50,0|8,0:0|0:0,0:0:0:0:
64,292,50341,2,0,L|24:324,2,50,8|8|0,0:0|0:0|0:0,0:0:0:0:
88,248,50874,2,0,B|116:208|112:152,1,100,8|0,0:0|0:0,0:0:0:0:
96,56,51584,6,0,B|40:68|20:116,2,100,0|0|8,0:0|0:0|0:0,0:0:0:0:
188,96,52649,1,8,0:0:0:0:
188,96,52826,2,0,B|260:132|332:96,1,150,8|8,0:0|0:0,0:0:0:0:
428,68,53714,2,0,B|476:96|476:152,1,100,8|0,0:0|0:0,0:0:0:0:
392,204,54424,6,0,B|288:216|232:312,1,200,4|8,0:0|0:0,0:0:0:0:
144,356,55489,2,0,B|88:356|56:316,2,100,0|0|8,0:0|0:0|0:0,0:0:0:0:
132,256,56554,2,0,B|92:216|98:165,1,100,8|0,0:0|0:0,0:0:0:0:
176,100,57264,6,0,B|224:80|276:100,1,100
360,148,57974,2,0,L|404:172,1,50,8|8,0:0|0:0,0:0:0:0:
392,220,58329,2,0,L|436:244,1,50,8|8,0:0|0:0,0:0:0:0:
200,296,59394,5,8,0:0:0:0:
112,344,59749,1,8,0:0:0:0:
24,296,60104,6,0,B|24:192|140:148,1,200,4|0,0:0|0:0,0:0:0:0:
228,192,61169,1,8,0:0:0:0:
316,148,61524,2,0,B|360:124|412:148,1,100,0|8,0:0|0:0,0:0:0:0:
412,248,62235,2,0,B|360:272|316:248,1,100,0|8,0:0|0:0,0:0:0:0:
228,192,62945,6,0,B|196:148|140:148,1,100,0|8,0:0|0:0,0:0:0:0:
92,148,63477,2,0,B|12:180|12:264,1,150,0|8,0:0|0:0,0:0:0:0:
80,336,64365,2,0,B|112:380|168:380,1,100,0|8,0:0|0:0,0:0:0:0:
256,336,65075,2,0,B|284:296|344:296,1,100,0|8,0:0|0:0,0:0:0:0:
440,312,65785,6,0,B|484:288|484:228,1,100,4|8,0:0|0:0,0:0:0:0:
460,132,66495,1,0,0:0:0:0:
388,64,66850,1,8,0:0:0:0:
288,48,67205,2,0,B|240:24|192:48,1,100,0|8,0:0|0:0,0:0:0:0:
192,148,67915,2,0,B|144:172|96:148,1,100,0|8,0:0|0:0,0:0:0:0:
40,64,68625,6,0,B|4:76|-32:148|8:220|40:232,1,200
112,300,69690,1,8,0:0:0:0:
196,352,70045,2,0,B|244:376|292:352,2,100,4|8|0,0:0|0:0|0:0,0:0:0:0:
112,300,71110,1,8,0:0:0:0:
196,244,71465,6,0,B|244:220|292:244,1,100,4|8,0:0|0:0,0:0:0:0:
376,300,72175,1,0,0:0:0:0:
460,240,72530,1,8,0:0:0:0:
428,144,72885,2,0,B|456:96|428:48,1,100,0|8,0:0|0:0,0:0:0:0:
328,48,73595,2,0,B|300:96|328:144,1,100,0|8,0:0|0:0,0:0:0:0:
256,212,74306,6,0,B|204:212|160:260,1,100,0|8,0:0|0:0,0:0:0:0:
132,288,74838,2,0,B|52:268|28:188,1,150,0|8,0:0|0:0,0:0:0:0:
88,108,75726,2,0,L|24:32,2,100,0|8|0,0:0|0:0|0:0,0:0:0:0:
176,156,76791,1,8,0:0:0:0:
264,108,77146,6,0,B|356:52|456:108,1,200,4|0,0:0|0:0,0:0:0:0:
500,200,78211,1,8,0:0:0:0:
440,280,78566,2,0,B|416:332|360:332,1,100,0|8,0:0|0:0,0:0:0:0:
280,272,79276,2,0,B|252:228|196:228,1,100,0|8,0:0|0:0,0:0:0:0:
96,228,79986,6,0,B|40:228|12:272,2,100,0|8|0,0:0|0:0|0:0,0:0:0:0:
144,140,81051,1,8,0:0:0:0:
212,68,81406,2,0,L|180:28,2,50,4|4|8,0:0|0:0|0:0,0:0:0:0:
240,112,81939,2,0,B|280:184|364:184,1,150,4|8,0:0|0:0,0:0:0:0:
256,192,82826,12,2,85666,0:0:0:0:
