osu file format v12

[General]
AudioFilename: OP.mp3
AudioLeadIn: 0
PreviewTime: 59395
Countdown: 0
SampleSet: Soft
StackLeniency: 0.7
Mode: 0
LetterboxInBreaks: 0
WidescreenStoryboard: 0

[Editor]
DistanceSpacing: 1.5
BeatDivisor: 4
GridSize: 4
TimelineZoom: 1.6

[Metadata]
Title:Kibou no Sora
TitleUnicode:キボウのソラ
Artist:Shimotsuki Haruka
ArtistUnicode:霜月はるか
Creator:kajiyatta
Version:Insane
Source:Kimi e Okuru, Sora no Hana
Tags:opening Cabbit visual novel eroge キミへ贈る、ソラの花
BeatmapID:261311
BeatmapSetID:97819

[Difficulty]
HPDrainRate:7
CircleSize:4
OverallDifficulty:7
ApproachRate:8
SliderMultiplier:1.8
SliderTickRate:1

[Events]
//Background and Video events
Video,0,"OP.avi"
0,0,"BG.jpg",0,0
//Break Periods
//Storyboard Layer 0 (Background)
//Storyboard Layer 1 (Fail)
//Storyboard Layer 2 (Pass)
//Storyboard Layer 3 (Foreground)
//Storyboard Sound Samples
//Background Colour Transformations
3,100,163,162,255

[TimingPoints]
1880,355.029585798817,4,2,0,100,1,0
3300,-133.333333333333,4,2,1,30,0,0
8980,-100,4,2,1,50,0,0
11820,-100,4,2,1,60,0,0
14661,-100,4,2,1,70,0,0
19986,-100,4,2,1,50,0,0
20341,-100,4,2,1,70,0,0
22826,-100,4,2,1,50,0,0
23181,-100,4,2,1,70,0,0
26022,-133.333333333333,4,2,1,30,0,0
37382,-100,4,2,1,60,0,0
59039,-100,4,2,1,40,0,0
60104,-100,4,2,1,70,0,1
60459,-100,4,2,1,80,0,1
65785,-100,4,2,1,70,0,1
66140,-100,4,2,1,80,0,1
70045,-100,4,2,1,60,0,1
70400,-100,4,2,1,80,0,1
70578,-100,4,2,1,60,0,1
70755,-100,4,2,1,80,0,1
70933,-100,4,2,1,60,0,1
71110,-100,4,2,1,50,0,0
71465,-100,4,2,1,70,0,1
71820,-100,4,2,1,80,0,1
76791,-100,4,2,1,50,0,1
77146,-100,4,2,1,70,0,1
77501,-100,4,2,1,80,0,1
81051,-100,4,2,1,50,0,1
81406,-100,4,2,1,70,0,1
82294,-100,4,2,1,50,0,1
82826,-100,4,2,1,50,0,0
84246,-100,4,2,1,40,0,0
85666,-100,4,2,1,30,0,0

[Colours]
Combo1 : 251,140,242
Combo2 : 63,183,254
Combo3 : 245,140,54
Combo4 : 69,211,44

[HitObjects]
108,92,3300,5,2,0:0:0:0:
108,92,3477,2,0,B|140:80|176:92,1,67.5000025749208,0|0,0:0|0:0,0:0:0:0:
292,168,3832,2,0,B|257:179|225:167,1,67.5000025749208,2|0,0:0|0:0,0:0:0:0:
348,92,4187,1,0,0:0:0:0:
444,92,4365,1,0,0:0:0:0:
500,168,4542,2,0,B|508:244|460:292,1,135.000005149842,2|2,0:0|0:0,0:0:0:0:
432,308,4986,1,0,0:0:0:0:
400,320,5075,2,0,B|364:320|336:344,1,67.5000025749208,2|2,0:0|0:0,0:0:0:0:
152,332,5607,1,2,0:0:0:0:
92,204,5785,1,0,0:0:0:0:
32,332,5962,1,0,0:0:0:0:
92,204,6140,6,0,B|116:180|124:144,2,67.5000025749208,2|2|0,0:0|0:0|0:0,0:0:0:0:
40,92,6672,2,0,B|60:60|96:56,1,67.5000025749208,2|0,0:0|0:0,0:0:0:0:
232,92,7027,2,0,B|212:60|176:56,1,67.5000025749208,2|0,0:0|0:0,0:0:0:0:
256,192,7382,1,2,0:0:0:0:
256,192,7737,1,2,0:0:0:0:
204,340,7915,1,0,0:0:0:0:
340,248,8093,2,0,L|368:228,2,33.7500012874604,2|2|2,0:0|0:0|0:0,0:0:0:0:
172,248,8448,1,2,0:0:0:0:
304,340,8625,1,2,0:0:0:0:
256,192,8803,2,0,L|256:116,1,67.5000025749208,0|4,0:0|0:0,0:0:0:0:
168,56,10045,5,8,0:0:0:0:
344,56,10223,1,8,0:0:0:0:
256,192,10400,1,4,0:0:0:0:
256,192,10933,2,0,B|224:204|180:264|224:328|256:340,1,180,8|8,0:0|0:0,0:0:0:0:
380,264,11465,1,8,0:0:0:0:
380,264,11820,6,0,B|420:236|420:188,1,90,4|0,0:0|0:0,0:0:0:0:
336,132,12175,1,8,0:0:0:0:
380,8,12353,2,0,B|420:36|420:84,1,90,4|0,0:0|0:0,0:0:0:0:
336,132,12708,1,8,0:0:0:0:
244,176,12885,2,0,B|216:132|244:92,1,90,8|0,0:0|0:0,0:0:0:0:
276,272,13240,2,0,B|260:320|216:335,1,90,4|0,0:0|0:0,0:0:0:0:
144,268,13595,1,8,0:0:0:0:
12,272,13773,2,0,B|28:320|72:336,1,90,4|0,0:0|0:0,0:0:0:0:
144,268,14128,1,8,0:0:0:0:
76,164,14306,1,8,0:0:0:0:
60,140,14394,1,8,0:0:0:0:
56,108,14483,1,8,0:0:0:0:
64,76,14572,1,8,0:0:0:0:
80,52,14661,6,0,B|160:0|252:52,1,180,4|8,0:0|0:0,0:0:0:0:
312,128,15193,1,0,0:0:0:0:
384,192,15371,2,0,B|428:212|472:192,2,90,0|0|8,0:0|0:0|0:0,0:0:0:0:
352,48,15903,2,0,B|380:0|480:0|508:48,1,180,0|0,0:0|0:0,0:0:0:0:
384,192,16436,2,0,B|312:248,1,90,8|0,0:0|0:0,0:0:0:0:
196,332,16791,2,0,B|152:352|104:332,1,90,0|0,0:0|0:0,0:0:0:0:
104,148,17146,2,0,B|147:129|191:149,1,90,8|0,0:0|0:0,0:0:0:0:
384,192,17501,6,0,B|476:160|492:60,1,180,0|8,0:0|0:0,0:0:0:0:
352,68,18033,1,0,0:0:0:0:
259,109,18211,2,0,B|233:152|188:160,1,90,0|0,0:0|0:0,0:0:0:0:
40,116,18566,2,0,B|65:73|111:66,1,90,8|0,0:0|0:0,0:0:0:0:
189,160,18921,1,0,0:0:0:0:
76,264,19098,1,0,0:0:0:0:
40,116,19276,1,8,0:0:0:0:
76,264,19453,2,0,B|116:360|216:360,1,180,0|0,0:0|0:0,0:0:0:0:
360,296,19986,1,8,0:0:0:0:
388,280,20075,1,8,0:0:0:0:
412,260,20164,1,8,0:0:0:0:
428,232,20252,1,0,0:0:0:0:
436,200,20341,6,0,B|436:108|340:56,1,180,4|8,0:0|0:0,0:0:0:0:
124,126,20874,2,0,B|136:156|200:200|260:156|272:124,1,180
84,44,21406,2,0,B|36:64|32:112,1,90,8|0,0:0|0:0,0:0:0:0:
100,276,21761,2,0,B|100:228|64:196,1,90,8|0,0:0|0:0,0:0:0:0:
24,336,22116,2,0,B|52:392|144:392|172:336,1,180
252,276,22649,1,0,0:0:0:0:
392,344,22826,1,8,0:0:0:0:
420,332,22915,1,8,0:0:0:0:
444,312,23004,1,8,0:0:0:0:
464,288,23093,1,8,0:0:0:0:
484,264,23181,6,0,B|512:228|508:180,1,90,4|0,0:0|0:0,0:0:0:0:
416,128,23536,1,8,0:0:0:0:
360,0,23714,2,0,B|328:36|328:84,1,90,4|0,0:0|0:0,0:0:0:0:
404,224,24069,1,8,0:0:0:0:
260,148,24246,1,8,0:0:0:0:
416,128,24424,1,8,0:0:0:0:
300,236,24601,2,0,B|300:284|264:316,1,90,4|8,0:0|0:0,0:0:0:0:
176,360,24956,1,8,0:0:0:0:
48,236,25134,2,0,B|48:284|84:316,1,90,4|8,0:0|0:0,0:0:0:0:
176,160,25489,1,4,0:0:0:0:
176,160,26022,6,0,B|196:132|196:96,1,67.5000025749208,2|0,0:0|0:0,0:0:0:0:
280,40,26377,2,0,B|340:8|412:40,1,135.000005149842,0|8,0:0|0:0,0:0:0:0:
340,180,26909,1,0,0:0:0:0:
411,40,27087,1,0,0:0:0:0:
460,176,27264,2,0,B|496:204|496:248,1,67.5000025749208,2|0,0:0|0:0,0:0:0:0:
340,180,27619,2,0,B|264:180|224:240,1,135.000005149842,0|2,0:0|0:0,0:0:0:0:
60,288,28329,1,2,0:0:0:0:
60,288,28507,2,0,L|4:248,1,67.5000025749208,0|0,0:0|0:0,0:0:0:0:
100,120,28862,6,0,L|156:160,1,67.5000025749208,2|0,0:0|0:0,0:0:0:0:
220,108,29217,2,0,B|272:64|344:64,1,135.000005149842,0|8,0:0|0:0,0:0:0:0:
376,152,29749,2,0,B|412:144|428:112,2,67.5000025749208,0|0|0,0:0|0:0|0:0,0:0:0:0:
256,192,30282,1,2,0:0:0:0:
192,336,30637,2,0,B|256:376|320:336,2,135.000005149842,0|0|2,0:0|0:0|0:0,0:0:0:0:
120,264,31524,1,0,0:0:0:0:
8,376,31702,1,2,0:0:0:0:
256,32,32412,5,8,0:0:0:0:
304,168,32590,1,0,0:0:0:0:
184,88,32767,1,0,0:0:0:0:
324,88,32945,2,0,B|400:88|444:140,1,135.000005149842,0|0,0:0|0:0,0:0:0:0:
512,216,33477,1,0,0:0:0:0:
444,292,33655,2,0,B|400:344|324:344,1,135.000005149842,2|0,0:0|0:0,0:0:0:0:
256,272,34187,1,0,0:0:0:0:
256,272,34365,5,0,0:0:0:0:
108,212,34542,1,2,0:0:0:0:
192,348,34720,1,0,0:0:0:0:
208,188,34897,1,0,0:0:0:0:
100,308,35075,2,0,B|28:308|0:232,2,135.000005149842,0|0|0,0:0|0:0|0:0,0:0:0:0:
208,188,35962,1,2,0:0:0:0:
256,44,36140,1,0,0:0:0:0:
300,188,36317,1,2,0:0:0:0:
176,100,36495,2,0,B|112:64|48:100,1,135.000005149842,2|2,0:0|0:0,0:0:0:0:
141,188,37027,2,0,B|180:200|208:188,1,67.5000025749208,8|0,0:0|0:0,0:0:0:0:
422,98,37382,6,0,B|380:76|336:100,1,90,4|0,0:0|0:0,0:0:0:0:
300,188,37737,2,0,B|388:216|428:312,1,180,8|8,0:0|0:0,0:0:0:0:
216,296,38270,2,0,B|256:272|304:296,1,90,0|8,0:0|0:0,0:0:0:0:
77,307,38625,2,0,B|116:216|204:188,1,180,0|0,0:0|0:0,0:0:0:0:
256,28,39158,2,0,L|256:120,1,90,8|0,0:0|0:0,0:0:0:0:
424,104,39513,2,0,B|376:104|348:144,1,90,8|0,0:0|0:0,0:0:0:0:
88,104,39868,2,0,B|136:104|164:144,1,90,8|0,0:0|0:0,0:0:0:0:
256,340,40223,6,0,B|272:300|256:252,1,90,8|0,0:0|0:0,0:0:0:0:
80,300,40578,2,0,B|120:316|168:300,1,90,8|0,0:0|0:0,0:0:0:0:
300,176,40933,2,0,B|256:156|212:176,1,90,8|0,0:0|0:0,0:0:0:0:
344,300,41288,2,0,B|392:316|432:300,1,90,8|0,0:0|0:0,0:0:0:0:
492,176,41643,2,0,B|484:128|440:104,1,90,8|0,0:0|0:0,0:0:0:0:
300,176,41998,2,0,B|308:128|352:104,1,90,8|0,0:0|0:0,0:0:0:0:
344,300,42353,2,0,B|332:332|272:376|208:332|196:300,1,180,8|8,0:0|0:0,0:0:0:0:
168,208,42885,1,0,0:0:0:0:
36,336,43063,6,0,B|47:289|91:269,1,90,8|0,0:0|0:0,0:0:0:0:
36,80,43418,2,0,B|47:126|91:146,1,90,8|0,0:0|0:0,0:0:0:0:
168,208,43773,2,0,B|272:208|304:112,1,180,8|8,0:0|0:0,0:0:0:0:
364,36,44306,1,0,0:0:0:0:
503,150,44483,2,0,B|492:104|452:80,1,90,8|0,0:0|0:0,0:0:0:0:
364,36,44838,1,8,0:0:0:0:
388,192,45016,2,0,B|399:238|439:262,1,90,0|8,0:0|0:0,0:0:0:0:
364,36,45371,2,0,B|316:36|280:68,1,90,0|8,0:0|0:0,0:0:0:0:
216,140,45726,1,0,0:0:0:0:
65,37,45903,6,0,B|113:37|148:68,1,90,8|0,0:0|0:0,0:0:0:0:
216,140,46258,1,8,0:0:0:0:
222,340,46436,2,0,B|189:343|121:313|127:236|148:212,1,180
328,252,46968,2,0,B|288:268|240:252,1,90,8|0,0:0|0:0,0:0:0:0:
422,211,47323,2,0,B|442:236|448:313|380:343|348:340,1,180,8|8,0:0|0:0,0:0:0:0:
284,172,47856,1,8,0:0:0:0:
284,172,47945,1,8,0:0:0:0:
284,172,48033,2,0,B|236:152|228:108,1,90,8|0,0:0|0:0,0:0:0:0:
180,20,48388,1,8,0:0:0:0:
180,20,48566,1,8,0:0:0:0:
40,92,48743,6,0,B|-16:176|40:260,1,180,4|8,0:0|0:0,0:0:0:0:
124,312,49276,1,0,0:0:0:0:
240,192,49453,2,0,B|272:152|316:152,2,90,8|0|0,0:0|0:0|0:0,0:0:0:0:
124,312,49986,2,0,B|152:360|200:360,1,90,8|0,0:0|0:0,0:0:0:0:
324,248,50341,1,8,0:0:0:0:
404,192,50519,2,0,B|472:252,1,90
240,192,50874,2,0,B|172:132,2,90,8|0|0,0:0|0:0|0:0,0:0:0:0:
324,248,51406,1,0,0:0:0:0:
304,60,51584,6,0,B|224:0|132:40,1,180,8|0,0:0|0:0,0:0:0:0:
56,96,52116,1,0,0:0:0:0:
116,260,52294,2,0,B|136:216|116:172,1,90,8|0,0:0|0:0,0:0:0:0:
56,96,52649,1,0,0:0:0:0:
40,304,52826,2,0,B|51:333|116:376|175:333|188:304,1,180,8|8,0:0|0:0,0:0:0:0:
344,244,53359,2,0,B|300:224|256:244,1,90,8|0,0:0|0:0,0:0:0:0:
372,332,53714,1,0,0:0:0:0:
484,192,53891,1,0,0:0:0:0:
488,372,54069,1,0,0:0:0:0:
256,92,54424,6,0,B|320:20|416:20,1,180,4|0,0:0|0:0,0:0:0:0:
492,84,54956,1,0,0:0:0:0:
384,192,55134,1,8,0:0:0:0:
256,92,55311,2,0,B|208:72|208:24,1,90,0|0,0:0|0:0,0:0:0:0:
384,192,55666,2,0,B|352:288|248:288,1,180,8|8,0:0|0:0,0:0:0:0:
96,192,56199,2,0,B|140:168|184:192,1,90,8|0,0:0|0:0,0:0:0:0:
64,284,56554,2,0,B|0:272|-28:192|12:140,1,180,8|0,0:0|0:0,0:0:0:0:
88,72,57087,1,8,0:0:0:0:
256,40,57264,6,0,B|308:120|408:120,1,180,8|0,0:0|0:0,0:0:0:0:
492,64,57797,1,0,0:0:0:0:
428,204,57974,1,8,0:0:0:0:
400,32,58152,1,8,0:0:0:0:
512,168,58329,1,8,0:0:0:0:
336,184,58507,1,8,0:0:0:0:
104,192,59039,5,8,0:0:0:0:
76,168,59128,1,8,0:0:0:0:
64,132,59217,1,8,0:0:0:0:
68,96,59306,1,8,0:0:0:0:
84,64,59394,6,0,B|108:24|160:24,1,90,8|0,0:0|0:0,0:0:0:0:
296,64,59749,2,0,B|272:104|220:104,1,90,8|0,0:0|0:0,0:0:0:0:
380,24,60104,6,0,B|472:48|508:144,1,180,4|8,0:0|0:0,0:0:0:0:
420,192,60637,1,0,0:0:0:0:
340,328,60814,2,0,B|316:284|340:240,1,90,0|0,0:0|0:0,0:0:0:0:
420,192,61169,1,8,0:0:0:0:
248,368,61347,2,0,B|196:284|248:196,1,180,0|0,0:0|0:0,0:0:0:0:
296,64,61880,2,0,B|252:40|208:64,1,90,8|0,0:0|0:0,0:0:0:0:
53,133,62235,2,0,B|96:156|140:132,1,90,0|0,0:0|0:0,0:0:0:0:
4,224,62590,2,0,B|17:269|65:284,1,90,8|0,0:0|0:0,0:0:0:0:
324,244,62945,6,0,B|240:192|152:244,1,180,0|8,0:0|0:0,0:0:0:0:
388,328,63477,2,0,B|408:320|452:244|408:176|388:168,1,180
256,72,64010,1,8,0:0:0:0:
416,72,64187,1,0,0:0:0:0:
284,168,64365,2,0,B|248:200|200:200,1,90,0|0,0:0|0:0,0:0:0:0:
64,144,64720,2,0,B|100:112|148:112,1,90,8|0,0:0|0:0,0:0:0:0:
148,284,65075,2,0,B|102:284|64:252,1,90,0|0,0:0|0:0,0:0:0:0:
284,168,65430,2,0,B|329:167|368:200,1,90,8|0,0:0|0:0,0:0:0:0:
64,144,65785,6,0,B|108:56|212:56,1,180,4|8,0:0|0:0,0:0:0:0:
364,132,66317,2,0,B|332:168|284:168,1,90,0|0,0:0|0:0,0:0:0:0:
432,56,66672,2,0,B|472:84|472:132,1,90,0|8,0:0|0:0,0:0:0:0:
423,363,67027,2,0,B|391:351|348:288|391:227|420:216,1,180
492,288,67560,1,8,0:0:0:0:
296,328,67737,2,0,B|272:288|296:240,1,90,0|0,0:0|0:0,0:0:0:0:
284,96,68093,2,0,B|328:96|364:132,1,90,0|8,0:0|0:0,0:0:0:0:
224,176,68448,1,0,0:0:0:0:
88,132,68625,6,0,B|124:96|168:96,1,90,0|0,0:0|0:0,0:0:0:0:
44,208,68980,2,0,B|0:180|0:132,1,90,8|0,0:0|0:0,0:0:0:0:
136,208,69335,1,0,0:0:0:0:
0,284,69513,1,0,0:0:0:0:
184,284,69690,2,0,B|160:328|112:336,1,90,8|0,0:0|0:0,0:0:0:0:
88,132,70045,5,4,0:0:0:0:
256,64,70223,1,4,0:0:0:0:
200,144,70400,2,0,B|160:116|160:68,1,90,8|4,0:0|0:0,0:0:0:0:
352,68,70755,2,0,B|352:116|312:144,1,90,0|4,0:0|0:0,0:0:0:0:
256,228,71110,1,8,0:0:0:0:
244,256,71199,1,8,0:0:0:0:
236,288,71288,1,8,0:0:0:0:
244,320,71377,1,8,0:0:0:0:
256,352,71465,6,0,B|344:392|432:352,1,180,4|8,0:0|0:0,0:0:0:0:
480,268,71998,1,0,0:0:0:0:
432,96,72175,2,0,B|408:140|430:182,1,90,0|0,0:0|0:0,0:0:0:0:
480,268,72530,1,8,0:0:0:0:
504,56,72708,2,0,B|496:28|428:-20|364:28|356:56,1,180
209,132,73240,2,0,B|256:156|296:132,1,90,8|0,0:0|0:0,0:0:0:0:
152,56,73595,2,0,B|108:32|64:56,1,90,0|0,0:0|0:0,0:0:0:0:
64,212,73951,2,0,B|106:234|150:210,1,90,8|0,0:0|0:0,0:0:0:0:
356,219,74306,6,0,B|305:132|209:132,1,180,0|8,0:0|0:0,0:0:0:0:
196,292,74838,1,0,0:0:0:0:
384,308,75016,2,0,B|432:300|448:252,1,90,0|0,0:0|0:0,0:0:0:0:
496,96,75371,2,0,B|448:104|432:152,1,90,8|0,0:0|0:0,0:0:0:0:
298,306,75726,2,0,B|342:330|386:306,1,90,0|0,0:0|0:0,0:0:0:0:
232,216,76081,2,0,B|188:192|144:216,1,90,8|0,0:0|0:0,0:0:0:0:
384,308,76436,2,0,B|412:276|408:224,1,90,0|0,0:0|0:0,0:0:0:0:
232,216,76791,1,8,0:0:0:0:
216,236,76880,1,8,0:0:0:0:
208,260,76968,1,8,0:0:0:0:
212,288,77057,1,8,0:0:0:0:
220,316,77146,6,0,B|136:372|52:316,1,180,4|8,0:0|0:0,0:0:0:0:
232,216,77678,2,0,B|316:160|400:216,1,180,0|0,0:0|0:0,0:0:0:0:
508,312,78211,2,0,B|468:336|420:312,1,90,8|0,0:0|0:0,0:0:0:0:
420,116,78566,2,0,B|464:92|506:116,1,90,0|0,0:0|0:0,0:0:0:0:
464,216,78921,1,8,0:0:0:0:
232,216,79098,2,0,B|228:112|328:80,1,180,0|0,0:0|0:0,0:0:0:0:
340,252,79631,2,0,B|332:300|288:324,1,90,8|0,0:0|0:0,0:0:0:0:
132,252,79986,6,0,B|140:300|184:324,1,90,0|0,0:0|0:0,0:0:0:0:
132,152,80341,2,0,B|84:152|52:192,1,90,8|0,0:0|0:0,0:0:0:0:
232,216,80696,2,0,B|280:216|312:180,1,90,0|0,0:0|0:0,0:0:0:0:
384,36,81051,1,8,0:0:0:0:
416,52,81140,1,8,0:0:0:0:
444,76,81229,1,8,0:0:0:0:
468,100,81317,1,8,0:0:0:0:
480,136,81406,5,4,0:0:0:0:
232,216,81584,1,4,0:0:0:0:
396,308,81761,1,8,0:0:0:0:
316,80,81939,2,0,B|308:60|232:16|164:60|156:80,1,180,4|8,0:0|0:0,0:0:0:0:
124,108,82382,1,8,0:0:0:0:
100,144,82471,1,8,0:0:0:0:
84,188,82560,1,8,0:0:0:0:
88,232,82649,1,8,0:0:0:0:
104,272,82737,1,8,0:0:0:0:
136,304,82826,1,12,0:0:0:0:
256,192,82915,12,2,85666,0:0:0:0:
