osu file format v12

[General]
AudioFilename: OP.mp3
AudioLeadIn: 0
PreviewTime: 59395
Countdown: 0
SampleSet: Soft
StackLeniency: 0.7
Mode: 0
LetterboxInBreaks: 0
WidescreenStoryboard: 0

[Editor]
DistanceSpacing: 1.4
BeatDivisor: 4
GridSize: 4
TimelineZoom: 1

[Metadata]
Title:Kibou no Sora
TitleUnicode:キボウのソラ
Artist:Shimotsuki Haruka
ArtistUnicode:霜月はるか
Creator:kajiyatta
Version:Hard
Source:Kimi e Okuru, Sora no Hana
Tags:opening Cabbit visual novel eroge キミへ贈る、ソラの花
BeatmapID:261310
BeatmapSetID:97819

[Difficulty]
HPDrainRate:6
CircleSize:4
OverallDifficulty:6
ApproachRate:7
SliderMultiplier:1.5
SliderTickRate:1

[Events]
//Background and Video events
Video,0,"OP.avi"
0,0,"BG.jpg",0,0
//Break Periods
//Storyboard Layer 0 (Background)
//Storyboard Layer 1 (Fail)
//Storyboard Layer 2 (Pass)
//Storyboard Layer 3 (Foreground)
//Storyboard Sound Samples
//Background Colour Transformations
3,100,163,162,255

[TimingPoints]
1880,355.029585798817,4,2,0,100,1,0
3300,-133.333333333333,4,2,1,30,0,0
8980,-100,4,2,1,50,0,0
11820,-100,4,2,1,60,0,0
14661,-100,4,2,1,70,0,0
19986,-100,4,2,1,50,0,0
20341,-100,4,2,1,70,0,0
22826,-100,4,2,1,50,0,0
23181,-100,4,2,1,70,0,0
26022,-133.333333333333,4,2,1,30,0,0
37382,-100,4,2,1,60,0,0
59039,-100,4,2,1,40,0,0
60104,-100,4,2,1,70,0,1
60459,-100,4,2,1,80,0,1
65785,-100,4,2,1,70,0,1
66140,-100,4,2,1,80,0,1
70045,-100,4,2,1,60,0,1
70400,-100,4,2,1,80,0,1
70578,-100,4,2,1,60,0,1
70755,-100,4,2,1,80,0,1
70933,-100,4,2,1,60,0,1
71110,-100,4,2,1,50,0,0
71465,-100,4,2,1,70,0,1
71820,-100,4,2,1,80,0,1
76791,-100,4,2,1,50,0,1
77146,-100,4,2,1,70,0,1
77501,-100,4,2,1,80,0,1
81051,-100,4,2,1,50,0,1
81406,-100,4,2,1,70,0,1
82294,-100,4,2,1,50,0,1
82826,-100,4,2,1,50,0,0
84246,-100,4,2,1,40,0,0
85666,-100,4,2,1,30,0,0

[Colours]
Combo1 : 251,140,242
Combo2 : 63,183,254
Combo3 : 245,140,54
Combo4 : 69,211,44

[HitObjects]
100,120,3300,6,0,L|64:76,2,56.2500021457673,2|0|0,0:0|0:0|0:0,0:0:0:0:
176,104,3832,2,0,B|228:76|284:104,2,112.500004291535,2|0|2,0:0|0:0|0:0,0:0:0:0:
228,252,4897,2,0,L|188:292,2,56.2500021457673,0|2|2,0:0|0:0|0:0,0:0:0:0:
384,252,5607,2,0,L|424:292,2,56.2500021457673,2|0|0,0:0|0:0|0:0,0:0:0:0:
308,228,6140,5,2,0:0:0:0:
312,148,6317,1,2,0:0:0:0:
388,128,6495,1,0,0:0:0:0:
440,188,6672,2,0,B|488:216|508:276,2,112.500004291535,2|2|2,0:0|0:0|0:0,0:0:0:0:
312,328,7737,2,0,L|256:328,1,56.2500021457673,2|2,0:0|0:0,0:0:0:0:
188,276,8093,2,0,L|140:312,2,56.2500021457673,2|0|2,0:0|0:0|0:0,0:0:0:0:
256,228,8625,1,2,0:0:0:0:
256,64,8980,5,4,0:0:0:0:
256,64,10045,1,8,0:0:0:0:
188,160,10223,1,8,0:0:0:0:
256,64,10400,1,4,0:0:0:0:
256,64,10933,2,0,B|248:44|188:4|132:44|124:64,1,150,8|8,0:0|0:0,0:0:0:0:
188,160,11465,1,8,0:0:0:0:
256,332,11820,6,0,B|328:368|400:332,1,150,4|8,0:0|0:0,0:0:0:0:
400,216,12353,2,4,B|328:180|256:216,1,150,4|8,0:0|0:0,0:0:0:0:
112,272,12885,2,0,L|187:272,1,75,8|0,0:0|0:0,0:0:0:0:
52,340,13240,2,0,B|32:332|-8:272|32:216|52:208,1,150,4|8,0:0|0:0,0:0:0:0:
112,140,13773,2,0,B|129:147|169:203|129:263|112:272,1,150,4|8,0:0|0:0,0:0:0:0:
28,128,14306,2,0,L|4:96,3,37.5,8|8|8|8,0:0|0:0|0:0|0:0,0:0:0:0:
0,56,14661,6,0,B|48:4|144:24,1,150,4|8,0:0|0:0,0:0:0:0:
208,72,15193,1,0,0:0:0:0:
292,72,15371,2,0,L|344:16,2,75,0|0|8,0:0|0:0|0:0,0:0:0:0:
248,144,15903,2,0,B|204:212|248:288,1,150
396,268,16436,2,0,B|360:252|324:268,1,75,8|0,0:0|0:0,0:0:0:0:
212,368,16791,2,0,B|248:384|284:368,1,75
396,268,17146,2,0,B|432:248|440:208,1,75,8|0,0:0|0:0,0:0:0:0:
248,144,17501,6,0,B|168:176|144:248,1,150,0|8,0:0|0:0,0:0:0:0:
80,300,18033,2,0,B|86:316|142:356|202:316|210:296,1,150
64,220,18566,2,0,B|24:228|4:260,1,75,8|0,0:0|0:0,0:0:0:0:
80,144,18921,2,0,B|44:124|40:84,2,75,0|0|8,0:0|0:0|0:0,0:0:0:0:
128,76,19453,2,0,B|196:40|272:76,1,150
320,144,19986,2,0,L|360:144,3,37.5,8|8|8|8,0:0|0:0|0:0|0:0,0:0:0:0:
388,144,20341,6,0,B|468:180|468:260,1,150,4|8,0:0|0:0,0:0:0:0:
408,320,20874,2,0,B|336:288|260:320,1,150
188,284,21406,2,0,B|204:252|248:240,1,75,8|0,0:0|0:0,0:0:0:0:
136,348,21761,2,0,B|100:364|64:348,1,75
0,264,22116,2,0,B|24:236|68:236,1,75,8|0,0:0|0:0,0:0:0:0:
80,124,22471,2,0,B|116:130|138:168,1,75
188,284,22826,2,0,L|228:284,3,37.5,8|8|8|8,0:0|0:0|0:0|0:0,0:0:0:0:
264,284,23181,6,0,B|292:312|332:312,2,75,4|0|8,0:0|0:0|0:0,0:0:0:0:
268,156,23714,2,0,B|348:156|400:216,1,150,4|8,0:0|0:0,0:0:0:0:
460,336,24246,2,0,B|496:316|504:276,1,75,8|0,0:0|0:0,0:0:0:0:
464,132,24601,2,0,B|500:152|507:190,2,75,4|8|8,0:0|0:0|0:0,0:0:0:0:
364,44,25134,2,0,B|292:8|220:44,1,150,4|4,0:0|0:0,0:0:0:0:
56,216,26022,6,0,B|48:244|56:272,1,56.2500021457673,2|0,0:0|0:0,0:0:0:0:
132,248,26377,2,0,B|184:276|240:248,1,112.500004291535,0|8,0:0|0:0,0:0:0:0:
352,192,26909,2,0,L|296:192,1,56.2500021457673,0|0,0:0|0:0,0:0:0:0:
416,244,27264,2,0,B|436:232|452:192|436:156|416:144,2,112.500004291535,0|0|2,0:0|0:0|0:0,0:0:0:0:
352,292,28152,2,0,L|388:336,2,56.2500021457673,0|2|8,0:0|0:0|0:0,0:0:0:0:
280,324,28684,1,0,0:0:0:0:
208,292,28862,6,0,L|172:336,1,56.2500021457673,2|0,0:0|0:0,0:0:0:0:
156,220,29217,2,0,B|168:200|208:184|244:200|256:220,1,112.500004291535,0|8,0:0|0:0,0:0:0:0:
208,292,29749,2,0,B|197:309|161:325|121:309|109:289,1,112.500004291535,0|0,0:0|0:0,0:0:0:0:
44,192,30282,1,2,0:0:0:0:
44,192,30637,2,0,B|12:136|44:84,2,112.500004291535,0|0|2,0:0|0:0|0:0,0:0:0:0:
120,156,31524,1,0,0:0:0:0:
44,276,31702,1,2,0:0:0:0:
352,136,32412,6,0,L|408:136,2,56.2500021457673,8|0|0,0:0|0:0|0:0,0:0:0:0:
468,85,32945,2,0,B|500:136|468:192,1,112.500004291535,0|0,0:0|0:0,0:0:0:0:
380,240,33477,1,0,0:0:0:0:
288,192,33655,2,0,L|248:232,1,56.2500021457673,2|0,0:0|0:0,0:0:0:0:
288,80,34187,1,2,0:0:0:0:
288,80,34365,6,0,L|248:40,2,56.2500021457673,0|2|0,0:0|0:0|0:0,0:0:0:0:
344,136,34897,1,0,0:0:0:0:
288,192,35075,2,0,B|232:192|188:236,2,112.500004291535,0|0|0,0:0|0:0|0:0,0:0:0:0:
236,312,35962,1,2,0:0:0:0:
168,380,36140,1,0,0:0:0:0:
80,348,36317,1,2,0:0:0:0:
88,252,36495,1,2,0:0:0:0:
88,252,36850,2,0,L|56:204,2,56.2500021457673,8|8|0,0:0|0:0|0:0,0:0:0:0:
92,120,37382,6,0,B|104:88|148:68,1,75,4|0,0:0|0:0,0:0:0:0:
176,148,37737,2,0,B|244:184|320:148,1,150,8|8,0:0|0:0,0:0:0:0:
400,120,38270,2,0,B|384:84|344:72,2,75
384,200,38803,2,0,B|384:240|412:268,1,75,8|0,0:0|0:0,0:0:0:0:
484,308,39158,1,8,0:0:0:0:
432,372,39335,1,0,0:0:0:0:
356,340,39513,2,0,B|304:280|220:280,1,150,8|8,0:0|0:0,0:0:0:0:
152,320,40045,1,0,0:0:0:0:
48,252,40223,6,0,B|12:272|8:312,2,75,8|0|8,0:0|0:0|0:0,0:0:0:0:
112,196,40755,1,0,0:0:0:0:
68,124,40933,2,0,B|52:88|68:52,1,75,8|0,0:0|0:0,0:0:0:0:
152,52,41288,2,0,B|168:88|152:124,1,75,8|0,0:0|0:0,0:0:0:0:
112,196,41643,2,0,B|184:228|260:196,1,150,8|8,0:0|0:0,0:0:0:0:
304,128,42175,1,0,0:0:0:0:
384,164,42353,2,0,B|409:193|449:197,1,75,8|0,0:0|0:0,0:0:0:0:
377,77,42708,2,0,B|352:48|312:44,1,75,8|0,0:0|0:0,0:0:0:0:
328,224,43063,6,0,B|328:304|400:348,2,150,8|8|8,0:0|0:0|0:0,0:0:0:0:
384,164,43951,2,0,B|448:116,2,75,0|8|0,0:0|0:0|0:0,0:0:0:0:
328,104,44483,2,0,B|256:72|180:104,1,150,8|8,0:0|0:0,0:0:0:0:
44,108,45016,2,0,B|72:144|108:144,1,75,0|8,0:0|0:0,0:0:0:0:
140,252,45371,1,0,0:0:0:0:
140,252,45548,2,0,B|176:225|176:189,1,75,8|0,0:0|0:0,0:0:0:0:
77,307,45903,6,0,B|84:324|140:364|200:324|208:304,1,150,8|8,0:0|0:0,0:0:0:0:
256,240,46436,2,0,B|263:223|319:183|379:223|387:243,1,150
504,316,46968,2,0,B|468:332|432:316,1,75,8|0,0:0|0:0,0:0:0:0:
432,160,47323,2,0,B|468:144|504:160,2,75,8|0|8,0:0|0:0|0:0,0:0:0:0:
388,88,47856,2,0,L|408:56,2,37.5,0|8|8,0:0|0:0|0:0,0:0:0:0:
300,192,48211,1,0,0:0:0:0:
432,160,48388,1,8,0:0:0:0:
308,108,48566,1,0,0:0:0:0:
376,224,48743,6,0,B|376:304|300:344,2,150,4|8|8,0:0|0:0|0:0,0:0:0:0:
300,192,49631,2,0,B|264:208|228:192,1,75
104,124,49986,2,0,B|140:108|176:124,1,75,8|0,0:0|0:0,0:0:0:0:
140,200,50341,2,0,L|140:276,2,75,8|8|0,0:0|0:0|0:0,0:0:0:0:
76,324,50874,2,0,B|83:341|140:380|199:341|207:321,1,150,8|0,0:0|0:0,0:0:0:0:
256,256,51406,1,8,0:0:0:0:
388,200,51584,6,0,B|352:184|316:200,1,75,8|0,0:0|0:0,0:0:0:0:
352,276,51939,2,0,B|376:308|416:308,1,75,0|0,0:0|0:0,0:0:0:0:
504,168,52294,2,0,B|480:136|440:136,1,75,8|0,0:0|0:0,0:0:0:0:
372,88,52649,1,0,0:0:0:0:
316,148,52826,2,0,B|244:180|168:148,1,150,8|8,0:0|0:0,0:0:0:0:
96,108,53359,2,0,B|116:76|156:68,1,75,8|0,0:0|0:0,0:0:0:0:
96,188,53714,2,0,B|75:219|35:228,1,75,8|0,0:0|0:0,0:0:0:0:
160,240,54069,1,0,0:0:0:0:
160,240,54424,6,0,B|192:316|280:316,1,150,4|0,0:0|0:0,0:0:0:0:
336,256,54956,1,0,0:0:0:0:
420,256,55134,2,0,B|432:292|472:312,2,75,8|0|0,0:0|0:0|0:0,0:0:0:0:
376,188,55666,2,0,B|376:108|296:64,1,150,8|8,0:0|0:0,0:0:0:0:
168,124,56199,2,0,B|204:136|244:124,1,75,8|0,0:0|0:0,0:0:0:0:
108,64,56554,2,0,B|32:105|32:185,1,150,8|0,0:0|0:0,0:0:0:0:
84,252,57087,1,8,0:0:0:0:
148,304,57264,6,0,B|216:344|292:304,1,150,8|8,0:0|0:0,0:0:0:0:
428,252,57797,2,0,B|392:236|356:252,1,75,0|8,0:0|0:0,0:0:0:0:
392,328,58152,1,8,0:0:0:0:
444,172,58329,1,8,0:0:0:0:
500,328,58507,1,8,0:0:0:0:
224,48,59039,6,0,L|184:48,3,37.5,8|8|8|8,0:0|0:0|0:0|0:0,0:0:0:0:
156,48,59394,6,0,B|116:48|88:76,1,75,8|0,0:0|0:0,0:0:0:0:
132,212,59749,2,0,B|156:180|148:140,1,75,8|0,0:0|0:0,0:0:0:0:
20,212,60104,6,0,B|3:219|-37:275|3:335|23:343,1,150,4|8,0:0|0:0,0:0:0:0:
76,276,60637,1,0,0:0:0:0:
183,262,60814,2,0,B|168:224|132:212,1,75,0|0,0:0|0:0,0:0:0:0:
76,276,61169,1,8,0:0:0:0:
212,348,61347,2,0,B|284:384|356:348,1,150,0|0,0:0|0:0,0:0:0:0:
472,272,61880,2,0,B|436:256|400:272,1,75,8|0,0:0|0:0,0:0:0:0:
400,132,62235,2,0,B|368:155|364:194,1,75,0|0,0:0|0:0,0:0:0:0:
244,164,62590,2,0,B|248:203|280:226,1,75,8|0,0:0|0:0,0:0:0:0:
212,348,62945,6,0,B|140:384|68:348,1,150,0|8,0:0|0:0,0:0:0:0:
28,276,63477,1,0,0:0:0:0:
100,236,63655,2,0,B|116:200|100:164,2,75,0|0|8,0:0|0:0|0:0,0:0:0:0:
28,276,64187,1,0,0:0:0:0:
36,112,64365,2,0,B|43:93|100:56|159:93|166:110,1,150,0|8,0:0|0:0,0:0:0:0:
228,168,64897,1,0,0:0:0:0:
280,232,65075,2,0,B|316:232|352:208,1,75,0|0,0:0|0:0,0:0:0:0:
467,171,65430,2,0,B|444:144|400:144,1,75,8|0,0:0|0:0,0:0:0:0:
280,232,65785,6,0,B|280:312|204:352,1,150,4|8,0:0|0:0,0:0:0:0:
96,252,66317,2,0,B|136:252|164:280,1,75,0|0,0:0|0:0,0:0:0:0:
44,316,66672,2,0,B|8:296|8:252,1,75,0|8,0:0|0:0,0:0:0:0:
12,120,67027,2,0,B|48:140|48:184,1,75
96,252,67382,2,0,B|132:268|168:252,1,75,0|8,0:0|0:0,0:0:0:0:
232,196,67737,2,0,B|268:120|352:120,1,150,0|0,0:0|0:0,0:0:0:0:
480,188,68270,2,0,B|444:204|408:188,1,75,8|0,0:0|0:0,0:0:0:0:
408,52,68625,6,0,B|444:36|480:52,2,75,0|0|8,0:0|0:0|0:0,0:0:0:0:
350,120,69158,2,0,B|276:156|204:120,1,150,0|0,0:0|0:0,0:0:0:0:
88,52,69690,2,0,B|124:36|160:52,1,75,8|0,0:0|0:0,0:0:0:0:
48,132,70045,6,0,B|8:116|0:76,2,75,4|4|8,0:0|0:0|0:0,0:0:0:0:
104,192,70578,1,4,0:0:0:0:
0,305,70755,2,0,B|8:268|48:252,1,75,0|4,0:0|0:0,0:0:0:0:
104,192,71110,2,0,L|144:192,3,37.5,8|8|8|8,0:0|0:0|0:0|0:0,0:0:0:0:
172,192,71465,6,0,B|248:192|300:120,1,150,4|8,0:0|0:0,0:0:0:0:
380,104,71998,1,0,0:0:0:0:
432,168,72175,2,0,B|404:192|404:236,2,75,0|0|8,0:0|0:0|0:0,0:0:0:0:
468,296,72708,2,0,B|461:313|402:350|345:313|338:294,1,150,0|0,0:0|0:0,0:0:0:0:
220,224,73240,2,0,B|256:208|292:224,1,75,8|0,0:0|0:0,0:0:0:0:
172,296,73595,2,0,B|136:312|100:296,1,75
52,228,73951,1,8,0:0:0:0:
100,160,74128,1,0,0:0:0:0:
220,224,74306,6,0,B|288:264|364:224,1,150,0|8,0:0|0:0,0:0:0:0:
416,160,74838,1,0,0:0:0:0:
476,216,75016,2,0,B|508:240|508:284,1,75
416,160,75371,2,0,B|384:136|384:92,1,75,8|0,0:0|0:0,0:0:0:0:
328,32,75726,2,0,B|256:-4|184:32,1,150,0|8,0:0|0:0,0:0:0:0:
136,100,76258,1,0,0:0:0:0:
52,100,76436,2,0,B|16:76|16:32,1,75,0|0,0:0|0:0,0:0:0:0:
92,176,76791,2,0,L|92:216,3,37.5,8|8|8|8,0:0|0:0|0:0|0:0,0:0:0:0:
92,244,77146,6,0,B|124:320|212:320,1,150,4|8,0:0|0:0,0:0:0:0:
256,252,77678,2,0,B|324:212|400:252,1,150,0|0,0:0|0:0,0:0:0:0:
508,316,78211,2,0,B|484:343|440:343,1,75,8|0,0:0|0:0,0:0:0:0:
496,216,78566,2,0,B|496:136|420:96,1,150,0|8,0:0|0:0,0:0:0:0:
348,132,79098,2,0,B|272:168|204:132,1,150,0|0,0:0|0:0,0:0:0:0:
68,100,79631,2,0,B|96:72|136:72,1,75,8|0,0:0|0:0,0:0:0:0:
136,216,79986,6,0,B|96:216|68:188,1,75,0|0,0:0|0:0,0:0:0:0:
212,184,80341,2,0,B|228:220|212:256,1,75,8|0,0:0|0:0,0:0:0:0:
136,372,80696,2,0,B|120:336|136:300,1,75,0|0,0:0|0:0,0:0:0:0:
212,336,81051,2,0,L|252:336,3,37.5,8|8|8|8,0:0|0:0|0:0|0:0,0:0:0:0:
280,336,81406,6,0,L|332:280,2,75,4|4|8,0:0|0:0|0:0,0:0:0:0:
416,270,81939,2,0,B|419:250|387:186|318:192|304:204,1,150,4|8,0:0|0:0,0:0:0:0:
156,152,82471,2,0,B|168:184|208:204,1,75,8|0,0:0|0:0,0:0:0:0:
256,76,82826,1,12,0:0:0:0:
256,192,82915,12,2,85666,0:0:0:0:
