osu file format v12

[General]
AudioFilename: OP.mp3
AudioLeadIn: 0
PreviewTime: 59395
Countdown: 0
SampleSet: Soft
StackLeniency: 0.7
Mode: 0
LetterboxInBreaks: 0
WidescreenStoryboard: 0

[Editor]
DistanceSpacing: 1
BeatDivisor: 4
GridSize: 4
TimelineZoom: 1

[Metadata]
Title:Kibou no Sora
TitleUnicode:キボウのソラ
Artist:Shimotsuki Haruka
ArtistUnicode:霜月はるか
Creator:kajiyatta
Version:Easy
Source:Kimi e Okuru, Sora no Hana
Tags:opening Cabbit visual novel eroge キミへ贈る、ソラの花
BeatmapID:268764
BeatmapSetID:97819

[Difficulty]
HPDrainRate:2
CircleSize:3
OverallDifficulty:2
ApproachRate:3
SliderMultiplier:0.8
SliderTickRate:1

[Events]
//Background and Video events
Video,0,"OP.avi"
0,0,"BG.jpg",0,0
//Break Periods
//Storyboard Layer 0 (Background)
//Storyboard Layer 1 (Fail)
//Storyboard Layer 2 (Pass)
//Storyboard Layer 3 (Foreground)
//Storyboard Sound Samples
//Background Colour Transformations
3,100,163,162,255

[TimingPoints]
1880,355.029585798817,4,2,0,100,1,0
3300,-100,4,2,2,30,0,0
8980,-100,4,2,1,50,0,0
10400,-100,4,2,1,30,0,0
11820,-100,4,2,1,60,0,0
12530,-100,4,2,2,20,0,0
12885,-100,4,2,1,60,0,0
13951,-100,4,2,2,20,0,0
14306,-100,4,2,1,60,0,0
14661,-100,4,2,1,70,0,0
19631,-100,4,2,1,20,0,0
19986,-100,4,2,1,70,0,0
21051,-100,4,2,1,20,0,0
21406,-100,4,2,1,70,0,0
23891,-100,4,2,2,20,0,0
24246,-100,4,2,1,70,0,0
26022,-100,4,2,2,40,0,0
26732,-100,4,2,1,40,0,0
27087,-100,4,2,2,40,0,0
29572,-100,4,2,1,40,0,0
29927,-100,4,2,2,40,0,0
32412,-100,4,2,1,40,0,0
32767,-100,4,2,2,40,0,0
35252,-100,4,2,1,40,0,0
35607,-100,4,2,2,40,0,0
37027,-100,4,2,1,60,0,0
49808,-100,4,2,1,20,0,0
50164,-100,4,2,1,60,0,0
52649,-100,4,2,1,20,0,0
53004,-100,4,2,1,60,0,0
54779,-100,4,2,1,20,0,0
55134,-100,4,2,1,60,0,0
60104,-100,4,2,1,70,0,1
60459,-100,4,2,1,80,0,1
63655,-100,4,2,2,50,0,1
64010,-100,4,2,1,80,0,1
65785,-100,4,2,1,70,0,1
66140,-100,4,2,1,80,0,1
66495,-100,4,2,1,20,0,1
66850,-100,4,2,1,80,0,1
70045,-100,4,2,1,70,0,1
70400,-100,4,2,1,80,0,1
71110,-100,4,2,1,80,0,0
71465,-100,4,2,1,70,0,1
71820,-100,4,2,1,80,0,1
77146,-100,4,2,1,70,0,1
77501,-100,4,2,1,80,0,1
81406,-100,4,2,1,70,0,1
81761,-100,4,2,1,20,0,1
81939,-100,4,2,1,70,0,1
82116,-100,4,2,1,20,0,1
82471,-100,4,2,1,70,0,1
82826,-100,4,2,1,50,0,0
84246,-100,4,2,1,40,0,0
85666,-100,4,2,1,30,0,0

[Colours]
Combo1 : 251,140,242
Combo2 : 63,183,254
Combo3 : 245,140,54
Combo4 : 69,211,44

[HitObjects]
256,72,3300,6,0,B|192:72|144:112,1,120,2|2,0:0|0:0,0:0:0:0:
80,260,4542,2,0,L|80:344,2,80,2|2|2,0:0|0:0|0:0,0:0:0:0:
204,260,5785,1,2,0:0:0:0:
252,196,6140,6,0,B|296:152|364:152,1,120,2|2,0:0|0:0,0:0:0:0:
432,188,7027,2,0,L|484:256,2,80,2|2|2,0:0|0:0|0:0,0:0:0:0:
432,108,8093,2,0,B|432:44|356:24,1,120,2|2,0:0|0:0,0:0:0:0:
256,192,8980,12,8,10400,0:0:0:0:
216,88,11820,6,0,B|180:36|108:36,2,120,4|4|8,0:0|0:0|0:0,0:0:0:0:
296,88,13240,2,0,B|332:36|404:36,2,120,4|4|8,0:0|0:0|0:0,0:0:0:0:
256,156,14661,6,0,B|300:232|256:308,1,160,4|0,0:0|0:0,0:0:0:0:
180,336,15726,1,8,0:0:0:0:
104,308,16081,2,0,B|60:232|104:156,1,160
180,128,17146,1,8,0:0:0:0:
256,156,17501,6,0,B|304:88|400:104,1,160,0|0,0:0|0:0,0:0:0:0:
460,156,18566,1,8,0:0:0:0:
436,232,18921,2,0,B|480:276|480:340,2,120,0|0|8,0:0|0:0|0:0,0:0:0:0:
356,232,20341,6,0,B|312:276|312:340,2,120,4|0|8,0:0|0:0|0:0,0:0:0:0:
392,160,21761,2,0,B|392:120|356:92,1,80,0|8,0:0|0:0,0:0:0:0:
276,108,22471,2,0,B|240:124|196:108,1,80,0|8,0:0|0:0,0:0:0:0:
128,68,23181,6,0,B|92:16|24:16,2,120,4|4|8,0:0|0:0|0:0,0:0:0:0:
124,148,24601,2,0,B|68:176|56:244,1,120,4|4,0:0|0:0,0:0:0:0:
104,308,25489,1,4,0:0:0:0:
224,308,26022,6,0,B|232:332|292:368|352:332|360:308,2,160,2|8|2,0:0|0:0|0:0,0:0:0:0:
164,252,27797,1,0,0:0:0:0:
224,200,28152,2,0,B|256:176|256:128,1,80,0|0,0:0|0:0,0:0:0:0:
224,56,28862,6,0,B|216:32|156:-4|96:32|88:56,2,160,2|8|2,0:0|0:0|0:0,0:0:0:0:
292,92,30637,2,0,L|360:48,2,80,0|0|2,0:0|0:0|0:0,0:0:0:0:
256,164,31702,5,2,0:0:0:0:
100,192,32412,2,0,B|80:228|100:268,1,80,8|0,0:0|0:0,0:0:0:0:
164,316,33122,2,0,B|208:272|272:272,1,120,0|2,0:0|0:0,0:0:0:0:
452,192,34542,6,0,B|468:152|452:112,2,80,2|0|8,0:0|0:0|0:0,0:0:0:0:
380,228,35607,1,0,0:0:0:0:
308,196,35962,2,0,B|276:140|308:80,2,120,2|2|8,0:0|0:0|0:0,0:0:0:0:
316,276,37382,6,0,B|316:316|284:348,1,80,4|0,0:0|0:0,0:0:0:0:
232,284,38093,2,0,B|196:268|152:284,1,80,8|8,0:0|0:0,0:0:0:0:
72,272,38803,2,0,B|72:316|100:344,2,80,8|8|8,0:0|0:0|0:0,0:0:0:0:
120,208,39868,1,8,0:0:0:0:
68,148,40223,6,0,B|68:108|100:76,2,80,8|8|8,0:0|0:0|0:0,0:0:0:0:
120,208,41288,1,8,0:0:0:0:
188,252,41643,1,8,0:0:0:0:
256,208,41998,2,0,B|284:172|328:172,1,80,8|8,0:0|0:0,0:0:0:0:
404,188,42708,1,8,0:0:0:0:
460,244,43063,6,0,B|460:328|372:364,2,160,8|8|8,0:0|0:0|0:0,0:0:0:0:
472,164,44838,1,8,0:0:0:0:
432,96,45193,2,0,B|420:64|376:40,1,80,8|8,0:0|0:0,0:0:0:0:
300,68,45903,6,0,B|224:108|144:68,1,160,8|8,0:0|0:0,0:0:0:0:
68,52,46968,1,8,0:0:0:0:
16,112,47323,2,0,B|-36:184|16:260,1,160,8|8,0:0|0:0,0:0:0:0:
92,240,48388,1,8,0:0:0:0:
168,260,48743,6,0,B|248:260|308:328,2,160,4|8|0,0:0|0:0|0:0,0:0:0:0:
92,240,50519,2,0,L|92:320,2,80,8|8|0,0:0|0:0|0:0,0:0:0:0:
28,192,51584,6,0,B|-16:112|28:40,2,160,8|8|0,0:0|0:0|0:0,0:0:0:0:
108,192,53359,2,0,L|176:140,2,80,8|8|0,0:0|0:0|0:0,0:0:0:0:
72,264,54424,6,0,B|124:336|212:336,1,160,4|8,0:0|0:0,0:0:0:0:
288,328,55489,1,0,0:0:0:0:
360,292,55844,2,0,B|432:244|432:156,1,160,0|8,0:0|0:0,0:0:0:0:
404,80,56909,1,0,0:0:0:0:
340,32,57264,6,0,B|300:16|260:32,1,80,8|0,0:0|0:0,0:0:0:0:
208,88,57974,2,0,B|172:144|208:200,1,120,8|8,0:0|0:0,0:0:0:0:
60,296,60104,6,0,B|12:224|60:144,1,160,4|0,0:0|0:0,0:0:0:0:
108,84,61169,2,0,L|56:24,2,80,8|0|8,0:0|0:0|0:0,0:0:0:0:
168,140,62235,2,0,B|208:156|248:140,1,80,0|8,0:0|0:0,0:0:0:0:
304,84,62945,6,0,B|348:40|412:40,2,120,0|0|8,0:0|0:0|0:0,0:0:0:0:
324,160,64365,2,0,B|336:200|380:216,1,80,0|8,0:0|0:0,0:0:0:0:
448,252,65075,2,0,B|476:284|476:324,1,80,0|8,0:0|0:0,0:0:0:0:
400,352,65785,6,0,B|324:392|244:352,1,160,4|0,0:0|0:0,0:0:0:0:
188,296,66850,1,8,0:0:0:0:
148,228,67205,2,0,L|204:164,2,80,0|8|0,0:0|0:0|0:0,0:0:0:0:
68,228,68270,1,8,0:0:0:0:
12,168,68625,6,0,B|32:84|120:56,1,160,0|0,0:0|0:0,0:0:0:0:
184,100,69690,1,8,0:0:0:0:
252,56,70045,2,0,B|336:82|356:166,2,160,4|4|4,0:0|0:0|0:0,0:0:0:0:
184,100,71820,5,8,0:0:0:0:
136,164,72175,2,0,B|120:200|136:244,1,80,0|8,0:0|0:0,0:0:0:0:
188,304,72885,2,0,B|140:368,2,80,0|8|0,0:0|0:0|0:0,0:0:0:0:
256,260,73951,1,8,0:0:0:0:
324,304,74306,6,0,B|372:368,2,80,0|8|0,0:0|0:0|0:0,0:0:0:0:
256,260,75371,1,8,0:0:0:0:
216,188,75726,2,0,B|196:152|216:112,1,80,0|8,0:0|0:0,0:0:0:0:
296,112,76436,2,0,B|316:152|296:188,1,80,0|8,0:0|0:0,0:0:0:0:
256,260,77146,6,0,B|180:304|104:260,1,160,4|0,0:0|0:0,0:0:0:0:
68,188,78211,1,8,0:0:0:0:
104,116,78566,2,0,B|104:76|68:48,2,80,0|8|0,0:0|0:0|0:0,0:0:0:0:
184,116,79631,1,8,0:0:0:0:
224,188,79986,6,0,B|268:188|296:216,2,80,0|8|0,0:0|0:0|0:0,0:0:0:0:
184,256,81051,1,8,0:0:0:0:
104,256,81406,2,0,B|40:228|40:164,2,120,4|4|8,0:0|0:0|0:0,0:0:0:0:
256,192,82826,12,2,85666,0:0:0:0:
