osu file format v14

[General]
AudioFilename: kibou no sora.mp3
AudioLeadIn: 1200
PreviewTime: 171524
Countdown: 0
SampleSet: Soft
StackLeniency: 0.8
Mode: 0
LetterboxInBreaks: 1
WidescreenStoryboard: 0

[Editor]
Bookmarks: 15311,53209,177914
DistanceSpacing: 1
BeatDivisor: 4
GridSize: 4
TimelineZoom: 1

[Metadata]
Title:Kibou no Sora
TitleUnicode:キボウのソラ
Artist:Shimotsuki Haruka
ArtistUnicode:霜月はるか
Creator:PinkHeart
Version:Normal
Source:キミへ贈る、ソラの花
Tags:galgame opening Eggache0 imoutosan Laurier Kihhou cabbit Kimi e Okuru, Sora no Hana
BeatmapID:312484
BeatmapSetID:109900

[Difficulty]
HPDrainRate:3
CircleSize:3
OverallDifficulty:4
ApproachRate:5.3
SliderMultiplier:0.99999990463257
SliderTickRate:1

[Events]
//Background and Video events
0,0,"BG.jpg",0,0
//Break Periods
2,82966,84453
2,151132,159719
//Storyboard Layer 0 (Background)
//Storyboard Layer 1 (Fail)
//Storyboard Layer 2 (Pass)
//Storyboard Layer 3 (Foreground)
//Storyboard Sound Samples

[TimingPoints]
400,355.029585798817,4,2,0,30,1,0
488,-100,4,2,2,30,0,0
1465,-100,4,2,2,10,0,0
1642,-100,4,2,2,30,0,0
2352,-100,4,2,2,20,0,0
3240,-100,4,2,0,30,0,0
3328,-100,4,2,2,30,0,0
4305,-100,4,2,2,10,0,0
4482,-100,4,2,2,30,0,0
5192,-100,4,2,2,20,0,0
6080,-100,4,2,1,40,0,0
11760,-100,4,2,1,50,0,0
23121,-100,4,2,1,30,0,0
34482,-100,4,2,1,40,0,0
45843,-100,4,2,1,50,0,0
57204,-100,4,2,1,50,0,1
66435,-100,4,2,1,50,0,1
67145,-100,4,2,1,50,0,0
68565,-100,4,2,1,50,0,1
79926,-100,4,2,1,50,0,0
85607,-100,4,2,1,40,0,0
91287,-100,4,2,1,50,0,0
101228,-100,4,2,2,50,0,0
102115,-100,4,2,1,40,0,0
102648,-100,4,2,1,50,0,0
125370,-100,4,2,1,50,0,1
135311,-100,4,2,1,50,0,0
136731,-100,4,2,1,50,0,1
148092,-100,4,2,1,50,0,0
160873,-100,4,2,0,30,0,0
161938,-100,4,2,0,10,0,0
162115,-100,4,2,2,30,0,0
162826,-100,4,2,2,20,0,0
163713,-100,4,2,0,30,0,0
164778,-100,4,2,0,10,0,0
164956,-100,4,2,2,30,0,0
165666,-100,4,2,2,20,0,0
166198,-100,4,2,1,20,0,0
166553,-100,4,2,1,40,0,0
167973,-100,4,2,1,50,0,0
169749,-100,4,2,3,30,0,0
170104,-100,4,2,1,40,0,0
172234,-100,4,2,1,60,0,0
175074,-100,4,2,1,50,0,0
180755,-100,4,2,1,60,0,0
181110,-100,4,2,3,60,0,0
181287,-100,4,2,1,40,0,0
183595,-100,4,2,1,50,0,1
192471,-100,4,2,3,50,0,1
192648,-100,4,2,1,50,0,1
193536,-100,4,2,1,50,0,0
194956,-100,4,2,1,55,0,1
204897,-100,4,2,1,55,0,0
206317,-100,4,2,1,50,0,1
217678,-100,4,2,2,40,0,0
217855,-100,4,2,2,30,0,0
224778,571.428571428571,4,2,1,30,1,0
224778,-80,4,2,1,30,0,0
226376,631.578947368421,4,2,1,30,1,0
228270,750,4,2,2,30,1,0
230707,355.029585798817,4,2,2,30,1,0

[Colours]
Combo1 : 255,255,170
Combo2 : 255,170,255
Combo3 : 170,170,255
Combo4 : 170,255,213

[HitObjects]
216,148,400,6,0,P|208:212|256:280,2,149.999985694885,2|0|0,0:0|0:0|0:0,0:0:0:0:
240,104,1642,2,0,P|192:96|72:176,1,199.999980926514,4|0,0:0|0:0,0:0:0:0:
148,304,2885,1,0,0:0:0:0:
248,248,3240,6,0,P|263:319|227:383,1,149.999985694886,2|0,0:0|0:0,0:0:0:0:
148,304,4127,1,0,0:0:0:0:
148,191,4482,2,0,P|208:143|324:163,1,199.999980926514
436,268,5725,1,0,0:0:0:0:
428,168,6080,5,4,0:0:0:0:
332,300,7145,2,0,L|300:356,2,49.9999952316285,8|8|4,0:0|3:0|0:0,0:0:0:0:
468,248,8033,1,0,0:0:0:0:
468,148,8388,2,0,L|468:92,1,49.9999952316285,8,3:0,0:0:0:0:
372,136,8920,6,0,P|320:144|276:128,1,99.999990463257,4|0,0:0|1:0,0:0:0:0:
232,104,9453,2,0,P|188:146|173:232,1,149.999985694886,4|0,0:0|1:0,0:0:0:0:
260,284,10340,6,0,P|312:272|352:296,1,99.999990463257,4|8,0:0|0:0,0:0:0:0:
364,344,10873,2,0,L|424:204,1,149.999985694886,4|8,0:0|0:0,0:0:0:0:
444,108,11760,5,12,0:0:0:0:
348,128,12115,2,0,P|300:153|278:192,2,99.999990463257,8|0|8,0:0|0:0|0:0,0:0:0:0:
370,225,13181,2,0,P|344:267|300:289,2,99.999990463257,0|8|0,0:0|0:0|0:0,0:0:0:0:
278,192,14246,1,8,0:0:0:0:
244,100,14601,6,0,L|330:48,1,99.999990463257,0|8,0:0|0:0,0:0:0:0:
364,144,15311,2,0,L|450:92,1,99.999990463257,0|8,0:0|0:0,0:0:0:0:
468,192,16021,2,0,P|500:232|496:328,2,149.999985694886,4|8|8,0:0|0:0|0:0,0:0:0:0:
416,276,17441,5,4,0:0:0:0:
340,344,17796,2,0,P|292:360|244:352,2,99.999990463257,8|0|8,0:0|0:0|0:0,0:0:0:0:
416,276,18861,2,0,P|444:224|440:184,1,99.999990463257,0|8,0:0|0:0,0:0:0:0:
368,116,19571,2,0,P|340:168|344:208,1,99.999990463257,0|8,0:0|0:0,3:0:0:0:
320,304,20281,6,0,P|270:284|225:286,1,99.999990463257,4|8,0:0|0:0,0:0:0:0:
176,300,20814,2,0,B|120:312|85:298|85:298|100:272|100:236,1,149.999985694886,4|0,0:0|0:0,0:0:0:0:
95,144,21701,1,4,0:0:0:0:
95,144,21879,2,0,L|144:156,1,49.9999952316285,0|8,1:0|0:0,0:0:0:0:
192,156,22234,2,0,L|294:131,1,99.999990463257,4|4,0:0|0:0,0:0:0:0:
440,104,23121,6,0,P|465:199|434:292,1,199.999980926514,0|2,0:0|0:0,0:0:0:0:
276,168,24542,1,0,0:0:0:0:
312,364,25252,1,0,0:0:0:0:
140,256,25962,6,0,P|92:204|88:80,1,199.999980926514
284,48,27382,1,0,0:0:0:0:
228,240,28092,2,0,L|328:224,2,99.999990463257
32,280,29512,6,0,P|77:212|184:163,2,199.999980926514
232,264,31642,2,0,P|293:186|305:88,1,199.999980926514
507,59,33062,6,0,P|465:119|392:128,1,149.999985694886,2|2,0:0|0:0,0:0:0:0:
305,88,33950,1,2,0:0:0:0:
305,88,34127,1,8,0:0:0:0:
212,128,34482,6,0,L|120:84,1,99.999990463257,4|2,0:0|0:0,0:0:0:0:
112,184,35192,2,0,L|202:227,1,99.999990463257,2|2,0:0|0:0,0:0:0:0:
252,228,35725,1,0,0:0:0:0:
300,216,35902,2,0,P|355:177|370:148,2,99.999990463257,2|2|2,0:0|0:0|0:0,0:0:0:0:
204,240,36968,1,2,0:0:0:0:
104,236,37323,6,0,P|48:274|33:303,1,99.999990463257,2|2,0:0|0:0,0:0:0:0:
40,352,37855,1,0,0:0:0:0:
84,376,38033,2,0,P|146:352|169:328,1,99.999990463257,2|2,0:0|0:0,0:0:0:0:
244,264,38743,1,2,0:0:0:0:
312,340,39098,1,2,0:0:0:0:
396,284,39453,1,2,0:0:0:0:
480,228,39808,1,2,0:0:0:0:
480,128,40163,6,0,B|416:132|388:188|388:188|300:188,1,199.999980926514,2|2,0:0|0:0,0:0:0:0:
160,332,41583,2,0,B|240:272|240:272|340:272,1,199.999980926514,2|2,0:0|0:0,0:0:0:0:
440,272,42648,1,2,0:0:0:0:
440,172,43003,6,0,P|428:100|376:44,2,149.999985694886,2|0|2,0:0|0:0|0:0,0:0:0:0:
340,156,44423,2,0,P|272:132|196:144,2,149.999985694886,2|0|8,0:0|0:0|0:0,0:0:0:0:
344,256,45843,6,0,P|304:292|256:308,1,99.999990463257,4|0,0:0|0:0,0:0:0:0:
160,312,46553,1,8,0:0:0:0:
136,224,46908,1,0,0:0:0:0:
124,176,47086,6,0,P|172:196|220:192,1,99.999990463257
308,156,47796,1,0,0:0:0:0:
356,140,47973,2,0,P|404:136|496:172,1,99.999990463257,8|0,0:0|0:0,0:0:0:0:
432,44,48684,6,0,P|384:48|332:28,1,99.999990463257
240,60,49394,1,8,0:0:0:0:
172,136,49749,1,0,0:0:0:0:
156,184,49926,6,0,P|148:244|156:284,1,99.999990463257
240,336,50636,1,0,0:0:0:0:
256,288,50814,2,0,P|264:228|256:188,1,99.999990463257,8|0,0:0|0:0,0:0:0:0:
204,104,51524,6,0,P|303:118|398:89,2,199.999980926514,4|8|0,0:0|0:0|0:0,0:0:0:0:
104,116,53299,1,0,0:0:0:0:
108,216,53654,1,8,0:0:0:0:
192,164,54009,2,0,L|248:184,1,49.9999952316285
287,196,54364,6,0,B|375:232|375:232|407:276,2,149.999985694886,0|0|2,0:0|0:0|0:0,0:0:0:0:
239,180,55607,1,4,0:0:0:0:
100,280,56494,1,0,0:0:0:0:
4,308,56849,1,0,0:0:0:0:
76,376,57204,5,4,0:0:0:0:
100,280,57559,1,8,0:0:0:0:
100,280,57914,2,0,P|130:241|176:222,1,99.999990463257,0|8,0:0|0:0,0:0:0:0:
187,322,58624,2,0,P|233:302|264:264,1,99.999990463257,0|8,0:0|0:0,0:0:0:0:
176,222,59334,2,0,P|139:203|116:146,1,99.999990463257,0|8,0:0|0:0,3:0:0:0:
131,103,59867,1,0,0:0:0:0:
172,74,60044,5,0,0:0:0:0:
256,126,60400,2,0,P|300:142|352:138,2,99.999990463257,8|0|8,0:0|0:0|0:0,0:0:0:0:
172,74,61465,1,4,0:0:0:0:
172,74,61820,2,0,L|88:16,2,99.999990463257,8|0|8,0:0|0:0|0:0,0:0:0:0:
120,160,62885,5,4,0:0:0:0:
192,228,63240,2,0,P|252:196|268:168,2,99.999990463257,8|0|8,0:0|0:0|0:0,0:0:0:0:
96,248,64305,2,0,P|47:267|15:303,1,99.999990463257,0|8,0:0|0:0,0:0:0:0:
46,344,64837,1,0,0:0:0:0:
96,356,65015,2,0,P|145:340|180:307,1,99.999990463257,0|8,0:0|0:0,0:0:0:0:
208,260,65547,1,0,0:0:0:0:
208,260,65725,6,0,P|246:294|292:308,1,99.999990463257,0|8,0:0|0:0,0:0:0:0:
336,288,66257,2,0,P|346:237|335:190,1,99.999990463257,0|0,0:0|0:0,0:0:0:0:
292,164,66790,2,0,P|264:160|244:148,1,49.9999952316285,8|0,0:0|0:0,0:0:0:0:
212,112,67145,5,8,0:0:0:0:
284,44,67500,1,0,0:0:0:0:
380,72,67855,1,8,0:0:0:0:
308,140,68210,1,8,0:0:0:0:
212,112,68565,5,4,0:0:0:0:
112,104,68920,2,0,P|62:86|16:92,1,99.999990463257,8|0,0:0|0:0,0:0:0:0:
57,183,69630,2,0,P|72:238|65:281,2,99.999990463257,8|0|8,0:0|0:0|0:0,0:0:0:0:
112,104,70695,2,0,L|167:21,1,99.999990463257,0|8,0:0|0:0,0:0:0:0:
187,66,71228,1,0,0:0:0:0:
204,112,71405,6,0,L|293:68,1,99.999990463257,0|8,0:0|0:0,3:0:0:0:
288,119,71938,1,0,0:0:0:0:
280,169,72115,2,0,L|379:175,1,99.999990463257,0|8,0:0|0:0,0:0:0:0:
312,255,72826,1,4,0:0:0:0:
312,255,73181,2,0,L|394:309,2,99.999990463257,8|0|8,0:0|0:0|0:0,0:0:0:0:
212,276,74246,5,4,0:0:0:0:
268,360,74601,2,0,P|220:376|172:368,2,99.999990463257,8|0|8,0:0|0:0|0:0,0:0:0:0:
212,276,75666,2,0,P|196:226|201:177,1,99.999990463257,0|8,0:0|0:0,0:0:0:0:
248,196,76198,1,0,0:0:0:0:
296,212,76376,2,0,P|299:162|285:114,2,99.999990463257,0|8|0,0:0|0:0|0:0,0:0:0:0:
200,179,77441,5,8,0:0:0:0:
152,268,77796,1,0,0:0:0:0:
100,180,78151,1,8,0:0:0:0:
128,88,78506,5,4,0:0:0:0:
128,88,78684,2,0,P|148:102|171:111,2,49.9999952316285,8|0|4,0:0|0:0|0:0,0:0:0:0:
36,52,79394,2,0,B|12:95|12:95|48:130|54:189,1,149.999985694886,8|4,0:0|0:0,0:0:0:0:
256,192,80104,12,0,82766,0:0:0:0:
256,192,85607,12,4,87027,0:0:0:0:
364,88,88447,6,0,P|372:140|360:192,1,99.999990463257,8|0,0:0|0:0,0:0:0:0:
340,232,88979,2,0,P|276:204|200:224,1,149.999985694886,4|0,0:0|0:0,0:0:0:0:
264,308,89867,2,0,P|184:372|128:376,2,149.999985694886,4|4|0,0:0|0:0|0:0,0:0:0:0:
356,272,91287,6,0,P|400:232|440:216,2,99.999990463257,0|2|0,0:0|0:0|0:0,0:0:0:0:
264,308,92352,1,2,0:0:0:0:
208,224,92707,2,0,P|80:304|16:296,1,199.999980926514
68,204,93772,1,2,0:0:0:0:
108,108,94127,6,0,L|206:127,1,99.999990463257,0|2,0:0|0:0,0:0:0:0:
257,138,94660,1,0,0:0:0:0:
308,148,94837,2,0,P|361:146|408:121,2,99.999990463257,0|2|0,0:0|0:0|0:0,0:0:0:0:
232,208,95902,2,0,P|180:196|128:208,2,99.999990463257,2|0|2,0:0|0:0|0:0,0:0:0:0:
176,292,96968,6,0,P|120:356|-8:364,1,199.999980926514
52,280,98033,1,2,0:0:0:0:
124,212,98388,2,0,P|200:200|296:292,1,199.999980926514,0|0,0:0|0:0,0:0:0:0:
312,372,99453,1,2,0:0:0:0:
361,362,99630,1,0,0:0:0:0:
404,336,99808,6,0,P|440:296|448:156,1,199.999980926514
400,68,100873,1,0,0:0:0:0:
360,40,101050,1,0,0:0:0:0:
328,0,101228,2,0,P|284:24|236:108,1,149.999985694886,4|2,0:0|0:0,0:0:0:0:
236,208,102115,1,0,0:0:0:0:
236,208,102293,1,8,0:0:0:0:
184,292,102648,6,0,P|136:312|88:308,1,99.999990463257,4|2,0:0|0:0,0:0:0:0:
12,244,103358,1,0,0:0:0:0:
8,144,103713,1,2,0:0:0:0:
108,156,104068,2,0,P|208:140|279:76,1,199.999980926514
340,0,105133,1,2,0:0:0:0:
368,43,105311,1,0,0:0:0:0:
380,92,105488,6,0,P|400:144|396:192,1,99.999990463257,0|2,0:0|0:0,0:0:0:0:
362,224,106021,1,0,0:0:0:0:
320,252,106198,2,0,P|300:200|304:152,2,99.999990463257,0|2|0,0:0|0:0|0:0,0:0:0:0:
384,328,107263,1,2,0:0:0:0:
288,348,107618,1,0,0:0:0:0:
220,272,107973,1,2,0:0:0:0:
252,176,108328,6,0,P|156:148|64:184,1,199.999980926514
216,52,109749,2,0,P|312:80|404:44,1,199.999980926514
456,128,110814,1,2,0:0:0:0:
456,128,111169,6,0,B|456:228|456:228|392:312,1,199.999980926514
260,232,112411,1,0,0:0:0:0:
208,240,112589,2,0,B|124:252|124:252|76:296,2,149.999985694886,0|0|8,0:0|0:0|0:0,0:0:0:0:
264,156,114009,6,0,P|299:207|332:224,2,99.999990463257,4|0|0,0:0|0:0|0:0,0:0:0:0:
208,72,115074,1,0,0:0:0:0:
168,44,115252,2,0,P|144:96|144:140,1,99.999990463257
184,228,115962,1,0,0:0:0:0:
200,276,116139,2,0,P|197:325|175:369,1,99.999990463257,8|0,0:0|0:0,0:0:0:0:
108,292,116849,6,0,P|85:239|91:191,1,99.999990463257
152,120,117559,1,8,0:0:0:0:
236,60,117914,1,0,0:0:0:0:
284,40,118092,2,0,P|308:92|308:136,1,99.999990463257
268,224,118802,1,0,0:0:0:0:
252,272,118979,2,0,P|255:321|277:365,1,99.999990463257,8|0,0:0|0:0,0:0:0:0:
348,296,119689,6,0,P|436:248|484:164,2,199.999980926514,4|8|0,0:0|0:0|0:0,0:0:0:0:
252,324,121465,1,0,0:0:0:0:
268,224,121820,1,8,0:0:0:0:
288,124,122175,2,0,L|348:108,1,49.9999952316285
384,99,122530,6,0,B|472:74|472:74|512:27,2,149.999985694886,0|0|2,0:0|0:0|0:0,0:0:0:0:
336,111,123772,1,4,0:0:0:0:
160,264,124660,1,0,0:0:0:0:
72,212,125015,1,0,0:0:0:0:
72,312,125370,5,4,0:0:0:0:
160,264,125725,2,0,P|208:288|256:288,1,99.999990463257,8|0,0:0|0:0,0:0:0:0:
228,192,126435,2,0,P|184:168|134:167,2,99.999990463257,8|0|8,0:0|0:0|0:0,0:0:0:0:
253,286,127500,2,0,L|224:382,1,99.999990463257,0|8,0:0|0:0,0:0:0:0:
274,378,128033,1,0,0:0:0:0:
324,378,128210,6,0,L|353:282,2,99.999990463257,0|8|0,0:0|0:0|0:0,0:0:0:0:
224,360,129275,1,8,0:0:0:0:
224,360,129630,2,0,L|256:264,1,99.999990463257,4|8,0:0|0:0,0:0:0:0:
220,172,130340,1,0,0:0:0:0:
148,240,130695,1,8,0:0:0:0:
48,260,131050,5,4,0:0:0:0:
26,157,131405,2,0,P|30:107|60:68,2,99.999990463257,8|0|8,0:0|0:0|0:0,0:0:0:0:
36,208,132293,1,0,0:0:0:0:
72,244,132471,2,0,P|119:257|168:248,1,99.999990463257,0|8,0:0|0:0,0:0:0:0:
176,148,133181,2,0,P|225:139|272:152,1,99.999990463257,0|8,0:0|0:0,0:0:0:0:
316,176,133713,1,0,0:0:0:0:
328,128,133891,6,0,L|356:12,1,99.999990463257,0|8,0:0|0:0,0:0:0:0:
404,32,134423,2,0,L|428:129,1,99.999990463257,0|0,0:0|0:0,0:0:0:0:
476,140,134956,2,0,L|466:189,1,49.9999952316285,8|0,0:0|0:0,0:0:0:0:
452,236,135311,6,0,L|485:273,2,49.9999952316285,8|4|0,0:0|0:0|0:0,0:0:0:0:
392,316,136021,1,8,0:0:0:0:
292,304,136376,1,8,0:0:0:0:
252,212,136731,5,4,0:0:0:0:
235,111,137086,2,0,P|205:73|160:52,1,99.999990463257,8|0,0:0|0:0,0:0:0:0:
159,103,137618,1,0,0:0:0:0:
144,152,137796,2,0,P|102:179|54:186,2,99.999990463257,8|0|8,0:0|0:0|0:0,0:0:0:0:
159,52,138861,2,0,P|109:56|68:84,1,99.999990463257,0|8,0:0|0:0,0:0:0:0:
100,125,139394,1,0,0:0:0:0:
144,152,139571,6,0,L|135:252,1,99.999990463257,0|8,0:0|0:0,0:0:0:0:
224,202,140281,2,0,L|266:293,1,99.999990463257,0|8,0:0|0:0,0:0:0:0:
296,251,140814,1,0,0:0:0:0:
322,208,140991,2,0,L|404:265,2,99.999990463257,4|8|0,0:0|0:0|0:0,0:0:0:0:
408,160,142056,1,8,0:0:0:0:
492,212,142411,5,4,0:0:0:0:
476,312,142766,2,0,P|448:360|408:384,2,99.999990463257,8|0|8,0:0|0:0|0:0,0:0:0:0:
456,265,143654,1,0,0:0:0:0:
422,227,143831,2,0,L|320:204,1,99.999990463257,0|8,0:0|0:0,0:0:0:0:
352,164,144364,1,0,0:0:0:0:
380,124,144542,2,0,L|303:53,2,99.999990463257,0|8|0,0:0|0:0|0:0,0:0:0:0:
288,164,145607,5,8,0:0:0:0:
198,204,145962,1,0,0:0:0:0:
280,260,146317,1,8,0:0:0:0:
358,324,146672,5,4,0:0:0:0:
358,324,146849,2,0,P|328:352|312:360,2,49.9999952316285,8|0|0,0:0|0:0|0:0,0:0:0:0:
408,240,147559,2,0,B|449:259|449:259|445:319|488:367,1,149.999985694886,8|4,0:0|0:0,0:0:0:0:
256,192,148269,12,0,150932,0:0:0:0:
296,148,160873,6,0,P|304:212|256:280,2,149.999985694885,2|2|0,0:0|0:0|0:0,0:0:0:0:
272,104,162115,2,0,P|320:96|440:176,1,199.999980926514,4|0,0:0|0:0,0:0:0:0:
376,312,163358,1,0,0:0:0:0:
280,248,163713,6,0,P|258:296|286:384,1,149.999985694886,2|2,0:0|0:0,0:0:0:0:
376,312,164601,1,0,0:0:0:0:
372,196,164956,2,0,P|313:149|196:181,1,199.999980926514,4|0,0:0|0:0,0:0:0:0:
180,276,166021,2,0,L|136:248,1,49.9999952316285
52,200,166553,5,4,0:0:0:0:
180,124,167086,1,0,0:0:0:0:
268,76,167441,2,0,L|300:120,1,49.9999952316285,8|0,3:0|3:0,0:0:0:0:
356,196,167973,2,0,P|313:256|244:283,2,149.999985694886,4|0|0,0:0|0:0|0:0,0:0:0:0:
432,132,169394,6,0,P|463:199|452:272,2,149.999985694886,4|4|8,0:0|0:0|0:0,0:0:0:0:
336,104,170814,1,8,0:0:0:0:
240,128,171169,1,8,0:0:0:0:
144,96,171524,1,8,0:0:0:0:
76,24,171879,1,0,0:0:0:0:
76,24,172234,6,0,L|52:68,1,49.9999952316285,12|0,0:0|0:0,0:0:0:0:
72,216,172944,2,0,L|48:260,2,49.9999952316285,8|0|0,0:0|0:0|0:0,0:0:0:0:
100,176,173476,2,0,P|136:140|232:108,1,149.999985694886,4|0,0:0|0:0,0:0:0:0:
328,112,174364,1,0,0:0:0:0:
312,212,174719,1,0,0:0:0:0:
256,296,175074,6,0,B|180:360|180:360|80:368,1,199.999980926514,4|8,0:0|0:0,0:0:0:0:
164,188,176494,2,0,B|240:124|240:124|340:116,1,199.999980926514,4|8,0:0|0:0,0:0:0:0:
440,108,177559,1,0,0:0:0:0:
428,208,177914,6,0,P|384:304|304:352,1,199.999980926514,4|8,0:0|0:0,0:0:0:0:
156,220,179334,2,4,P|200:124|280:76,1,199.999980926514,0|8,0:0|0:0,0:0:0:0:
376,56,180400,1,8,0:0:0:0:
476,64,180755,6,0,B|488:144|488:144|464:232,1,149.999985694886,4|0,0:0|0:0,0:0:0:0:
412,292,181642,2,0,L|400:340,2,49.9999952316285,0|8|8,0:0|0:0|0:0,0:0:0:0:
372,200,182352,2,0,L|384:152,1,49.9999952316285,8|8,0:0|0:0,0:0:0:0:
284,152,182885,1,4,0:0:0:0:
324,60,183240,1,8,0:0:0:0:
220,68,183595,6,0,P|185:103|166:152,1,99.999990463257,4|8,0:0|0:0,0:0:0:0:
219,238,184305,2,0,P|253:202|272:156,2,99.999990463257,0|8|0,0:0|0:0|0:0,0:0:0:0:
120,244,185370,2,0,P|86:280|67:329,2,99.999990463257,8|0|8,0:0|0:0|0:0,0:0:0:0:
170,240,186257,1,0,0:0:0:0:
220,240,186435,6,0,L|324:240,1,99.999990463257,0|8,0:0|0:0,0:0:0:0:
312,189,186968,1,0,0:0:0:0:
300,140,187145,2,0,L|404:140,1,99.999990463257,0|8,0:0|0:0,0:0:0:0:
484,84,187855,1,4,0:0:0:0:
396,40,188210,1,8,0:0:0:0:
400,140,188565,1,0,0:0:0:0:
432,236,188920,1,8,0:0:0:0:
492,315,189275,5,4,0:0:0:0:
400,352,189630,2,0,P|350:351|302:329,2,99.999990463257,8|0|8,0:0|0:0|0:0,0:0:0:0:
448,337,190518,1,0,0:0:0:0:
492,315,190695,2,0,L|470:216,1,99.999990463257,0|8,0:0|0:0,0:0:0:0:
380,256,191405,2,0,L|311:181,1,99.999990463257,0|8,0:0|0:0,0:0:0:0:
276,148,191938,1,0,0:0:0:0:
236,120,192115,6,0,B|208:200|208:200|232:264|191:315,1,199.999980926514,0|0,0:0|0:0,0:0:0:0:
120,244,193181,1,8,0:0:0:0:
120,194,193358,1,0,0:0:0:0:
124,144,193536,2,0,B|156:60|156:60|208:24,2,149.999985694886,4|8|8,0:0|0:0|0:0,0:0:0:0:
96,240,194956,5,4,0:0:0:0:
196,224,195311,2,0,P|240:249|288:253,2,99.999990463257,8|0|8,0:0|0:0|0:0,0:0:0:0:
178,174,196198,1,0,0:0:0:0:
175,121,196376,2,0,P|204:80|248:55,2,99.999990463257,0|8|0,0:0|0:0|0:0,0:0:0:0:
196,224,197441,1,8,0:0:0:0:
208,273,197618,1,0,0:0:0:0:
216,324,197796,6,0,L|116:300,1,99.999990463257,0|8,0:0|0:0,0:0:0:0:
112,252,198328,1,0,0:0:0:0:
100,204,198506,2,0,L|0:180,1,99.999990463257,0|8,0:0|0:0,0:0:0:0:
74,110,199216,1,4,0:0:0:0:
170,138,199571,1,8,0:0:0:0:
100,204,199926,1,0,0:0:0:0:
74,110,200281,1,8,0:0:0:0:
104,17,200636,5,4,0:0:0:0:
168,96,200991,2,0,P|223:129|256:132,2,99.999990463257,8|0|8,0:0|0:0|0:0,0:0:0:0:
248,36,202056,2,0,P|296:42|336:72,1,99.999990463257,0|8,0:0|0:0,0:0:0:0:
352,120,202589,1,0,0:0:0:0:
348,168,202766,1,0,0:0:0:0:
400,252,203121,1,8,0:0:0:0:
468,176,203476,6,0,L|468:104,2,49.9999952316285,0|0|8,0:0|0:0|0:0,0:0:0:0:
381,124,204186,2,0,L|383:24,1,99.999990463257,0|8,0:0|0:0,0:0:0:0:
296,68,204897,1,4,0:0:0:0:
212,123,205252,1,0,0:0:0:0:
217,223,205607,1,8,0:0:0:0:
300,167,205962,1,8,0:0:0:0:
296,68,206317,6,0,P|255:34|209:24,1,99.999990463257,4|8,0:0|0:0,0:0:0:0:
124,80,207027,2,0,P|115:131|129:176,2,99.999990463257,0|8|0,0:0|0:0|0:0,0:0:0:0:
172,92,207914,1,0,0:0:0:0:
212,123,208092,2,0,P|226:170|217:219,2,99.999990463257,8|0|8,0:0|0:0|0:0,0:0:0:0:
256,100,208979,1,0,0:0:0:0:
300,76,209157,6,0,L|396:24,1,99.999990463257,0|8,0:0|0:0,0:0:0:0:
399,77,209689,1,0,0:0:0:0:
408,128,209867,2,0,L|517:131,1,99.999990463257,0|8,0:0|0:0,0:0:0:0:
456,216,210577,1,4,0:0:0:0:
356,212,210932,1,8,0:0:0:0:
408,128,211287,1,0,0:0:0:0:
456,216,211642,1,8,0:0:0:0:
428,312,211997,5,4,0:0:0:0:
336,356,212352,2,0,L|236:376,2,99.999990463257,8|0|8,0:0|0:0|0:0,0:0:0:0:
356,308,213240,1,0,0:0:0:0:
368,260,213417,2,0,L|467:241,2,99.999990463257,0|8|0,0:0|0:0|0:0,0:0:0:0:
308,180,214482,1,8,0:0:0:0:
256,96,214837,5,4,0:0:0:0:
212,184,215192,1,8,0:0:0:0:
260,272,215547,1,0,0:0:0:0:
168,312,215902,1,8,0:0:0:0:
76,268,216257,5,4,0:0:0:0:
110,233,216435,2,0,P|122:211|127:187,1,49.9999952316285,8|0,0:0|0:0,0:0:0:0:
136,142,216790,2,0,P|161:87|193:62,1,99.999990463257,4|8,0:0|0:0,0:0:0:0:
344,68,217678,6,0,P|396:84|456:160,1,149.999985694886,4|0,0:0|0:0,0:0:0:0:
480,356,218920,1,4,0:0:0:0:
56,208,220518,2,0,P|112:192|200:216,1,149.999985694886
68,64,221760,1,4,0:0:0:0:
120,376,223358,6,0,P|181:269|164:147,1,249.999976158143
52,188,224778,2,0,P|20:160|4:80,2,124.999988079071,0|0|0,0:0|0:0|0:0,0:0:0:0:
52,288,226376,6,0,P|148:280|224:324,1,174.9999833107
288,240,228270,2,0,P|358:263|431:251,1,149.999985694886
108,72,230707,5,4,0:0:0:0:
256,192,231062,12,0,234612,0:0:0:0:
