osu file format v14

[General]
AudioFilename: kibou no sora.mp3
AudioLeadIn: 1200
PreviewTime: 171524
Countdown: 0
SampleSet: Soft
StackLeniency: 0.8
Mode: 0
LetterboxInBreaks: 1
WidescreenStoryboard: 0

[Editor]
Bookmarks: 53209,177914
DistanceSpacing: 1
BeatDivisor: 2
GridSize: 4
TimelineZoom: 1

[Metadata]
Title:Kibou no Sora
TitleUnicode:キボウのソラ
Artist:Shimotsuki Haruka
ArtistUnicode:霜月はるか
Creator:PinkHeart
Version:Hana
Source:キミへ贈る、ソラの花
Tags:galgame opening Eggache0 imoutosan Laurier Kihhou cabbit Kimi e Okuru, Sora no Hana
BeatmapID:286615
BeatmapSetID:109900

[Difficulty]
HPDrainRate:7
CircleSize:4
OverallDifficulty:8
ApproachRate:9
SliderMultiplier:3.19999990463257
SliderTickRate:2

[Events]
//Background and Video events
0,0,"BG.jpg",0,0
//Break Periods
2,82966,84474
2,151132,160273
//Storyboard Layer 0 (Background)
//Storyboard Layer 1 (Fail)
//Storyboard Layer 2 (Pass)
//Storyboard Layer 3 (Foreground)
//Storyboard Sound Samples

[TimingPoints]
400,355.029585798817,4,2,1,60,1,0
400,-200,4,2,2,30,0,0
2707,-200,4,2,2,30,0,0
5547,-200,4,2,2,25,0,0
5725,-200,4,2,2,20,0,0
6080,-133.333333333333,4,2,1,30,0,0
6169,-133.333333333333,4,2,1,40,0,0
7500,-133.333333333333,4,2,1,40,0,0
7589,-133.333333333333,4,2,1,50,0,0
11760,-133.333333333333,4,2,1,70,0,0
17086,-133.333333333333,4,2,1,70,0,0
20636,-133.333333333333,4,2,1,50,0,0
20725,-133.333333333333,4,2,1,70,0,0
23121,-200,4,2,2,40,0,0
27914,-200,4,2,2,20,0,0
28092,-200,4,2,2,40,0,0
28269,-200,4,2,2,20,0,0
28447,-200,4,2,2,40,0,0
28624,-200,4,2,2,20,0,0
28802,-200,4,2,2,40,0,0
30488,-200,4,2,2,5,0,0
30577,-200,4,2,2,40,0,0
31908,-200,4,2,2,5,0,0
31997,-200,4,2,2,40,0,0
33950,-133.333333333333,4,2,1,40,0,0
34482,-133.333333333333,4,2,1,60,0,0
35104,-133.333333333333,4,2,1,5,0,0
35192,-133.333333333333,4,2,1,50,0,0
35991,-133.333333333333,4,2,1,5,0,0
36080,-133.333333333333,4,2,1,50,0,0
36346,-133.333333333333,4,2,1,5,0,0
36435,-133.333333333333,4,2,1,50,0,0
45666,-133.333333333333,4,2,1,40,0,0
45843,-133.333333333333,4,2,1,60,0,0
55252,-100,4,2,1,60,0,0
56139,-100,4,2,1,40,0,0
56494,-133.333333333333,4,2,1,40,0,0
57204,-133.333333333333,4,2,1,70,0,1
61465,-71.4285714285714,4,2,1,75,0,1
63240,-133.333333333333,4,2,1,70,0,1
66968,-133.333333333333,4,2,1,65,0,1
67145,-100,4,2,1,65,0,0
68565,-133.333333333333,4,2,1,70,0,1
72826,-66.6666666666667,4,2,1,75,0,1
74601,-133.333333333333,4,2,1,70,0,1
77796,-133.333333333333,4,2,1,60,0,1
78506,-100,4,2,1,70,0,1
79926,-133.333333333333,4,2,1,60,0,0
79971,-100,4,2,1,30,0,0
85429,-133.333333333333,4,2,1,60,0,0
88447,-133.333333333333,4,2,1,50,0,0
114009,-133.333333333333,4,2,1,60,0,0
123595,-100,4,2,1,60,0,0
124305,-100,4,2,1,30,0,0
124482,-100,4,2,1,50,0,0
124660,-100,4,2,1,50,0,0
125370,-133.333333333333,4,2,1,70,0,1
129630,-71.4285714285714,4,2,1,75,0,1
131405,-133.333333333333,4,2,1,70,0,1
135311,-133.333333333333,4,2,1,70,0,0
135843,-100,4,2,1,75,0,0
136731,-133.333333333333,4,2,1,75,0,1
140991,-66.6666666666667,4,2,1,75,0,1
142678,-133.333333333333,4,2,1,70,0,1
145962,-133.333333333333,4,2,1,50,0,1
146672,-100,4,2,1,70,0,1
148092,-133.333333333333,4,2,1,65,0,0
160873,-200,4,2,2,40,0,0
163358,-200,4,2,2,40,0,0
166021,-200,4,2,1,40,0,0
166553,-200,4,2,1,60,0,0
167973,-133.333333333333,4,2,1,60,0,0
168240,-133.333333333333,4,2,1,30,0,0
168328,-133.333333333333,4,2,1,60,0,0
169305,-133.333333333333,4,2,1,5,0,0
169394,-133.333333333333,4,2,1,60,0,0
171524,-133.333333333333,4,2,1,60,0,0
171790,-133.333333333333,4,2,1,5,0,0
171879,-100,4,2,1,70,0,0
172145,-100,4,2,1,5,0,0
172234,-50,4,2,1,80,0,0
172589,-100,4,2,1,70,0,0
173743,-100,4,2,1,30,0,0
173831,-100,4,2,1,70,0,0
174364,-133.333333333333,4,2,1,50,0,0
180400,-100,4,2,1,70,0,0
181997,-100,4,2,1,70,0,0
183595,-100,4,2,1,70,0,1
187855,-71.4285714285714,4,2,1,75,0,1
189542,-100,4,2,1,70,0,1
193181,-100,4,2,1,60,0,1
193536,-100,4,2,1,70,0,0
194956,-100,4,2,1,70,0,1
199216,-71.4285714285714,4,2,1,75,0,1
200814,-100,4,2,1,70,0,1
204897,-100,4,2,1,70,0,0
205607,-100,4,2,1,60,0,0
206317,-100,4,2,1,70,0,1
210577,-66.6666666666667,4,2,1,80,0,1
212352,-100,4,2,1,70,0,1
214837,-133.333333333333,4,2,1,60,0,1
215370,-100,4,2,1,60,0,1
215547,-100,4,2,1,50,0,1
215902,-100,4,2,1,60,0,1
216257,-100,4,2,1,70,0,1
216879,-100,4,2,1,5,0,1
216968,-100,4,2,1,70,0,1
217411,-100,4,2,1,70,0,1
217678,-400,4,2,1,100,0,0
217766,-400,4,2,2,40,0,0
220163,-400,4,2,2,30,0,0
223358,-400,4,2,2,20,0,0
224778,571.428571428571,4,2,1,60,1,0
224778,-200,4,2,1,20,0,0
226376,631.578947368421,4,2,1,20,1,0
226376,-200,4,2,2,20,0,0
228270,750,4,2,2,20,1,0
228270,-200,4,2,2,20,0,0
230707,355.029585798817,4,2,1,30,1,0
230707,-100,4,2,2,30,0,0
234612,-100,4,2,2,5,0,0

[Colours]
Combo1 : 255,255,170
Combo2 : 255,170,255
Combo3 : 170,170,255
Combo4 : 170,255,213

[HitObjects]
60,104,400,6,0,P|136:140|216:120,1,159.999995231628,4|0,0:0|0:0,0:0:0:0:
300,64,932,2,0,P|372:36|452:64,1,159.999995231628
460,196,1465,1,0,0:0:0:0:
392,280,1642,2,0,P|353:211|372:136,1,159.999995231628,2|0,0:0|0:0,0:0:0:0:
472,204,2175,1,0,0:0:0:0:
408,292,2352,1,0,0:0:0:0:
112,184,2707,1,0,0:0:0:0:
216,164,2885,1,0,0:0:0:0:
184,264,3062,1,0,0:0:0:0:
131,71,3240,6,0,P|199:112|223:186,1,159.999995231628,4|0,0:0|0:0,0:0:0:0:
312,196,3772,2,0,P|336:121|404:81,2,159.999995231628
312,196,4837,1,0,0:0:0:0:
372,284,5015,1,0,0:0:0:0:
420,188,5192,1,0,0:0:0:0:
416,168,5281,1,0,0:0:0:0:
404,152,5370,1,0,0:0:0:0:
284,72,5547,1,0,0:0:0:0:
180,60,5725,5,0,0:0:0:0:
104,84,5902,5,0,0:0:0:0:
51,133,6080,6,0,P|114:94|274:105,1,240.000002002716,4|0,0:0|0:0,0:0:0:0:
394,90,6613,2,0,P|358:155|214:225,1,240.000002002716
248,140,7145,1,8,0:0:0:0:
236,320,7323,1,0,0:0:0:0:
91,214,7500,6,0,P|132:131|306:39,1,240.000002002716,4|0,0:0|0:0,0:0:0:0:
392,16,8033,2,0,P|396:90|312:226,1,240.000002002716,8|0,0:0|0:0,0:0:0:0:
212,276,8565,1,8,0:0:0:0:
295,94,8743,1,0,0:0:0:0:
410,255,8920,6,0,P|310:238|232:164,1,180.000001502037,4|0,0:0|0:0,0:0:0:0:
211,118,9275,1,8,0:0:0:0:
10,220,9453,2,0,P|126:201|211:119,1,240.000002002716,4|0,0:0|0:0,0:0:0:0:
60,84,9985,1,8,0:0:0:0:
211,118,10163,1,0,0:0:0:0:
368,32,10340,6,0,P|357:92|316:134,1,120.000001001358,4|0,0:0|0:0,0:0:0:0:
61,175,10695,2,0,P|118:154|175:169,1,120.000001001358,0|4,0:0|0:0,0:0:0:0:
338,368,11050,2,0,P|292:329|276:272,1,120.000001001358,8|0,0:0|0:0,0:0:0:0:
368,32,11405,1,8,0:0:0:0:
400,64,11493,1,8,0:0:0:0:
420,104,11582,1,8,0:0:0:0:
427,149,11671,1,8,0:0:0:0:
419,193,11760,6,0,P|381:254|305:293,1,120.000001001358,4|0,0:0|0:0,0:0:0:0:
231,318,12115,2,0,P|197:246|207:163,1,120.000001001358,8|0,0:0|0:0,0:0:0:0:
319,46,12471,2,0,P|319:130|304:160,1,120.000001001358,2|0,0:0|0:0,0:0:0:0:
304,160,12737,1,0,0:0:0:0:
304,160,12826,1,8,0:0:0:0:
151,187,13003,2,0,P|103:153|73:101,2,120.000001001358,0|0|0,0:0|0:0|0:0,0:0:0:0:
296,36,13536,2,0,P|254:52|205:107,1,120.000001001358,8|0,0:0|0:0,0:0:0:0:
234,342,13891,2,0,P|240:297|217:227,1,120.000001001358,2|0,0:0|0:0,0:0:0:0:
0,136,14246,2,0,P|35:164|106:179,1,120.000001001358,8|0,0:0|0:0,0:0:0:0:
225,129,14601,6,0,P|333:82|446:111,1,240.000002002716,0|8,0:0|0:0,0:0:0:0:
460,252,15133,1,0,0:0:0:0:
358,323,15311,2,0,P|330:268|330:211,1,120.000001001358,2|0,0:0|0:0,0:0:0:0:
418,0,15666,2,0,P|446:55|448:112,1,120.000001001358,8|0,0:0|0:0,0:0:0:0:
381,279,16021,6,0,B|357:323|357:323|285:279|225:307,1,180.000001502037,4|0,0:0|0:0,0:0:0:0:
160,342,16376,1,8,0:0:0:0:
320,218,16553,1,8,0:0:0:0:
336,188,16642,1,8,0:0:0:0:
340,156,16731,2,0,P|332:88|292:48,1,120.000001001358,8|0,0:0|0:0,0:0:0:0:
24,164,17086,5,8,0:0:0:0:
16,204,17175,1,8,0:0:0:0:
20,244,17264,1,8,0:0:0:0:
36,280,17352,1,8,0:0:0:0:
60,312,17441,2,0,P|170:351|280:309,1,240.000002002716,4|8,0:0|0:0,0:0:0:0:
228,140,17973,2,0,P|188:188|180:244,1,120.000001001358,0|2,0:0|0:0,0:0:0:0:
336,176,18328,2,0,P|373:127|384:71,2,120.000001001358,0|8|0,0:0|0:0|0:0,0:0:0:0:
104,85,18861,6,0,P|163:87|216:116,1,120.000001001358
108,228,19216,2,0,P|48:222|0:188,1,120.000001001358,8|0,0:0|0:0,0:0:0:0:
216,116,19571,2,0,P|245:176|245:228,1,120.000001001358,2|0,0:0|0:0,0:0:0:0:
127,341,19926,2,0,P|102:287|108:228,1,120.000001001358,8|0,0:0|0:0,0:0:0:0:
430,289,20281,5,4,0:0:0:0:
245,229,20459,1,0,0:0:0:0:
430,169,20636,1,8,0:0:0:0:
315,326,20814,1,4,0:0:0:0:
420,35,21169,1,0,0:0:0:0:
282,80,21346,1,8,0:0:0:0:
420,125,21524,1,0,0:0:0:0:
334,7,21701,5,4,0:0:0:0:
186,277,21879,1,8,0:0:0:0:
404,212,22056,1,8,0:0:0:0:
116,72,22234,1,4,0:0:0:0:
92,100,22589,1,12,0:0:0:0:
216,284,23121,6,0,L|376:264,1,159.999995231628,4|0,0:0|0:0,0:0:0:0:
374,264,23831,1,0,0:0:0:0:
464,356,24009,1,0,0:0:0:0:
496,232,24186,1,0,0:0:0:0:
419,122,24364,2,0,P|372:185|374:264,1,159.999995231628
240,380,25074,2,0,P|286:317|284:238,1,159.999995231628
224,164,25607,1,0,0:0:0:0:
356,172,25784,1,0,0:0:0:0:
488,152,25962,6,0,P|504:128|508:76,1,79.9999976158142,4|0,0:0|0:0,0:0:0:0:
407,32,26317,2,0,P|358:93|356:172,1,159.999995231628
432,212,26849,2,0,P|354:199|285:237,1,159.999995231628
244,316,27382,1,0,0:0:0:0:
244,316,27737,2,0,P|172:356|96:344,2,159.999995231628
292,220,28624,2,0,L|312:256,2,39.9999988079071
188,148,29157,6,0,P|184:112|200:72,1,79.9999976158142
309,70,29512,2,0,P|324:148|292:220,1,159.999995231628
216,300,30044,2,0,P|275:248|353:240,1,159.999995231628
460,266,30577,1,0,0:0:0:0:
460,266,30755,2,0,P|385:240|339:176,1,159.999995231628
304,80,31287,1,0,0:0:0:0:
203,52,31465,1,0,0:0:0:0:
105,88,31642,6,0,P|140:152|128:236,1,159.999995231628
192,298,32175,2,0,P|238:267|340:269,1,159.999995231628
378,200,32707,1,0,0:0:0:0:
378,200,32885,1,0,0:0:0:0:
239,126,33062,1,2,0:0:0:0:
393,104,33240,1,0,0:0:0:0:
281,214,33417,1,0,0:0:0:0:
309,59,33595,1,0,0:0:0:0:
312,52,33950,5,2,0:0:0:0:
280,220,34127,1,8,0:0:0:0:
280,224,34482,5,4,0:0:0:0:
364,172,34660,1,0,0:0:0:0:
460,180,34837,2,0,P|432:232|380:264,1,120.000001001358,2|0,0:0|0:0,0:0:0:0:
280,224,35192,2,0,P|218:170|172:161,1,120.000001001358
240,328,35547,1,2,0:0:0:0:
280,224,35725,2,0,P|200:248|108:368,2,240.000002002716
372,260,36613,1,0,0:0:0:0:
296,316,36790,1,0,0:0:0:0:
208,280,36968,1,2,0:0:0:0:
196,184,37145,1,0,0:0:0:0:
275,128,37323,6,0,P|332:144|372:189,1,120.000001001358
119,237,37678,2,0,P|61:217|21:175,1,120.000001001358,2|0,0:0|0:0,0:0:0:0:
196,184,38033,1,0,0:0:0:0:
280,216,38210,1,0,0:0:0:0:
208,280,38387,1,2,0:0:0:0:
196,184,38565,2,0,P|294:42|353:30,1,240.000002002716
413,136,39098,5,2,0:0:0:0:
388,248,39275,1,0,0:0:0:0:
160,148,39453,5,0,0:0:0:0:
291,180,39630,1,0,0:0:0:0:
79,315,39808,5,2,0:0:0:0:
232,304,39985,1,0,0:0:0:0:
160,148,40163,6,0,P|248:112|386:139,1,240.000002002716,0|2,0:0|0:0,0:0:0:0:
416,280,40695,1,0,0:0:0:0:
386,139,40873,2,0,P|303:222|281:339,1,240.000002002716,0|2,0:0|0:0,0:0:0:0:
416,280,41405,1,0,0:0:0:0:
281,339,41583,2,0,P|206:281|161:148,1,240.000002002716,0|2,0:0|0:0,0:0:0:0:
189,36,42115,2,0,P|158:150|69:227,1,240.000002002716
161,147,42648,2,0,P|221:128|281:136,1,120.000001001358,2|0,0:0|0:0,0:0:0:0:
426,311,43003,6,0,B|370:320|328:262|328:262|287:204|222:215,1,240.000002002716,0|2,0:0|0:0,0:0:0:0:
417,225,43536,2,0,P|455:179|466:121,1,120.000001001358
164,384,43891,2,0,P|217:353|242:300,1,120.000001001358,0|2,0:0|0:0,0:0:0:0:
236,96,44246,1,0,0:0:0:0:
0,96,44423,2,0,P|16:156|60:192,1,120.000001001358
248,196,44778,2,0,P|188:179|136:200,1,120.000001001358,2|2,0:0|0:0,0:0:0:0:
108,224,45044,1,2,0:0:0:0:
92,260,45133,1,2,0:0:0:0:
0,96,45311,1,2,0:0:0:0:
92,260,45488,2,0,P|79:317|35:357,1,120.000001001358,8|8,0:0|0:0,0:0:0:0:
168,156,45843,6,0,P|216:140|283:152,1,120.000001001358,4|0,0:0|0:0,0:0:0:0:
479,102,46198,2,0,P|465:158|424:202,1,120.000001001358,0|0,0:0|0:0,0:0:0:0:
352,108,46553,2,0,P|407:44|499:12,1,180.000001502037,8|0,0:0|0:0,0:0:0:0:
495,12,46908,1,0,0:0:0:0:
424,208,47086,2,0,P|376:268|332:288,1,120.000001001358,2|0,0:0|0:0,0:0:0:0:
212,156,47441,1,2,0:0:0:0:
212,276,47618,1,8,0:0:0:0:
316,217,47796,1,0,0:0:0:0:
152,190,47973,5,8,0:0:0:0:
271,309,48150,1,0,0:0:0:0:
315,148,48328,1,2,0:0:0:0:
122,251,48506,1,2,0:0:0:0:
340,308,48684,6,0,P|384:252|388:176,1,120.000001001358,0|0,0:0|0:0,0:0:0:0:
253,51,49039,2,0,P|272:107|316:148,1,120.000001001358
340,308,49394,2,0,P|236:244|120:252,1,240.000002002716,8|0,0:0|0:0,0:0:0:0:
224,316,49926,2,0,P|249:262|250:202,1,120.000001001358,2|0,0:0|0:0,0:0:0:0:
210,96,50281,1,2,0:0:0:0:
172,248,50459,1,8,0:0:0:0:
322,161,50636,1,0,0:0:0:0:
187,296,50814,5,8,0:0:0:0:
402,284,50991,1,0,0:0:0:0:
192,345,51169,1,2,0:0:0:0:
30,318,51346,1,2,0:0:0:0:
312,324,51524,6,0,P|392:268|444:136,2,240.000002002716,4|8|2,0:0|0:0|0:0,0:0:0:0:
194,310,52411,1,0,0:0:0:0:
106,223,52589,1,8,0:0:0:0:
88,108,52766,1,2,0:0:0:0:
255,57,52944,2,0,P|209:166|107:223,1,240.000002002716,0|8,0:0|0:0,0:0:0:0:
256,57,53476,1,2,0:0:0:0:
296,272,53654,2,0,P|200:224|140:108,1,240.000002002716,8|0,0:0|0:0,0:0:0:0:
304,116,54186,5,2,0:0:0:0:
296,272,54364,2,0,P|256:318|203:338,1,120.000001001358,8|0,0:0|0:0,0:0:0:0:
166,188,54719,1,0,0:0:0:0:
304,116,54897,2,0,P|364:128|408:164,1,120.000001001358,0|8,0:0|0:0,0:0:0:0:
166,188,55252,6,0,P|139:110|152:36,1,159.999995231628,0|8,0:0|0:0,0:0:0:0:
304,116,55607,1,8,0:0:0:0:
152,36,56139,2,0,P|124:52|52:56,1,106.666663487752,8|8,1:2|0:0,0:0:0:0:
148,153,56405,1,8,0:0:0:0:
166,188,56494,6,0,P|194:264|168:338,1,120.000001001358,8|0,0:0|0:0,0:0:0:0:
303,116,56849,2,0,P|244:111|195:77,1,120.000001001358,8|0,0:0|0:0,0:0:0:0:
296,271,57204,6,0,P|328:222|381:195,1,120.000001001358,4|0,0:0|0:0,0:0:0:0:
196,78,57559,2,0,P|245:111|364:101,1,180.000001502037,8|0,0:0|0:0,0:0:0:0:
432,52,57914,1,2,0:0:0:0:
344,200,58092,1,0,0:0:0:0:
512,168,58269,1,8,0:0:0:0:
376,24,58447,6,0,P|450:68|484:131,1,120.000001001358
456,312,58802,2,0,P|435:333|408:347,1,60.0000005006791
328,362,58979,2,0,P|245:338|195:286,1,120.000001001358,8|0,0:0|0:0,0:0:0:0:
305,137,59334,2,8,P|378:181|413:244,1,120.000001001358,0|0,0:0|0:0,0:0:0:0:
256,384,59689,2,0,P|196:321|178:251,1,120.000001001358,8|0,0:0|0:0,0:0:0:0:
208,77,60044,6,0,P|214:136|196:193,1,120.000001001358
115,278,60400,2,0,B|160:263|200:287|200:287|229:269,1,120.000001001358,8|0,0:0|0:0,0:0:0:0:
396,225,60755,2,0,P|342:200|283:204,2,120.000001001358,2|0|8,0:0|0:0|0:0,0:0:0:0:
226,270,61287,1,0,0:0:0:0:
156,111,61465,6,0,B|112:71|58:61|58:61|64:120|98:164|98:164,1,223.999986488343,4|0,0:0|0:0,0:0:0:0:
224,150,61820,6,0,B|248:96|242:41|242:41|187:65|156:111|156:111,1,223.999986488343,8|0,0:0|0:0,0:0:0:0:
209,226,62175,6,0,B|268:233|318:209|318:209|278:165|225:150|225:150,1,223.999986488343,4|0,0:0|0:0,0:0:0:0:
132,236,62530,6,0,B|144:294|181:334|181:334|211:282|209:227|209:227,1,223.999986488343,8|0,0:0|0:0,0:0:0:0:
98,165,62885,6,0,B|47:194|20:242|20:242|78:255|130:236|130:236,1,223.999986488343,4|0,0:0|0:0,0:0:0:0:
320,124,63240,6,0,B|340:104|340:104|332:60|360:16,1,120.000001001358,8|0,0:0|0:0,0:0:0:0:
448,84,63595,2,0,P|463:141|451:199,1,120.000001001358,2|0,0:0|0:0,0:0:0:0:
245,254,63950,1,8,0:0:0:0:
364,4,64127,5,0,0:0:0:0:
364,4,64216,1,0,0:0:0:0:
364,4,64305,2,0,P|415:34|448:84,1,120.000001001358
337,328,64660,2,0,P|284:300|246:255,1,120.000001001358,8|0,0:0|0:0,0:0:0:0:
240,72,65015,2,0,P|299:72|352:99,1,120.000001001358,2|0,0:0|0:0,0:0:0:0:
245,254,65370,2,0,B|204:243|158:257|158:257|133:238,1,120.000001001358,8|0,0:0|0:0,0:0:0:0:
152,23,65725,5,0,0:0:0:0:
76,128,65902,1,0,0:0:0:0:
76,128,66080,1,8,0:0:0:0:
199,88,66257,1,0,0:0:0:0:
76,48,66434,1,2,0:0:0:0:
152,152,66612,5,0,0:0:0:0:
308,252,66790,1,8,0:0:0:0:
152,152,66968,1,0,0:0:0:0:
48,286,67145,5,4,0:0:0:0:
234,106,67323,1,0,0:0:0:0:
189,362,67500,1,8,0:0:0:0:
76,128,67678,1,0,0:0:0:0:
308,252,67855,6,0,P|369:204|383:115,1,159.999995231628,8|8,0:0|0:0,0:0:0:0:
360,147,68121,1,8,0:0:0:0:
330,162,68210,1,8,0:0:0:0:
297,169,68299,1,8,0:0:0:0:
264,168,68388,1,8,0:0:0:0:
232,159,68476,1,8,0:0:0:0:
203,146,68565,6,0,P|124:148|64:200,1,120.000001001358,4|0,0:0|0:0,0:0:0:0:
268,358,68920,2,0,P|303:311|308:252,1,120.000001001358,8|0,0:0|0:0,0:0:0:0:
194,256,69275,2,0,P|251:270|308:252,1,120.000001001358,2|0,0:0|0:0,0:0:0:0:
352,136,69630,1,8,0:0:0:0:
192,340,69808,5,0,0:0:0:0:
192,340,69897,1,0,0:0:0:0:
192,340,69985,2,0,P|135:356|78:342,1,120.000001001358
141,239,70340,2,0,P|188:301|186:380,1,120.000001001358,8|0,0:0|0:0,0:0:0:0:
140,116,70695,2,0,P|195:93|254:98,1,120.000001001358,2|0,0:0|0:0,0:0:0:0:
392,208,71050,2,0,P|336:230|277:224,1,120.000001001358,8|0,0:0|0:0,0:0:0:0:
140,116,71405,5,0,0:0:0:0:
214,285,71583,1,0,0:0:0:0:
324,136,71760,1,8,0:0:0:0:
214,285,71938,1,0,0:0:0:0:
240,104,72115,2,0,P|224:60|168:16,2,120.000001001358,2|0|8,0:0|0:0|0:0,0:0:0:0:
214,285,72648,1,0,0:0:0:0:
384,187,72826,6,0,B|446:173|502:192|502:192|465:244|410:267|410:267,1,240.000002002716,4|0,0:0|0:0,0:0:0:0:
300,187,73181,6,0,B|306:123|342:76|342:76|379:127|384:186|384:186,1,240.000002002716,8|0,0:0|0:0,0:0:0:0:
275,268,73536,6,0,B|216:241|182:193|182:193|242:173|300:187|300:187,1,240.000002002716,4|0,0:0|0:0,0:0:0:0:
345,247,73802,1,8,0:0:0:0:
343,319,73891,6,0,B|300:366|244:383|244:383|243:320|274:269|275:268,1,240.000002002716,8|8,0:0|0:0,0:0:0:0:
345,247,74157,1,8,0:0:0:0:
413,271,74246,6,0,B|444:326|446:383|446:383|383:365|344:320|344:320,1,240.000002002716,4|0,0:0|0:0,0:0:0:0:
154,187,74601,1,8,0:0:0:0:
144,16,74778,1,0,0:0:0:0:
256,84,74956,2,0,P|284:157|268:235,1,120.000001001358,2|0,0:0|0:0,0:0:0:0:
92,212,75311,2,0,P|146:187|205:188,1,120.000001001358,8|0,0:0|0:0,0:0:0:0:
316,264,75666,6,0,P|394:258|459:212,1,120.000001001358
337,23,76021,1,8,0:0:0:0:
215,29,76198,2,0,P|147:69|107:137,1,120.000001001358,0|2,0:0|0:0,0:0:0:0:
316,144,76553,2,0,P|260:125|200:129,1,120.000001001358,0|8,0:0|0:0,0:0:0:0:
239,332,76908,5,0,0:0:0:0:
311,320,76997,1,0,0:0:0:0:
368,276,77086,2,0,P|405:213|407:129,1,120.000001001358
223,220,77441,2,0,P|282:208|332:175,1,120.000001001358,8|0,0:0|0:0,0:0:0:0:
197,73,77796,2,0,P|247:146|331:175,1,180.000001502037,2|0,0:0|0:0,0:0:0:0:
420,164,78151,1,8,0:0:0:0:
286,52,78328,1,0,0:0:0:0:
144,192,78506,6,0,L|64:201,1,79.9999976158142,4|0,0:0|0:0,0:0:0:0:
240,220,78684,2,0,L|208:293,1,79.9999976158142,8|0,0:0|0:0,0:0:0:0:
312,150,78861,2,0,L|359:213,1,79.9999976158142,8|0,0:0|0:0,0:0:0:0:
286,52,79039,2,0,L|365:42,1,79.9999976158142,12|0,0:2|0:0,0:0:0:0:
120,384,79394,5,8,0:0:0:0:
198,371,79482,1,8,0:0:0:0:
269,332,79571,1,8,0:0:0:0:
343,312,79660,1,8,0:0:0:0:
421,325,79749,1,8,0:0:0:0:
469,262,79837,1,8,0:0:0:0:
463,183,79926,1,4,0:0:0:0:
256,192,80015,12,0,82766,0:0:0:0:
308,136,85074,5,0,0:0:0:0:
468,248,85252,1,8,0:0:0:0:
244,96,85429,2,0,L|176:52,1,60.0000005006791
308,136,85607,6,0,B|373:201|314:311|314:311|281:265,1,239.999992847443,4|0,0:0|0:0,0:0:0:0:
285,271,86139,1,8,0:0:0:0:
117,167,86494,1,8,0:0:0:0:
108,175,86672,1,2,0:0:0:0:
100,183,86849,1,2,0:0:0:0:
92,192,87027,6,0,B|18:267|0:329|0:329|74:330|175:256,1,360.000003004074,4|0,0:0|0:0,0:0:0:0:
274,189,87737,1,2,0:0:0:0:
280,184,87826,1,2,0:0:0:0:
286,180,87914,1,2,0:0:0:0:
292,175,88003,1,2,0:0:0:0:
299,171,88092,2,0,L|363:123,1,60.0000005006791,8|0,0:0|0:0,0:0:0:0:
432,79,88269,2,0,L|427:158,1,60.0000005006791,0|0,0:0|0:0,0:0:0:0:
416,260,88447,6,0,P|332:256|252:304,1,180.000001502037,4|0,0:0|0:0,0:0:0:0:
216,380,88802,1,8,0:0:0:0:
24,152,88979,2,0,P|136:146|243:210,1,240.000002002716,4|0,0:0|0:0,0:0:0:0:
388,60,89512,2,0,B|357:106|292:128,1,120.000001001358,8|0,0:0|0:0,0:0:0:0:
177,39,89867,5,4,0:0:0:0:
292,128,90044,1,0,0:0:0:0:
147,123,90222,1,8,0:0:0:0:
267,42,90400,1,4,0:0:0:0:
220,180,90577,1,2,0:0:0:0:
220,188,90666,1,2,0:0:0:0:
220,196,90755,1,2,0:0:0:0:
220,204,90843,1,2,0:0:0:0:
219,212,90932,2,0,L|142:255,2,60.0000005006791,8|0|0,0:0|0:0|0:0,0:0:0:0:
428,96,91287,5,4,0:0:0:0:
404,172,91465,1,0,0:0:0:0:
376,248,91642,2,0,P|316:228|260:236,1,120.000001001358,2|0,0:0|0:0,0:0:0:0:
144,200,91997,2,0,P|188:156|200:44,1,180.000001502037
199,43,92352,1,2,0:0:0:0:
48,228,92530,2,0,P|72:292|212:384,2,240.000002002716
60,108,93417,1,0,0:0:0:0:
164,44,93595,1,0,0:0:0:0:
280,68,93772,1,2,0:0:0:0:
336,176,93950,1,0,0:0:0:0:
296,288,94127,6,0,L|192:352,1,120.000001001358
184,232,94482,2,0,L|80:296,1,120.000001001358,2|0,0:0|0:0,0:0:0:0:
96,68,94837,1,0,0:0:0:0:
184,148,95015,1,0,0:0:0:0:
72,188,95192,1,2,0:0:0:0:
208,32,95370,2,0,P|292:84|432:72,1,240.000002002716
464,185,95902,2,0,L|512:296,1,120.000001001358,2|0,0:0|0:0,0:0:0:0:
348,216,96257,2,0,L|348:336,1,120.000001001358
233,185,96613,2,0,L|184:296,1,120.000001001358,2|0,0:0|0:0,0:0:0:0:
36,72,96968,6,0,B|96:132|156:88|156:88|200:52|256:64,1,240.000002002716,0|2,0:0|0:0,0:0:0:0:
388,108,97500,1,0,0:0:0:0:
384,224,97678,2,0,P|312:200|284:168,1,120.000001001358
388,108,98033,1,2,0:0:0:0:
384,224,98210,1,0,0:0:0:0:
320,312,98388,2,0,P|272:336|88:316,1,240.000002002716,0|2,0:0|0:0,0:0:0:0:
4,236,98920,1,0,0:0:0:0:
0,88,99098,2,0,P|60:96|108:132,1,120.000001001358
164,232,99364,1,0,0:0:0:0:
164,232,99453,2,0,P|171:291|153:351,1,120.000001001358,2|0,0:0|0:0,0:0:0:0:
272,264,99808,5,0,0:0:0:0:
388,200,99985,1,0,0:0:0:0:
276,132,100163,1,2,0:0:0:0:
272,264,100340,1,0,0:0:0:0:
377,79,100518,2,0,P|319:91|276:132,1,120.000001001358
272,264,100873,1,10,0:0:0:0:
408,348,101050,6,0,L|348:308,1,60.0000005006791,2|0,0:0|0:0,0:0:0:0:
272,264,101228,1,4,0:0:0:0:
276,132,101405,1,0,0:0:0:0:
148,224,101583,1,8,0:0:0:0:
112,48,101760,1,0,0:0:0:0:
112,48,102115,1,0,0:0:0:0:
1,178,102293,1,8,0:0:0:0:
148,224,102471,2,0,P|164:196|172:163,1,60.0000005006791,2|0,0:0|0:0,0:0:0:0:
220,280,102648,6,0,P|240:333|286:373,2,120.000001001358,4|0|2,0:0|0:0|0:0,0:0:0:0:
356,256,103181,1,0,0:0:0:0:
484,100,103358,2,0,L|448:220,1,120.000001001358
420,332,103713,1,2,0:0:0:0:
424,26,103891,2,0,L|356:256,1,240.000002002716
168,264,104423,1,2,0:0:0:0:
188,92,104601,2,0,P|248:76|304:84,1,120.000001001358
252,196,104956,1,2,0:0:0:0:
252,196,105044,1,2,0:0:0:0:
252,196,105133,2,0,L|168:168,1,60.0000005006791,2|0,0:0|0:0,0:0:0:0:
72,136,105311,1,2,0:0:0:0:
216,8,105488,5,0,0:0:0:0:
164,104,105666,1,0,0:0:0:0:
311,135,105843,1,0,0:0:0:0:
166,180,106021,1,0,0:0:0:0:
326,349,106198,1,0,0:0:0:0:
321,152,106376,1,0,0:0:0:0:
154,256,106553,1,2,0:0:0:0:
256,228,106731,2,0,P|216:116|120:44,1,240.000002002716
172,220,107263,2,0,P|127:261|72:280,1,120.000001001358,2|0,0:0|0:0,0:0:0:0:
317,118,107618,2,0,P|367:88|427:81,1,120.000001001358
427,81,107885,1,0,0:0:0:0:
427,81,107973,1,2,0:0:0:0:
385,234,108151,5,0,0:0:0:0:
385,234,108240,1,0,0:0:0:0:
385,234,108329,2,0,P|285:296|167:283,1,240.000002002716,0|2,0:0|0:0,0:0:0:0:
216,384,108861,1,0,0:0:0:0:
289,296,109039,2,0,B|308:248|300:196|248:188|224:128|232:72,1,240.000002002716,0|2,0:0|0:0,0:0:0:0:
308,24,109571,1,0,0:0:0:0:
448,96,109749,2,0,B|428:124|428:124|320:92|232:160,1,240.000002002716,0|2,0:0|0:0,0:0:0:0:
292,264,110281,2,0,P|328:216|336:152,1,120.000001001358
320,52,110636,1,0,0:0:0:0:
437,206,110814,2,0,P|383:230|325:223,1,120.000001001358,2|0,0:0|0:0,0:0:0:0:
292,264,111080,5,0,0:0:0:0:
292,264,111169,2,0,P|240:292|180:288,1,120.000001001358
124,132,111524,2,0,P|180:160|208:216,1,120.000001001358,2|0,0:0|0:0,0:0:0:0:
28,156,111879,2,0,P|120:132|200:16,1,240.000002002716,0|2,0:0|0:0,0:0:0:0:
368,16,112411,1,0,0:0:0:0:
440,168,112589,6,0,P|384:196|333:296,1,180.000001502037
354,347,112944,2,0,P|294:351|242:323,1,120.000001001358,2|0,0:0|0:0,0:0:0:0:
242,323,113210,1,0,0:0:0:0:
242,323,113299,1,0,0:0:0:0:
360,216,113476,1,0,0:0:0:0:
200,180,113654,1,8,0:0:0:0:
388,56,113831,1,8,0:0:0:0:
140,16,114009,6,0,L|48:96,1,120.000001001358,4|0,0:0|0:0,0:0:0:0:
148,116,114364,2,0,L|104:228,1,120.000001001358
220,60,114719,2,0,P|296:168|396:184,1,240.000002002716,8|0,0:0|0:0,0:0:0:0:
512,152,115252,1,2,0:0:0:0:
311,283,115429,2,0,P|357:319|416:331,2,120.000001001358,0|2|8,0:0|0:0|0:0,0:0:0:0:
252,180,115962,1,0,0:0:0:0:
252,180,116139,2,0,P|136:264|96:348,1,240.000002002716,8|2,0:0|0:0,0:0:0:0:
332,272,116672,1,2,0:0:0:0:
328,152,116849,5,0,0:0:0:0:
220,96,117027,2,0,P|168:88|120:44,1,120.000001001358,0|2,0:0|0:0,0:0:0:0:
328,152,117382,1,0,0:0:0:0:
224,224,117559,2,0,P|176:261|153:317,2,120.000001001358,8|0|0,0:0|0:0|0:0,0:0:0:0:
456,132,118092,2,0,B|433:105|433:105|332:184|220:136,1,240.000002002716,2|2,0:0|0:0,0:0:0:0:
136,112,118624,1,8,0:0:0:0:
60,300,118802,2,0,P|136:291|179:251,2,120.000001001358,0|8|0,0:0|0:0|0:0,0:0:0:0:
80,184,119334,1,2,0:0:0:0:
164,96,119512,1,2,0:0:0:0:
280,64,119689,6,0,P|341:117|491:115,1,240.000002002716,4|2,0:0|0:0,0:0:0:0:
468,232,120222,2,0,L|500:356,1,120.000001001358,0|8,0:0|0:0,0:0:0:0:
364,236,120577,2,0,L|348:356,1,120.000001001358,0|2,0:0|0:0,0:0:0:0:
264,208,120932,1,0,0:0:0:0:
264,208,121110,2,0,L|188:336,1,120.000001001358,0|2,0:0|0:0,0:0:0:0:
68,136,121465,2,0,P|112:172|176:188,2,120.000001001358,8|0|8,0:0|0:0|0:0,0:0:0:0:
336,240,122175,1,2,0:0:0:0:
252,288,122352,1,2,0:0:0:0:
154,287,122530,6,0,P|165:211|192:177,1,120.000001001358,8|0,0:0|0:0,0:0:0:0:
224,56,122885,1,0,0:0:0:0:
388,232,123062,2,0,P|317:260|274:254,1,120.000001001358,0|8,0:0|0:0,0:0:0:0:
154,287,123417,1,0,0:0:0:0:
224,56,123595,6,0,P|303:119|324:172,1,159.999995231628,8|8,0:0|0:0,0:0:0:0:
324,172,124305,2,0,P|344:136|400:104,1,106.666663487752,8|8,1:2|0:0,0:0:0:0:
260,74,124571,1,8,0:0:0:0:
224,56,124660,6,0,L|152:24,1,79.9999976158142,8|0,0:0|0:0,0:0:0:0:
152,104,124837,2,0,L|72:112,1,79.9999976158142,8|0,0:0|0:0,0:0:0:0:
116,180,125015,2,0,L|51:226,1,79.9999976158142,8|0,0:0|0:0,0:0:0:0:
120,266,125192,2,0,L|87:338,1,79.9999976158142,8|0,0:0|0:0,0:0:0:0:
200,244,125370,6,0,B|228:256|228:256|276:220|352:216,1,120.000001001358,4|0,0:0|0:0,0:0:0:0:
384,92,125725,2,0,P|424:136|443:193,1,120.000001001358,8|0,0:0|0:0,0:0:0:0:
432,336,126080,2,0,B|376:344|344:320|344:320|312:328,1,120.000001001358,2|0,0:0|0:0,0:0:0:0:
384,92,126435,1,8,0:0:0:0:
248,272,126613,5,0,0:0:0:0:
248,272,126701,1,0,0:0:0:0:
247,272,126790,2,0,P|191:291|133:290,1,120.000001001358,0|0,0:0|0:0,0:0:0:0:
351,308,127145,2,0,P|296:364|219:382,1,120.000001001358,8|0,0:0|0:0,0:0:0:0:
367,240,127500,2,0,P|334:311|268:355,1,120.000001001358,2|0,0:0|0:0,0:0:0:0:
360,168,127855,2,0,P|351:251|304:311,1,120.000001001358,8|0,0:0|0:0,0:0:0:0:
128,344,128210,6,0,B|104:304|124:260|124:260|76:224,1,120.000001001358
200,300,128565,1,8,0:0:0:0:
253,75,128743,1,0,0:0:0:0:
233,151,128831,1,0,0:0:0:0:
217,227,128920,1,2,0:0:0:0:
308,128,129098,1,0,0:0:0:0:
156,172,129275,1,8,0:0:0:0:
272,280,129453,1,0,0:0:0:0:
308,128,129630,6,0,B|284:74|239:41|239:41|220:97|233:151,1,223.999986488343,4|0,0:0|0:0,0:0:0:0:
353,191,129985,6,0,B|397:152|414:99|414:99|355:99|308:128,1,223.999986488343,8|0,0:0|0:0,0:0:0:0:
308,256,130340,6,0,B|358:285|413:285|413:285|396:229|354:192,1,223.999986488343,4|0,0:0|0:0,0:0:0:0:
233,233,130695,6,0,B|220:290|237:342|237:342|285:309|307:257,1,223.999986488343,8|0,0:0|0:0,0:0:0:0:
234,155,131050,6,0,B|175:160|130:193|130:193|178:228|233:233,1,223.999986488343,4|0,0:0|0:0,0:0:0:0:
212,78,131405,6,0,P|153:91|99:115,1,120.000001001358,8|0,0:0|0:0,0:0:0:0:
20,244,131760,2,0,B|48:224|48:224|76:260|120:276,1,120.000001001358,2|0,0:0|0:0,0:0:0:0:
416,39,132115,2,0,P|359:55|315:95,1,120.000001001358,8|0,0:0|0:0,0:0:0:0:
296,204,132382,5,0,0:0:0:0:
296,204,132471,2,0,P|311:261|351:305,1,120.000001001358
414,155,132826,2,0,P|371:113|315:95,1,120.000001001358,8|0,0:0|0:0,0:0:0:0:
172,152,133181,2,0,B|186:190|146:243|146:243|151:265,1,120.000001001358,2|0,0:0|0:0,0:0:0:0:
243,360,133536,2,0,P|297:333|335:288,1,120.000001001358,8|0,0:0|0:0,0:0:0:0:
427,162,133891,5,0,0:0:0:0:
336,288,134068,1,0,0:0:0:0:
336,288,134246,1,8,0:0:0:0:
483,240,134423,1,0,0:0:0:0:
336,192,134601,1,2,0:0:0:0:
427,317,134778,5,0,0:0:0:0:
512,128,134956,1,8,0:0:0:0:
260,160,135133,1,0,0:0:0:0:
483,240,135311,5,12,0:0:0:0:
312,46,135488,1,0,0:0:0:0:
335,304,135666,1,8,0:0:0:0:
468,81,135843,1,0,0:0:0:0:
231,183,136021,6,0,P|153:177|97:122,1,159.999995231628,8|8,0:0|0:0,0:0:0:0:
148,107,136286,1,8,0:0:0:0:
200,104,136375,1,8,0:0:0:0:
252,112,136464,1,8,0:0:0:0:
300,132,136553,1,8,0:0:0:0:
345,161,136641,1,8,0:0:0:0:
380,200,136731,6,0,P|400:284|376:360,1,120.000001001358,4|0,0:0|0:0,0:0:0:0:
300,132,137086,2,0,P|341:64|412:30,1,120.000001001358,8|0,0:0|0:0,0:0:0:0:
240,56,137441,2,0,B|220:88|220:88|176:72|140:96,1,120.000001001358,2|0,0:0|0:0,0:0:0:0:
16,340,137796,2,0,P|74:330|123:297,1,120.000001001358,8|0,0:0|0:0,0:0:0:0:
188,160,138151,5,0,0:0:0:0:
88,228,138328,1,0,0:0:0:0:
267,297,138506,2,0,P|325:282|373:246,1,120.000001001358,8|0,0:0|0:0,0:0:0:0:
240,56,138861,2,0,P|268:132|256:208,1,120.000001001358,2|0,0:0|0:0,0:0:0:0:
190,345,139216,2,0,P|166:291|164:232,1,120.000001001358,8|0,0:0|0:0,0:0:0:0:
240,56,139571,6,0,P|316:28|392:40,1,120.000001001358
436,192,139926,1,8,0:0:0:0:
280,248,140104,2,0,P|232:240|204:224,1,60.0000005006791
362,234,140281,2,0,P|383:310|356:384,1,120.000001001358,2|0,0:0|0:0,0:0:0:0:
144,172,140636,1,8,0:0:0:0:
280,248,140814,1,0,0:0:0:0:
370,86,140991,6,0,B|337:31|286:2|286:2|273:63|293:120|293:120,1,240.000002002716,4|0,0:0|0:0,0:0:0:0:
428,149,141346,6,0,B|470:101|481:43|481:43|419:50|371:86|371:86,1,240.000002002716,8|0,0:0|0:0,0:0:0:0:
386,218,141701,6,0,B|445:246|503:239|503:239|480:180|428:149,1,240.000002002716,4|0,0:0|0:0,0:0:0:0:
355,155,141968,1,8,0:0:0:0:
304,203,142056,6,0,B|297:266|322:319|322:319|369:277|386:220|386:218,1,240.000002002716,8|8,0:0|0:0,0:0:0:0:
355,155,142322,1,8,0:0:0:0:
295,120,142411,6,0,B|232:133|189:173|189:173|244:205|303:203|303:203,1,240.000002002716,4|0,0:0|0:0,0:0:0:0:
296,40,142766,2,0,P|237:51|182:74,1,120.000001001358,8|0,0:0|0:0,0:0:0:0:
72,51,143033,2,0,P|92:73|107:99,1,60.0000005006791,0|2,0:0|0:0,0:0:0:0:
64,312,143299,1,0,0:0:0:0:
170,244,143476,2,0,P|228:256|287:248,1,120.000001001358,8|0,0:0|0:0,0:0:0:0:
392,176,143831,6,0,B|368:208|368:208|392:272|342:317,1,120.000001001358
264,56,144186,1,8,0:0:0:0:
507,158,144364,2,0,P|451:180|392:176,1,120.000001001358,0|2,0:0|0:0,0:0:0:0:
72,153,144719,2,0,P|128:131|188:136,1,120.000001001358,0|8,0:0|0:0,0:0:0:0:
212,376,145074,5,0,0:0:0:0:
168,316,145163,1,0,0:0:0:0:
149,244,145252,2,0,P|154:184|187:135,1,120.000001001358
280,84,145607,2,0,B|304:120|291:169|291:169|306:195,1,120.000001001358,8|0,0:0|0:0,0:0:0:0:
432,292,145962,2,0,B|396:328|396:328|332:296|271:327,1,180.000001502037,2|0,0:0|0:0,0:0:0:0:
200,368,146317,1,8,0:0:0:0:
173,133,146494,1,0,3:0:0:0:
288,288,146672,6,0,L|312:364,1,79.9999976158142,4|0,0:0|0:0,0:0:0:0:
287,97,146849,2,0,L|311:20,1,79.9999976158142,8|0,0:2|0:0,0:0:0:0:
173,252,147027,2,0,L|108:300,1,79.9999976158142,0|0,0:0|0:0,0:0:0:0:
356,190,147204,2,0,L|437:191,1,79.9999976158142,8|0,0:0|0:0,0:0:0:0:
67,42,147560,5,8,0:0:0:0:
82,122,147648,1,8,0:0:0:0:
118,193,147737,1,8,0:0:0:0:
173,252,147826,1,8,0:0:0:0:
240,294,147915,1,8,0:0:0:0:
317,315,148003,1,8,0:0:0:0:
396,315,148092,1,4,0:0:0:0:
256,192,148181,12,0,150932,0:0:0:0:
86,329,160873,6,0,P|63:252|79:176,1,159.999995231628,4|0,0:0|0:0,0:0:0:0:
124,111,161405,2,0,P|208:116|270:76,1,159.999995231628
332,32,161938,1,0,0:0:0:0:
344,108,162115,2,0,P|394:163|398:247,1,159.999995231628
388,284,162559,1,0,0:0:0:0:
367,320,162648,1,0,0:0:0:0:
312,380,162826,1,0,0:0:0:0:
312,380,163181,1,0,0:0:0:0:
284,296,163358,1,0,0:0:0:0:
204,240,163536,1,0,0:0:0:0:
104,209,163713,6,0,P|86:139|110:57,1,159.999995231628,4|0,0:0|0:0,0:0:0:0:
188,44,164246,2,0,P|204:121|181:196,2,159.999995231628
188,44,165311,1,0,0:0:0:0:
148,56,165400,1,0,0:0:0:0:
120,84,165488,1,0,0:0:0:0:
181,197,165666,2,0,P|244:243|323:253,1,159.999995231628
164,312,166198,1,8,0:0:0:0:
196,152,166376,5,0,0:0:0:0:
208,80,166465,1,0,0:0:0:0:
140,104,166553,2,0,B|60:150|88:272|88:272|132:236,1,239.999992847443,4|8,0:0|0:0,0:0:0:0:
328,20,167441,5,2,0:0:0:0:
372,104,167618,1,2,0:0:0:0:
420,188,167796,1,2,0:0:0:0:
468,272,167973,2,0,B|392:300|328:252|328:252|296:256,1,180.000001502037,4|0,0:0|0:0,0:0:0:0:
258,330,168328,5,2,0:0:0:0:
176,317,168447,1,2,0:0:0:0:
164,236,168566,1,2,0:0:0:0:
239,198,168684,1,2,0:0:0:0:
296,256,168802,1,2,0:0:0:0:
258,330,168920,1,2,0:0:0:0:
176,317,169039,2,0,P|126:233|126:173,1,160.000001335144,2|0,0:0|0:0,0:0:0:0:
280,0,169394,6,0,P|272:68|148:164,1,180.000001502037,4|0,0:0|0:0,0:0:0:0:
126,172,169749,1,8,0:0:0:0:
308,132,169926,2,0,P|404:174|476:284,1,240.000002002716,4|0,0:0|0:0,0:0:0:0:
364,280,170459,1,8,0:0:0:0:
464,112,170636,1,0,0:0:0:0:
192,12,170814,6,0,P|175:68|210:183,1,180.000001502037,4|0,0:0|0:0,0:0:0:0:
108,156,171169,2,0,P|150:196|209:203,1,120.000001001358,8|0,0:2|0:0,0:0:0:0:
417,295,171524,6,0,P|389:244|280:200,1,180.000001502037,10|0,0:2|0:0,0:0:0:0:
506,198,171879,2,0,P|434:170|285:218,1,239.999992847443,8|0,0:0|0:0,0:0:0:0:
496,24,172234,6,0,P|353:86|296:231,1,319.999990463257,12|8,0:0|0:0,0:0:0:0:
316,240,172944,5,8,0:0:0:0:
512,328,173121,1,4,0:0:0:0:
464,56,173299,1,0,0:0:0:0:
388,144,173476,6,0,P|256:144|216:56,1,239.999992847443,12|0,0:0|0:0,0:0:0:0:
388,144,173831,1,2,0:0:0:0:
388,144,173920,1,2,0:0:0:0:
388,144,174009,2,0,B|412:188|412:220|400:252|400:252|440:268|448:288,1,159.999995231628,8|2,0:0|0:0,0:0:0:0:
336,318,174275,1,2,0:0:0:0:
336,318,174364,2,0,P|308:266|319:208,1,120.000001001358,8|0,0:0|0:0,0:0:0:0:
227,272,174719,2,0,P|168:290|108:278,1,120.000001001358,2|2,0:0|0:0,0:0:0:0:
220,128,175074,6,0,P|300:104|444:152,1,240.000002002716,4|2,0:0|0:0,0:0:0:0:
448,312,175607,1,0,0:0:0:0:
448,312,175784,2,0,P|400:280|376:224,1,120.000001001358,8|0,0:0|0:0,0:0:0:0:
260,312,176139,2,0,P|208:337|148:330,1,120.000001001358,2|0,0:0|0:0,0:0:0:0:
44,232,176494,6,0,P|8:140|24:64,1,180.000001502037,4|0,0:0|0:0,0:0:0:0:
88,128,176849,6,0,P|156:166|254:160,1,180.000001502037,2|0,0:0|0:0,0:0:0:0:
340,128,177204,6,0,P|316:223|258:275,1,180.000001502037,8|0,0:0|0:0,0:0:0:0:
392,260,177559,6,0,P|476:313|507:384,1,180.000001502037,2|0,0:0|0:0,0:0:0:0:
512,180,177914,6,0,P|439:207|367:357,1,240.000002002716,4|2,0:0|0:0,0:0:0:0:
284,224,178447,1,0,0:0:0:0:
200,288,178624,2,0,L|104:360,2,120.000001001358,8|0|2,0:0|0:0|0:0,0:0:0:0:
284,224,179157,6,0,B|280:112|352:32|352:32|340:4,1,240.000002002716
284,224,179689,5,2,0:0:0:0:
417,79,179867,1,0,0:0:0:0:
224,120,180044,1,8,0:0:0:0:
403,199,180222,1,0,0:0:0:0:
304,32,180400,1,2,0:0:0:0:
464,312,180577,5,0,0:0:0:0:
464,312,180666,1,0,0:0:0:0:
464,312,180755,2,0,P|384:336|260:256,1,239.999992847443,4|0,0:0|0:0,0:0:0:0:
232,164,181110,1,8,0:0:0:0:
76,296,181287,2,0,P|140:315|239:251,1,159.999995231628,0|0,0:0|0:0,0:0:0:0:
180,64,181642,5,0,0:0:0:0:
332,320,181820,1,8,0:0:0:0:
128,268,181997,1,0,0:0:0:0:
384,116,182175,5,4,0:0:0:0:
196,326,182352,1,0,0:0:0:0:
225,46,182530,1,8,0:0:0:0:
366,290,182707,1,0,0:0:0:0:
108,176,182885,1,4,0:0:0:0:
300,32,183062,5,8,0:0:0:0:
309,83,183150,1,8,0:0:0:0:
297,134,183239,1,8,0:0:0:0:
277,180,183328,1,8,0:0:0:0:
266,231,183417,1,8,0:0:0:0:
276,282,183506,1,8,0:0:0:0:
300,328,183595,6,0,B|328:356|328:356|388:328|448:340,1,159.999995231628,12|0,0:0|0:0,0:0:0:0:
328,232,183950,2,0,P|248:200|176:204,1,159.999995231628,8|0,0:0|0:0,0:0:0:0:
56,284,184305,2,0,P|136:316|208:312,1,159.999995231628,2|0,0:0|0:0,0:0:0:0:
211,53,184660,2,0,P|177:125|176:204,1,159.999995231628,8|0,0:0|0:0,0:0:0:0:
208,312,184926,5,0,0:0:0:0:
208,312,185015,2,0,P|134:284|83:224,1,159.999995231628,0|0,0:0|0:0,0:0:0:0:
313,93,185370,2,0,P|313:172|273:240,1,159.999995231628,8|0,0:0|0:0,0:0:0:0:
126,327,185725,2,0,P|75:266|62:188,1,159.999995231628,2|0,0:0|0:0,0:0:0:0:
241,53,186080,2,0,P|280:121|279:200,1,159.999995231628,8|0,0:0|0:0,0:0:0:0:
147,124,186435,6,0,P|224:144|279:200,1,159.999995231628
312,344,186790,1,8,0:0:0:0:
147,124,186968,2,0,P|202:69|277:49,1,159.999995231628,0|2,0:0|0:0,0:0:0:0:
488,144,187323,2,0,P|432:199|357:219,1,159.999995231628,0|8,0:0|0:0,3:0:0:0:
279,48,187678,1,0,0:0:0:0:
120,192,187855,6,0,B|64:169|30:126|30:126|85:105|139:115|139:115,1,223.999986488343,4|0,0:0|0:0,0:0:0:0:
186,234,188210,2,0,B|148:280|96:299|96:299|93:240|120:192|120:192,1,223.999986488343,8|0,0:0|0:0,0:0:0:0:
248,184,188565,2,0,B|280:235|282:289|282:289|224:274|187:234|187:234,1,223.999986488343,4|0,0:0|0:0,0:0:0:0:
221,110,188920,2,0,B|279:95|331:110|331:110|299:159|250:183|250:183,1,223.999986488343,8|0,0:0|0:0,0:0:0:0:
143,115,189275,2,0,B|146:54|177:9|177:9|214:55|221:109|221:109,1,223.999986488343,4|0,0:0|0:0,0:0:0:0:
236,382,189630,6,0,P|296:331|320:256,1,159.999995231628,8|0,0:0|0:0,0:0:0:0:
292,96,189985,1,2,0:0:0:0:
320,256,190163,2,0,P|355:258|396:245,1,79.9999976158142
468,200,190340,2,0,P|494:149|478:23,1,159.999995231628,8|0,0:0|0:0,0:0:0:0:
292,96,190695,6,0,P|256:140|251:268,1,159.999995231628
272,356,191050,1,8,0:0:0:0:
129,308,191228,2,0,P|153:233|136:156,1,159.999995231628,0|2,0:0|0:0,0:0:0:0:
10,54,191583,2,0,P|25:85|57:114,1,79.9999976158142,0|0,3:0|0:0,0:0:0:0:
136,156,191760,2,0,P|219:163|314:117,1,159.999995231628,8|0,0:0|0:0,0:0:0:0:
354,2,192115,6,0,P|382:76|376:156,1,159.999995231628,0|0,0:0|0:0,0:0:0:0:
136,156,192471,2,0,P|129:76|157:2,1,159.999995231628,8|0,0:0|0:0,0:0:0:0:
376,156,192826,1,2,0:0:0:0:
184,295,193003,1,0,0:0:0:0:
256,68,193181,1,8,0:0:0:0:
328,296,193358,1,0,0:0:0:0:
136,156,193536,5,4,0:0:0:0:
256,68,193713,1,0,0:0:0:0:
120,208,193891,5,8,0:0:0:0:
298,141,194068,1,0,0:0:0:0:
84,252,194246,5,8,0:0:0:0:
317,229,194423,1,0,0:0:0:0:
32,276,194601,5,8,0:0:0:0:
99,288,194689,1,8,0:0:0:0:
167,301,194778,1,8,0:0:0:0:
235,313,194867,1,8,0:0:0:0:
304,324,194956,6,0,B|354:329|354:329|390:293|450:281,1,159.999995231628,4|0,0:0|0:0,0:0:0:0:
298,141,195311,2,0,P|360:188|440:184,1,159.999995231628,8|0,0:0|0:0,0:0:0:0:
512,104,195666,2,0,P|449:57|369:61,1,159.999995231628,2|0,0:0|0:0,0:0:0:0:
212,96,196021,2,0,B|188:152|218:204|218:204|196:248,1,159.999995231628,8|0,0:0|0:0,0:0:0:0:
96,384,196287,5,0,0:0:0:0:
96,384,196376,2,0,P|105:306|62:239,1,159.999995231628
24,116,196731,2,0,P|92:160|176:156,1,159.999995231628,8|0,0:0|0:0,0:0:0:0:
380,36,197086,2,0,P|307:72|269:147,1,159.999995231628,2|0,0:0|0:0,0:0:0:0:
272,384,197441,2,0,P|276:303|230:232,1,159.999995231628,8|0,0:0|0:0,0:0:0:0:
90,145,197796,6,0,P|168:154|240:119,1,159.999995231628
233,33,198151,2,0,P|273:101|344:136,1,159.999995231628,8|0,0:0|0:0,0:0:0:0:
512,320,198506,1,2,0:0:0:0:
428,208,198684,1,0,0:0:0:0:
304,308,198861,2,0,P|225:304|157:265,1,159.999995231628,8|0,0:0|0:0,0:0:0:0:
196,164,199216,6,0,B|247:132|302:129|302:129|286:186|247:224|247:224,1,223.999986488343,4|0,0:0|0:0,0:0:0:0:
124,193,199571,2,0,B|109:135|124:81|124:81|173:114|196:164|196:164,1,223.999986488343,8|0,0:0|0:0,0:0:0:0:
128,272,199926,2,0,B|67:267|23:237|23:237|69:199|123:193|123:193,1,223.999986488343,4|0,0:0|0:0,0:0:0:0:
204,295,200281,2,0,B|182:350|139:383|139:383|118:329|127:275|127:275,1,223.999986488343,8|0,0:0|0:0,0:0:0:0:
247,230,200636,2,0,B|294:268|312:319|312:319|253:322|206:296|206:296,1,223.999986488343,4|0,0:0|0:0,0:0:0:0:
232,120,200991,6,0,B|275:106|275:106|315:142|383:134,1,159.999995231628,8|0,0:0|0:0,0:0:0:0:
484,108,201346,1,2,0:0:0:0:
239,20,201524,2,0,P|199:26|164:44,1,79.9999976158142
104,100,201701,2,0,P|69:174|70:251,1,159.999995231628,8|0,0:0|0:0,0:0:0:0:
320,324,202056,6,0,P|308:260|248:188,1,159.999995231628,0|0,0:0|0:0,0:0:0:0:
104,100,202411,1,8,0:0:0:0:
70,250,202589,2,0,P|102:270|142:282,1,79.9999976158142
224,288,202766,2,0,P|300:262|357:207,1,159.999995231628,2|0,0:0|0:0,0:0:0:0:
308,56,203121,2,0,P|232:82|175:137,1,159.999995231628,8|0,0:0|0:0,0:0:0:0:
76,356,203476,5,0,0:0:0:0:
153,252,203654,1,0,0:0:0:0:
153,252,203831,1,8,0:0:0:0:
29,292,204009,1,0,0:0:0:0:
152,332,204186,1,2,0:0:0:0:
77,227,204364,5,0,0:0:0:0:
252,308,204542,1,8,0:0:0:0:
248,116,204719,1,0,0:0:0:0:
152,252,204897,5,4,0:0:0:0:
375,204,205074,1,0,0:0:0:0:
166,111,205252,1,8,0:0:0:0:
280,309,205429,1,0,0:0:0:0:
304,82,205607,1,8,0:0:0:0:
280,309,205784,5,8,0:0:0:0:
316,236,205872,1,8,0:0:0:0:
293,161,205962,1,8,0:0:0:0:
232,109,206049,1,8,0:0:0:0:
160,75,206138,1,8,0:0:0:0:
80,66,206227,1,8,0:0:0:0:
1,84,206317,6,0,P|16:171|60:227,1,159.999995231628,4|0,0:0|0:0,0:0:0:0:
240,220,206672,2,0,P|178:268|146:341,1,159.999995231628,8|0,0:0|0:0,0:0:0:0:
318,120,207027,2,0,P|240:100|165:120,1,159.999995231628,2|0,0:0|0:0,0:0:0:0:
102,276,207382,2,0,P|180:287|250:251,1,159.999995231628,8|0,0:0|0:0,0:0:0:0:
290,188,207648,5,0,0:0:0:0:
318,120,207737,2,0,P|382:72|462:64,1,159.999995231628
382,331,208092,2,0,P|330:319|250:251,1,159.999995231628,10|0,0:0|0:0,0:0:0:0:
311,10,208447,2,0,P|326:61|307:164,1,159.999995231628,2|0,0:0|0:0,0:0:0:0:
68,231,208802,2,0,P|105:192|204:157,1,159.999995231628,8|0,0:0|0:0,0:0:0:0:
364,164,209157,5,0,0:0:0:0:
195,274,209334,1,0,0:0:0:0:
184,73,209512,1,8,0:0:0:0:
312,267,209689,1,0,0:0:0:0:
133,176,209867,1,10,0:2:0:0:
301,66,210044,1,0,0:0:0:0:
229,383,210222,1,8,0:0:0:0:
300,367,210310,1,8,0:0:0:0:
356,319,210400,1,8,0:0:0:0:
384,252,210488,1,8,0:0:0:0:
382,178,210577,6,0,B|388:113|364:60|364:60|317:102|300:159|300:159,1,240.000002002716,4|0,0:0|0:0,0:0:0:0:
392,263,210932,6,0,B|454:249|497:209|497:209|442:176|384:178|382:178,1,240.000002002716,8|0,0:0|0:0,0:0:0:0:
316,300,211287,6,0,B|347:355|399:383|399:383|411:321|392:265|392:265,1,240.000002002716,4|0,0:0|0:0,0:0:0:0:
331,229,211553,1,8,0:0:0:0:
261,237,211642,6,0,B|218:285|206:343|206:343|269:336|316:300|316:300,1,240.000002002716,8|8,0:0|0:0,0:0:0:0:
331,229,211908,1,8,0:0:0:0:
305,164,211997,6,0,B|246:138|187:145|187:145|213:203|262:237|262:237,1,240.000002002716,4|0,0:0|0:0,0:0:0:0:
512,344,212352,1,8,0:0:0:0:
404,116,212530,1,0,0:0:0:0:
340,72,212618,1,0,0:0:0:0:
264,52,212707,1,2,0:0:0:0:
0,232,212885,1,0,0:0:0:0:
64,276,212973,1,0,0:0:0:0:
140,296,213062,2,0,P|208:302|294:266,1,159.999995231628,8|0,0:0|0:0,0:0:0:0:
340,72,213417,6,0,P|277:101|221:174,1,159.999995231628
380,384,213772,2,0,P|419:369|449:343,1,79.9999976158142,8|0,0:0|0:0,0:0:0:0:
500,284,213950,2,0,P|523:219|511:127,1,159.999995231628,0|2,0:0|0:0,0:0:0:0:
206,36,214305,2,0,P|189:74|186:113,1,79.9999976158142,0|0,0:0|0:0,3:0:0:0:
192,192,214483,2,0,P|221:254|295:310,1,159.999995231628,8|0,0:0|0:0,0:0:0:0:
288,96,214837,6,0,P|181:42|72:64,1,180.000001502037,4|0,0:0|0:0,0:0:0:0:
56,80,215192,2,0,P|20:116|0:180,1,120.000001001358,8|0,0:0|0:0,0:0:0:0:
39,372,215547,5,10,0:0:0:0:
112,372,215636,1,10,0:0:0:0:
177,339,215725,1,10,0:0:0:0:
217,279,215814,1,10,0:0:0:0:
226,207,215902,1,8,0:0:0:0:
274,142,215991,1,8,0:0:0:0:
352,163,216081,1,8,0:0:0:0:
351,244,216169,1,8,0:0:0:0:
275,271,216257,6,0,L|216:193,1,79.9999976158142,4|0,0:0|0:0,0:0:0:0:
156,255,216435,2,0,L|154:157,1,79.9999976158142,8|0,0:0|0:0,0:0:0:0:
69,171,216613,2,0,L|125:91,1,79.9999976158142,8|0,0:0|0:0,0:0:0:0:
46,52,216790,2,0,L|138:20,1,79.9999976158142,12|0,0:2|0:0,0:0:0:0:
512,0,217145,5,8,0:0:0:0:
485,75,217234,1,8,0:0:0:0:
438,140,217322,1,8,0:0:0:0:
373,184,217411,1,8,0:0:0:0:
297,203,217500,1,8,0:0:0:0:
320,134,217589,1,8,0:0:0:0:
374,87,217677,5,4,0:0:0:0:
382,96,218210,1,0,0:0:0:0:
268,189,218920,2,0,B|248:205|248:205|272:253|268:349,1,159.999995231628,4|0,0:0|0:0,0:0:0:0:
148,108,220518,5,0,0:0:0:0:
136,116,221050,1,0,0:0:0:0:
240,200,221760,2,0,B|260:216|260:216|236:264|240:360,1,159.999995231628,4|0,0:0|0:0,0:0:0:0:
291,190,223358,6,0,L|333:77,1,119.999996423721
352,104,224246,1,0,0:0:0:0:
215,254,224778,2,0,B|188:240|188:240|144:117,1,159.999995231628
120,152,225920,1,0,0:0:0:0:
97,189,226376,5,4,0:0:0:0:
13,326,227007,2,0,L|76:224,1,119.999996423721
252,138,228270,1,4,0:0:0:0:
188,240,229020,2,0,L|231:173,1,79.9999976158142
408,84,230707,5,4,0:0:0:0:
256,192,230884,12,0,234612,0:0:0:0:
