osu file format v9

[General]
AudioFilename: hoshiop.mp3
AudioLeadIn: 1000
PreviewTime: 49108
Countdown: 0
SampleSet: Normal
StackLeniency: 0.7
Mode: 0
LetterboxInBreaks: 1

[Editor]
DistanceSpacing: 1
BeatDivisor: 4
GridSize: 4

[Metadata]
Title:Kaleidoscope (Short Ver.)
Artist:Shimotsuki Haruka
Creator:Hinacle
Version:Easy
Source:Hoshizora no Memoria -Eternal Heart-
Tags:favorite hentai game eroge ryafuka Kanpakyin net45291

[Difficulty]
HPDrainRate:2
CircleSize:3
OverallDifficulty:2
ApproachRate:3
SliderMultiplier:0.800000005960459
SliderTickRate:1

[Events]
//Background and Video events
Video,0,"hoshiop.flv"
0,0,"BG.jpg"
//Break Periods
//Storyboard Layer 0 (Background)
//Storyboard Layer 1 (Fail)
//Storyboard Layer 2 (Pass)
//Storyboard Layer 3 (Foreground)
//Storyboard Sound Samples
//Background Colour Transformations
3,100,163,162,255

[TimingPoints]
360,382.165605095541,4,2,1,40,1,0
11060,-100,4,1,1,30,0,0
12111,-100,4,1,2,40,0,0
12589,-100,4,2,2,40,0,0
33895,-100,4,2,1,40,0,0
36379,-100,4,2,2,50,0,0
49086,-100,4,1,1,50,0,1
61506,-100,4,1,1,50,0,0
67430,-100,4,1,1,50,0,1
84818,-100,4,1,1,50,0,0
85105,-100,4,2,1,50,0,0
86347,-100,4,2,2,50,0,0
86538,-100,4,2,2,40,0,0
101633,-100,4,2,1,40,0,0
103831,-100,4,1,2,40,0,0
104213,-100,4,1,2,30,0,0
107366,-100,4,2,1,5,0,0

[Colours]
Combo1 : 106,255,225
Combo2 : 89,172,255
Combo3 : 134,134,255
Combo4 : 255,119,232

[HitObjects]
272,184,360,2,0,B|224:264|272:336,1,160.000001192092,4|2
432,336,1888,2,0,B|480:256|432:184,1,160.000001192092,0|2
352,48,3417,5,0
192,48,4181,1,2
192,208,4945,2,0,B|128:264|40:224,2,160.000001192092,0|2|4
352,208,7238,5,2
352,48,8003,2,0,B|272:16|192:48,1,160.000001192092,0|2
40,56,9531,2,0,B|40:224,1,160.000001192092,0|2
200,216,11060,6,0,B|200:144,2,60.0000004470344,8|8|8
200,336,12207,2,0,B|280:336,1,80.0000005960459,2|4
440,336,13353,5,8
440,176,14117,2,0,B|440:80|328:80,1,160.000001192092,0|8
176,80,15646,5,0
176,240,16410,1,8
336,240,17175,1,0
336,80,17939,1,8
176,80,18703,6,0,B|96:40|16:80,2,160.000001192092,0|8|0
176,240,20996,1,8
336,240,21761,2,0,B|416:280|496:240,2,160.000001192092,0|8|2
336,80,24054,1,8
200,160,24818,6,0,B|128:208|40:160,1,160.000001192092,4|8
48,328,26347,2,0,B|120:280|208:328,1,160.000001192092,0|8
360,328,27875,5,0
480,224,28640,1,8
360,120,29404,1,0
240,224,30168,1,8
80,224,30933,5,0
80,64,31697,1,8
240,64,32461,1,0
240,224,33226,1,8
256,192,33990,12,2,36092
184,288,37047,6,0,B|104:328|24:288,2,160.000001192092,4|8|0
344,288,39340,1,8
344,128,40105,5,0
216,32,40869,1,8
88,128,41633,1,0
216,224,42398,1,8
376,224,43162,6,0,B|424:152|376:64,2,160.000001192092,4|8|4
216,224,45455,1,8
56,224,46219,5,4
136,80,46984,1,8
216,224,47748,1,4
296,80,48512,1,8
416,80,49086,6,0,B|416:208,1,120.000000894069,4|4
416,280,50041,2,0,B|344:328|264:280,2,160.000001192092,8|0|8
416,160,52143,6,0,B|296:160,1,120.000000894069,4|4
216,160,53098,1,8
56,160,53863,1,0
56,320,54627,1,8
176,320,55200,6,0,B|232:352|296:320,1,120.000000894069,4|4
368,300,56156,1,8
448,160,56920,1,0
328,56,57684,1,8
256,200,58449,6,0,B|168:200,1,80.0000005960459,4|8
96,200,59213,2,0,B|96:280,1,80.0000005960459,0|8
96,360,59977,2,0,B|176:360,1,80.0000005960459,0|8
256,360,60742,2,0,B|256:280,1,80.0000005960459,2|2
256,200,61506,5,4
256,40,62270,1,8
416,40,63035,1,4
416,200,63799,1,8
256,200,64563,6,0,B|176:200,1,80.0000005960459,4|8
96,200,65328,2,0,B|96:112,1,80.0000005960459,2|8
96,40,66092,2,0,B|256:40,1,160.000001192092,2|8
376,40,67430,6,0,B|400:96|376:168,1,120.000000894069,4|4
376,240,68385,1,8
256,344,69149,1,0
136,240,69914,1,8
136,120,70487,6,0,B|192:96|256:120,1,120.000000894069,4|4
336,120,71442,2,0,B|416:168|488:120,2,160.000001192092,8|0|8
256,32,73544,6,0,B|200:56|136:32,1,120.000000894069,4|4
56,32,74500,1,8
56,192,75264,1,0
56,352,76028,1,8
216,352,76793,5,2
376,352,77557,2,0,B|424:280|376:192,1,160.000001192092,8|2
376,40,79086,1,8
216,40,79850,6,0,B|40:40,1,160.000001192092,4|8
56,200,81379,2,0,B|216:200,1,160.000001192092,4|8
376,200,82907,5,4
376,80,83481,2,0,B|448:24,2,80.0000005960459,2|0|2
256,80,84818,1,4
176,80,85200,6,0,B|48:80,2,120.000000894069,0|4|0
176,160,86729,2,0,B|176:328,1,160.000001192092,8|0
336,320,88258,1,8
336,200,88831,6,0,B|352:144|336:80,1,120.000000894069,4|0
256,80,89786,2,0,B|184:120|96:80,2,160.000001192092,8|0|8
256,200,91888,6,0,B|256:320,1,120.000000894069,4|0
176,320,92844,2,0,B|0:320,2,160.000001192092,8|0|8
176,200,94945,6,0,B|160:144|176:80,1,120.000000894069,4|0
256,80,95901,1,8
364,200,96665,1,0
256,320,97430,6,0,B|424:320,1,160.000001192092,8|4
416,240,98576,2,0,B|416:112,1,120.000000894069,0|4
320,48,99723,6,0,B|264:24|200:48,1,120.000000894069,4|0
120,48,100678,2,0,B|96:104|120:168,1,120.000000894069,4|4
120,284,101824,6,0,B|200:284,3,80.0000005960459,2|0|2|0
240,284,103162,2,0,B|320:292|320:268|400:284,1,160.000001192092,2|2
256,192,104309,12,0,107366
