osu file format v14

[General]
AudioFilename: Hidra Heteromycin.mp3
AudioLeadIn: 0
PreviewTime: 118434
Countdown: 0
SampleSet: Normal
StackLeniency: 0.7
Mode: 0
LetterboxInBreaks: 1
WidescreenStoryboard: 0

[Editor]
DistanceSpacing: 1
BeatDivisor: 4
GridSize: 8
TimelineZoom: 1.350002

[Metadata]
Title:Hidra Heteromycin
TitleUnicode:Hidra Heteromycin
Artist:Shimotsuki Haruka
ArtistUnicode:霜月はるか
Creator:Silynn
Version:Concerto
Source:アルノサージュ ~生まれいずる星へ祈る詩~
Tags:ar nosurge ode to an unborn star surge concerto
BeatmapID:987724
BeatmapSetID:461164

[Difficulty]
HPDrainRate:4.3
CircleSize:4.3
OverallDifficulty:9.7
ApproachRate:9.4
SliderMultiplier:2
SliderTickRate:1

[Events]
//Background and Video events
0,0,"nelo.jpg",0,0
//Break Periods
2,115810,117188
2,163810,172953
2,280810,281659
2,331810,333894
//Storyboard Layer 0 (Background)
//Storyboard Layer 1 (Fail)
//Storyboard Layer 2 (Pass)
//Storyboard Layer 3 (Foreground)
//Storyboard Sound Samples

[TimingPoints]
1258,352.941176470588,4,1,1,70,1,0
107140,-133.333333333333,4,1,1,70,0,0
117728,-100,4,1,1,70,0,0
118434,-100,4,1,1,70,0,1
139963,-100,4,1,1,70,0,0
141022,-100,4,1,1,70,0,1
163610,-100,4,1,1,70,0,0
174905,-83.3333333333333,4,1,1,70,0,0
255375,-100,4,1,1,70,0,0
282199,-200,4,2,0,30,0,0
283434,-100,4,1,1,70,0,0
283610,-100,4,1,1,70,0,1
298787,-71.4285714285714,4,1,1,70,0,1
299140,-100,4,1,1,70,0,1
300552,-66.6666666666667,4,1,1,70,0,1
305140,-66.6666666666667,4,1,1,70,0,0
306199,-66.6666666666667,4,1,1,70,0,1
320316,-55.8659217877095,4,1,1,70,0,1
321728,-66.6666666666667,4,1,1,70,0,1
328787,-55.8659217877095,4,1,1,70,0,0
334787,-100,4,1,1,70,0,0
366905,-287.4,4,1,1,70,0,0
366993,-287.4,4,1,1,20,0,0

[Colours]
Combo1 : 90,99,180
Combo2 : 143,78,165
Combo3 : 183,87,87
Combo4 : 192,192,192

[HitObjects]
48,166,1258,5,0,2:0:0:0:
265,41,1434,1,2,2:0:0:0:
48,166,1610,5,0,2:0:0:0:
363,114,1787,1,2,2:0:0:0:
48,166,1963,5,0,2:0:0:0:
422,218,2140,2,0,P|437:248|445:271,1,50,2|0,2:0|0:0,0:0:0:0:
179,174,2316,2,0,P|219:148|312:127,1,100,8|0,0:0|0:0,0:0:0:0:
212,304,2669,2,0,P|123:274|90:252,1,100,8|0,0:0|0:0,0:0:0:0:
29,60,3022,1,8,0:0:0:0:
32,286,3199,5,0,0:0:0:0:
48,318,3287,1,0,0:0:0:0:
64,346,3375,1,8,0:0:0:0:
315,294,3552,1,2,2:0:0:0:
129,115,3728,1,8,0:0:0:0:
64,346,3905,1,2,2:0:0:0:
320,279,4081,1,8,0:0:0:0:
54,61,4257,5,0,0:0:0:0:
54,61,4346,1,0,0:0:0:0:
54,61,4434,1,8,0:0:0:0:
145,331,4610,1,0,0:0:0:0:
14,150,4787,5,8,0:0:0:0:
302,355,4963,1,0,0:0:0:0:
23,248,5140,5,8,0:0:0:0:
454,320,5316,1,0,0:0:0:0:
354,21,5493,6,0,P|265:13|208:12,1,100,8|0,0:0|0:0,0:0:0:0:
161,25,5757,1,0,0:0:0:0:
161,25,5846,1,0,0:0:0:0:
242,259,6022,1,0,0:0:0:0:
430,171,6199,2,0,L|425:35,1,100,8|0,0:0|0:0,0:0:0:0:
436,321,6552,1,0,0:0:0:0:
436,48,6728,5,0,0:0:0:0:
306,128,6905,2,0,P|255:118|191:119,1,100,8|0,0:0|0:0,0:0:0:0:
56,233,7257,2,0,L|82:354,1,100,2|0,2:0|0:0,0:0:0:0:
100,50,7610,5,8,0:0:0:0:
74,343,7787,1,0,0:0:0:0:
310,215,7963,1,2,2:0:0:0:
12,134,8140,1,0,0:0:0:0:
74,343,8316,6,0,P|165:348|207:340,1,100,8|0,0:0|0:0,0:0:0:0:
247,330,8581,1,0,0:0:0:0:
196,275,8669,1,4,3:0:0:0:
61,191,8846,5,0,0:0:0:0:
12,134,8934,1,0,0:0:0:0:
21,59,9022,1,4,3:0:0:0:
371,209,9199,5,0,0:0:0:0:
296,208,9287,1,0,0:0:0:0:
221,206,9375,1,4,3:0:0:0:
445,62,9552,5,0,0:0:0:0:
475,130,9640,1,0,0:0:0:0:
476,204,9728,1,4,3:0:0:0:
80,201,9905,5,0,0:0:0:0:
89,126,9993,1,0,0:0:0:0:
136,68,10081,1,8,0:0:0:0:
210,63,10169,1,0,0:0:0:0:
273,103,10257,1,0,0:0:0:0:
348,103,10346,1,0,0:0:0:0:
412,64,10434,6,0,P|433:36|436:9,1,50,8|0,0:0|0:0,0:0:0:0:
479,207,10610,2,0,P|458:184|418:162,1,50,2|0,0:0|0:0,0:0:0:0:
183,154,10787,1,8,0:0:0:0:
177,181,10875,1,0,0:0:0:0:
171,208,10963,1,0,0:0:0:0:
412,366,11140,6,0,P|417:283|411:234,1,100,4|0,0:0|0:0,0:0:0:0:
234,331,11405,1,0,0:0:0:0:
325,350,11493,1,8,0:0:0:0:
241,118,11669,2,0,P|205:191|233:322,1,200,2|0,0:0|0:0,0:0:0:0:
372,105,12199,5,8,0:0:0:0:
225,25,12375,2,0,L|14:37,1,200,2|0,0:0|0:0,0:0:0:0:
13,268,12905,5,8,0:0:0:0:
160,348,13081,2,0,L|371:336,1,200,2|0,0:0|0:0,0:0:0:0:
111,152,13611,1,4,3:0:0:0:
39,190,13699,1,0,0:0:0:0:
13,268,13788,1,0,0:0:0:0:
434,142,13963,5,8,0:0:0:0:
361,121,14052,1,0,0:0:0:0:
287,106,14140,1,0,0:0:0:0:
214,86,14228,1,0,0:0:0:0:
141,69,14316,1,8,0:0:0:0:
181,232,14493,2,0,P|310:219|382:196,1,200,2|0,0:0|0:0,0:0:0:0:
99,176,15022,2,0,P|77:237|75:294,1,100,8|0,0:0|0:0,0:0:0:0:
54,269,15375,6,0,P|60:219|79:173,1,100,8|0,0:0|0:0,0:0:0:0:
150,81,15640,1,2,0:0:0:0:
260,43,15728,2,0,L|382:40,1,100,8|0,0:0|0:0,0:0:0:0:
450,117,15993,1,2,0:0:0:0:
346,174,16081,2,0,L|246:176,1,100,8|0,0:0|0:0,0:0:0:0:
172,267,16346,1,2,0:0:0:0:
259,345,16434,2,0,P|377:353|484:312,1,200,4|8,0:0|0:0,0:0:0:0:
64,184,16963,5,2,0:0:0:0:
73,187,17052,1,0,0:0:0:0:
66,194,17140,1,4,3:3:0:0:
178,28,17316,2,0,P|249:73|298:177,1,200,8|0,0:0|0:0,0:0:0:0:
62,191,17846,6,0,P|79:123|103:81,1,100,2|0,0:0|0:0,0:0:0:0:
150,170,18110,1,0,0:0:0:0:
162,262,18199,2,0,P|200:319|326:360,1,200,8|0,0:0|0:0,0:0:0:0:
498,292,18728,5,0,0:0:0:0:
351,163,18905,2,0,L|220:159,1,100,8|2,0:0|0:0,0:0:0:0:
304,55,19257,2,0,L|520:58,1,200,8|4,0:0|0:0,0:0:0:0:
256,192,19655,12,0,20846,0:0:0:0:
97,354,21022,6,0,P|38:300|26:259,1,100,8|0,0:0|0:0,0:0:0:0:
144,192,21287,1,2,0:0:0:0:
208,64,21375,2,0,P|258:53|304:64,1,100,8|0,0:0|0:0,0:0:0:0:
368,192,21640,1,2,0:0:0:0:
480,283,21728,2,0,P|455:325|415:354,1,100,8|0,0:0|0:0,0:0:0:0:
434,78,22081,2,0,L|446:212,1,100,8|0,0:0|0:0,0:0:0:0:
67,51,22434,5,4,0:0:0:0:
434,78,22610,1,2,0:0:0:0:
188,262,22787,1,8,0:0:0:0:
249,18,22963,2,0,P|329:79|368:199,1,200
32,146,23493,5,8,0:0:0:0:
241,41,23669,2,0,L|471:50,1,200,2|0,0:0|0:0,0:0:0:0:
419,329,24199,5,8,0:0:0:0:
36,365,24375,2,0,P|22:271|27:163,1,200,2|0,0:0|0:0,0:0:0:0:
154,365,24905,2,0,L|26:374,1,100,8|0,0:0|0:0,0:0:0:0:
346,300,25257,6,0,P|252:300|229:308,1,100,8|0,0:0|0:0,0:0:0:0:
165,352,25522,1,0,0:0:0:0:
109,281,25610,1,2,0:0:0:0:
345,183,25787,2,0,P|415:234|487:342,1,200,8|0,0:0|0:0,0:0:0:0:
325,179,26316,2,0,P|337:124|369:66,1,100,2|0,0:0|0:0,0:0:0:0:
347,322,26669,5,8,0:0:0:0:
162,258,26846,1,0,0:0:0:0:
147,220,26934,1,0,0:0:0:0:
149,180,27022,1,2,0:0:0:0:
222,327,27199,1,0,0:0:0:0:
186,345,27287,1,0,0:0:0:0:
146,347,27375,1,8,0:0:0:0:
106,340,27463,1,0,0:0:0:0:
57,311,27552,1,2,0:0:0:0:
16,254,27640,1,0,0:0:0:0:
6,164,27728,2,0,B|57:159|57:159|102:184|102:184|187:175,1,150,8|0,0:0|0:0,0:0:0:0:
256,89,28081,6,0,P|312:55|385:41,1,100,8|0,0:0|0:0,0:0:0:0:
451,49,28346,1,0,0:0:0:0:
451,49,28434,1,2,0:0:0:0:
401,237,28610,2,0,L|280:222,1,100,0|8,0:0|0:0,0:0:0:0:
179,346,28963,1,0,0:0:0:0:
482,353,29140,2,0,P|492:283|479:140,1,200,2|8,0:0|0:0,0:0:0:0:
195,165,29669,5,0,0:0:0:0:
191,204,29757,1,0,0:0:0:0:
188,244,29846,1,2,0:0:0:0:
339,343,30022,1,0,0:0:0:0:
390,180,30199,2,0,P|340:163|264:154,1,100,8|0,0:0|0:0,0:0:0:0:
86,258,30552,2,0,L|70:53,1,200,2|8,0:0|0:0,0:0:0:0:
39,346,31081,5,0,0:0:0:0:
78,342,31169,1,0,0:0:0:0:
117,335,31257,1,2,0:0:0:0:
366,256,31434,2,0,P|280:241|237:244,1,100,0|8,0:0|0:0,0:0:0:0:
441,338,31787,1,0,0:0:0:0:
458,178,31963,2,0,L|272:99,1,200,2|8,0:0|0:0,0:0:0:0:
171,57,32405,5,0,0:0:0:0:
140,82,32493,1,2,0:0:0:0:
140,121,32581,1,0,0:0:0:0:
158,156,32669,1,8,0:0:0:0:
175,192,32757,1,0,0:0:0:0:
177,232,32846,1,2,0:0:0:0:
153,263,32934,1,0,0:0:0:0:
115,275,33022,1,8,0:0:0:0:
79,255,33110,1,0,0:0:0:0:
77,214,33199,1,2,0:0:0:0:
106,186,33287,1,0,0:0:0:0:
145,189,33375,2,0,P|185:239|159:307,1,100,8|2,0:0|0:0,0:0:0:0:
20,142,33728,5,8,0:0:0:0:
48,114,33816,1,0,0:0:0:0:
84,97,33905,1,2,0:0:0:0:
123,92,33993,1,0,0:0:0:0:
162,97,34081,2,0,P|211:122|247:174,1,100,8|0,0:0|0:0,0:0:0:0:
427,70,34434,6,0,P|344:78|288:103,1,100,8|0,0:0|0:0,0:0:0:0:
246,169,34699,1,2,0:0:0:0:
343,261,34787,2,0,L|350:135,1,100,8|0,0:0|0:0,0:0:0:0:
57,332,35140,6,0,P|101:342|172:331,1,100,4|0,0:0|0:0,0:0:0:0:
241,281,35405,1,0,0:0:0:0:
241,281,35493,1,2,0:0:0:0:
41,127,35669,2,0,L|44:274,1,100,8|0,0:0|0:1,0:0:0:0:
313,335,36022,1,0,0:0:0:0:
326,83,36199,5,8,0:0:0:0:
285,54,36287,1,0,0:0:0:0:
236,41,36375,1,2,0:0:0:0:
186,36,36463,1,0,0:0:0:0:
135,38,36552,2,0,P|84:58|50:93,1,100,8|2,0:0|0:0,0:0:0:0:
138,127,36816,5,0,0:0:0:0:
148,116,36905,1,8,0:0:0:0:
123,120,36993,1,0,0:0:0:0:
130,142,37081,1,0,0:0:0:0:
153,140,37169,1,0,0:0:0:0:
138,127,37257,2,0,P|157:235|190:338,1,200,8|8,0:0|0:0,0:0:0:0:
422,353,37787,1,0,0:0:0:0:
407,164,37963,6,0,L|269:143,1,100,8|0,0:0|0:0,0:0:0:0:
288,249,38228,1,0,0:0:0:0:
337,246,38316,1,2,0:0:0:0:
387,244,38405,1,0,0:0:0:0:
476,235,38493,2,0,P|504:172|419:73,1,200,8|0,0:0|0:0,0:0:0:0:
245,73,39022,5,2,0:0:0:0:
486,252,39199,2,0,P|531:147|524:30,1,200,10|0,0:0|0:0,0:0:0:0:
281,314,39728,2,0,L|415:276,1,100,8|0,0:0|0:0,0:0:0:0:
66,256,40081,1,2,0:0:0:0:
391,361,40257,1,0,0:0:0:0:
319,74,40434,2,0,P|297:127|283:191,1,100,8|0,0:0|0:0,0:0:0:0:
32,72,40787,6,0,P|79:55|152:49,1,100,8|0,0:0|0:0,0:0:0:0:
194,123,41052,1,0,0:0:0:0:
194,123,41140,1,2,0:0:0:0:
78,347,41316,2,0,L|76:137,1,200,8|2,0:0|0:0,0:0:0:0:
444,168,41846,5,0,0:0:0:0:
286,348,42022,2,0,P|232:355|158:351,1,100,8|0,0:0|0:0,0:0:0:0:
353,220,42375,2,0,P|405:187|447:178,1,100,8|0,0:0|0:0,0:0:0:0:
479,349,42728,1,2,0:0:0:0:
285,264,42905,1,8,0:0:0:0:
472,183,43081,1,0,0:0:0:0:
474,266,43169,1,0,0:0:0:0:
479,349,43257,2,0,L|337:343,2,100,8|0|8,0:0|0:0|0:0,0:0:0:0:
188,352,43787,5,2,0:0:0:0:
109,335,43875,1,0,0:0:0:0:
59,272,43963,1,0,0:0:0:0:
174,46,44140,2,0,P|172:120|156:260,1,200,8|0,0:0|0:0,0:0:0:0:
23,352,44669,1,2,0:0:0:0:
64,152,44846,5,8,0:0:0:0:
298,309,45022,1,2,0:0:0:0:
393,30,45199,1,8,0:0:0:0:
64,152,45375,1,2,0:0:0:0:
170,344,45552,5,8,0:0:0:0:
402,123,45728,1,2,0:0:0:0:
125,49,45905,1,8,0:0:0:0:
389,346,46081,1,2,0:0:0:0:
483,42,46257,1,8,0:0:0:0:
151,190,46434,6,0,P|218:205|282:204,1,100,4|0,0:0|0:0,0:0:0:0:
354,191,46699,1,0,0:0:0:0:
354,191,46787,1,2,0:0:0:0:
61,64,46963,2,0,P|58:161|69:279,1,200,8|2,0:0|0:0,0:0:0:0:
362,186,47493,6,0,P|356:85|351:51,1,100,8|2,0:0|0:0,0:0:0:0:
271,74,47757,1,0,0:0:0:0:
273,161,47846,2,0,P|412:155|481:137,1,200,8|8,0:0|0:0,0:0:0:0:
486,307,48375,2,0,L|277:292,1,200,2|8,0:0|0:0,0:0:0:0:
195,343,48816,1,0,0:0:0:0:
92,351,48905,2,0,P|41:304|31:239,1,100,8|0,0:0|0:0,0:0:0:0:
34,71,49257,5,10,0:0:0:0:
79,66,49346,1,0,0:0:0:0:
123,61,49434,1,2,0:0:0:0:
167,55,49522,1,0,0:0:0:0:
211,49,49610,1,0,0:0:0:0:
232,193,49787,2,0,L|25:165,1,200,8|2,0:0|0:0,0:0:0:0:
328,29,50316,5,0,0:0:0:0:
473,158,50493,2,0,P|465:209|342:309,1,200,8|2,0:0|0:0,0:0:0:0:
260,298,50934,1,0,0:0:0:0:
161,282,51022,2,0,P|91:309|69:335,1,100,8|0,0:0|0:0,0:0:0:0:
201,200,51375,2,0,L|82:181,1,100,8|0,0:0|0:0,0:0:0:0:
200,68,51728,1,8,0:0:0:0:
244,67,51816,1,0,0:0:0:0:
289,66,51905,2,0,L|360:64,1,50,2|0,0:0|0:0,0:0:0:0:
471,209,52081,5,8,0:0:0:0:
472,253,52169,1,0,0:0:0:0:
456,295,52257,1,2,0:0:0:0:
422,326,52346,1,0,0:0:0:0:
377,334,52434,1,0,0:0:0:0:
156,168,52610,2,0,L|378:153,1,200,8|2,0:0|0:0,0:0:0:0:
345,246,53052,5,0,0:0:0:0:
269,295,53140,2,2,P|198:273|174:247,1,100,8|2,0:0|0:0,0:0:0:0:
15,300,53405,5,0,0:0:0:0:
75,359,53493,2,0,L|193:352,1,100,8|0,0:0|0:0,0:0:0:0:
269,295,53757,1,0,0:0:0:0:
379,276,53846,1,2,0:0:0:0:
476,324,53934,1,0,0:0:0:0:
511,219,54022,2,0,P|509:144|484:21,1,200,8|2,0:0|0:0,0:0:0:0:
410,87,54463,1,0,0:0:0:0:
334,35,54552,2,0,L|213:34,1,100,8|0,0:0|0:0,0:0:0:0:
41,148,54905,5,8,0:0:0:0:
90,148,54993,1,0,0:0:0:0:
140,148,55081,1,2,0:0:0:0:
318,211,55257,1,8,0:0:0:0:
60,294,55434,1,0,0:0:0:0:
389,325,55610,2,0,P|435:312|498:272,1,100,8|2,0:0|0:0,0:0:0:0:
389,51,55963,1,8,0:0:0:0:
224,148,56140,1,0,0:0:0:0:
292,324,56316,5,8,0:0:0:0:
471,141,56493,1,2,0:0:0:0:
119,56,56669,1,8,0:0:0:0:
302,336,56846,5,2,0:0:0:0:
272,29,57022,1,8,0:0:0:0:
122,224,57199,1,2,0:0:0:0:
449,170,57375,1,2,0:0:0:0:
431,159,57463,1,0,0:0:0:0:
413,148,57552,1,2,0:0:0:0:
177,110,57728,5,4,0:0:0:0:
182,271,57905,1,0,0:0:0:0:
335,274,58081,1,8,0:0:0:0:
330,113,58258,1,0,0:0:0:0:
166,105,58434,6,0,P|122:132|83:169,1,100,8|0,0:0|0:0,0:0:0:0:
256,352,58787,1,0,0:0:0:0:
425,164,58963,2,0,P|388:130|346:105,1,100,4|0,0:0|0:0,0:0:0:0:
256,208,59316,1,0,0:0:0:0:
256,224,59405,1,0,0:0:0:0:
256,240,59493,1,8,0:0:0:0:
472,272,59669,5,2,0:0:0:0:
256,80,59846,1,8,0:0:0:0:
40,272,60022,1,0,0:0:0:0:
256,360,60199,1,8,0:0:0:0:
352,192,60375,1,0,0:0:0:0:
160,192,60552,6,0,P|175:280|198:326,1,100,4|0,0:0|0:0,0:0:0:0:
368,72,60905,1,8,0:0:0:0:
144,72,61081,5,2,0:0:0:0:
495,190,61257,2,0,P|456:125|422:101,1,100,8|0,0:0|0:0,0:0:0:0:
256,328,61610,1,2,0:0:0:0:
74,110,61787,2,0,P|38:145|10:308,1,200,8|0,0:0|0:0,0:0:0:0:
214,212,62316,6,0,P|136:187|94:183,1,100,8|0,0:0|0:0,0:0:0:0:
336,300,62669,1,8,0:0:0:0:
370,304,62757,1,0,0:0:0:0:
404,297,62846,1,2,0:0:0:0:
209,114,63022,1,8,0:0:0:0:
205,148,63110,1,0,0:0:0:0:
208,183,63199,1,2,0:0:0:0:
446,142,63375,5,4,0:0:0:0:
248,24,63552,1,0,0:0:0:0:
220,251,63728,1,8,0:0:0:0:
446,142,63905,5,0,0:0:0:0:
178,79,64081,2,0,L|66:77,1,100,8|2,0:0|0:0,0:0:0:0:
30,284,64434,5,0,0:0:0:0:
298,347,64610,2,0,P|405:345|497:312,1,200,8|2,0:0|0:0,0:0:0:0:
397,258,65052,1,0,0:0:0:0:
483,235,65140,2,0,L|478:119,1,100,8|0,0:0|0:0,0:0:0:0:
203,208,65493,5,8,0:0:0:0:
479,230,65669,2,0,P|462:171|442:128,1,100,2|8,0:0|0:0,0:0:0:0:
209,47,66022,1,0,0:0:0:0:
198,295,66199,1,4,0:0:0:0:
198,295,66905,6,0,P|272:296|430:240,1,200,8|2,0:0|0:0,0:0:0:0:
89,72,67434,1,0,0:0:0:0:
77,105,67522,1,0,0:0:0:0:
69,139,67610,2,0,P|58:231|68:348,2,200,8|0|8,0:0|0:0|0:0,0:0:0:0:
154,121,68405,1,0,0:0:0:0:
238,121,68493,1,2,0:0:0:0:
320,142,68581,1,0,0:0:0:0:
404,139,68669,1,8,0:0:0:0:
455,71,68757,1,0,0:0:0:0:
389,15,68846,1,2,0:0:0:0:
262,220,69022,6,0,P|363:233|395:220,1,100,4|0,0:0|0:0,0:0:0:0:
474,195,69287,1,0,0:0:0:0:
474,195,69375,1,8,0:0:0:0:
317,349,69552,2,0,L|107:336,1,200,2|0,0:0|0:0,0:0:0:0:
31,172,70081,2,0,P|28:88|35:46,1,100,8|0,0:0|0:0,0:0:0:0:
344,272,70434,6,0,L|221:264,1,100,8|0,0:0|0:0,0:0:0:0:
128,203,70699,1,0,0:0:0:0:
128,203,70787,1,2,0:0:0:0:
406,29,70963,2,0,P|425:93|423:239,1,200,8|2,0:0|0:0,0:0:0:0:
466,304,71405,1,0,0:0:0:0:
393,358,71493,2,0,L|270:350,1,100,8|0,0:0|0:0,0:0:0:0:
47,279,71846,6,0,L|155:287,1,100,8|0,0:0|0:0,0:0:0:0:
247,238,72110,1,0,0:0:0:0:
247,238,72199,1,8,0:0:0:0:
54,57,72375,1,2,0:0:0:0:
54,352,72552,5,8,0:0:0:0:
182,300,72728,1,0,0:0:0:0:
144,151,72905,1,2,0:0:0:0:
16,203,73081,2,0,P|62:254|199:300,1,200,8|2,0:0|0:0,0:0:0:0:
267,262,73522,1,0,0:0:0:0:
329,331,73610,2,0,L|436:328,1,100,8|0,0:0|0:0,0:0:0:0:
483,151,73963,5,2,0:0:0:0:
257,255,74140,2,0,L|202:220,1,50,8|0,0:0|0:0,0:0:0:0:
61,103,74316,2,0,P|115:62|165:53,1,100,0|2,0:0|0:0,0:0:0:0:
256,88,74581,5,0,0:0:0:0:
366,54,74669,2,0,P|413:70|451:103,1,100,8|2,0:0|0:0,0:0:0:0:
472,215,74934,1,0,0:0:0:0:
472,215,75022,1,0,0:0:0:0:
268,354,75199,6,0,P|272:252|334:132,1,200,8|0,0:0|0:0,0:0:0:0:
428,347,75728,1,2,0:0:0:0:
178,294,75905,2,0,L|69:292,1,100,8|0,0:0|0:0,0:0:0:0:
88,94,76257,5,2,0:0:0:0:
137,93,76345,1,0,0:0:0:0:
188,92,76434,2,0,P|235:114|294:170,1,100,8|2,0:0|0:0,0:0:0:0:
448,97,76787,2,0,L|326:82,1,100,0|2,0:0|0:0,0:0:0:0:
287,165,77052,1,0,0:0:0:0:
376,237,77140,2,0,L|498:222,1,100,8|0,0:0|0:0,0:0:0:0:
293,359,77493,6,0,P|203:313|185:281,1,100,8|2,0:0|0:0,0:0:0:0:
114,345,77757,1,0,0:0:0:0:
137,251,77846,1,0,0:0:0:0:
185,35,78022,2,0,L|415:29,1,200,8|2,0:0|0:0,0:0:0:0:
485,333,78552,2,0,L|363:336,1,100,8|0,0:0|0:0,0:0:0:0:
72,180,78905,5,8,0:0:0:0:
456,115,79081,1,2,0:0:0:0:
195,352,79257,1,8,0:0:0:0:
205,43,79434,6,0,P|289:64|311:76,1,100,2|0,0:0|0:0,0:0:0:0:
474,254,79787,1,0,0:0:0:0:
62,319,79963,2,0,P|54:265|63:206,1,100
82,129,80228,5,0,0:0:0:0:
155,188,80316,2,0,L|151:320,1,100
227,340,80581,1,0,0:0:0:0:
227,340,80669,1,0,0:0:0:0:
423,97,80846,2,0,P|326:94|192:126,1,200
263,206,81287,1,0,0:0:0:0:
307,198,81375,1,0,0:0:0:0:
350,188,81463,1,0,0:0:0:0:
394,178,81552,1,0,0:0:0:0:
446,340,81728,5,0,0:0:0:0:
396,335,81816,1,0,0:0:0:0:
345,331,81905,1,0,0:0:0:0:
295,325,81993,1,0,0:0:0:0:
245,320,82081,1,0,0:0:0:0:
14,280,82257,1,0,0:0:0:0:
132,63,82434,2,0,P|175:137|185:191,1,100
6,272,82787,5,0,0:0:0:0:
291,90,82963,1,0,0:0:0:0:
390,343,83140,6,0,P|319:358|278:352,1,100
182,306,83405,1,0,0:0:0:0:
182,306,83493,1,0,0:0:0:0:
431,116,83669,2,0,P|455:190|472:334,1,200
168,298,84199,5,0,0:0:0:0:
270,79,84375,2,0,L|400:61,1,100
155,132,84728,1,0,0:0:0:0:
90,105,84816,1,0,0:0:0:0:
65,38,84905,1,0,0:0:0:0:
47,313,85081,5,0,0:0:0:0:
306,215,85257,1,0,0:0:0:0:
43,195,85434,5,0,0:0:0:0:
401,301,85610,1,0,0:0:0:0:
468,60,85787,1,0,0:0:0:0:
214,209,85963,5,0,0:0:0:0:
208,259,86052,1,0,0:0:0:0:
218,307,86140,1,0,0:0:0:0:
253,342,86228,1,0,0:0:0:0:
299,360,86316,1,0,0:0:0:0:
365,126,86493,2,0,P|290:85|147:82,1,200
459,183,87022,2,0,P|475:123|474:73,1,100
354,251,87375,6,0,P|420:285|476:294,1,100
406,358,87640,1,0,0:0:0:0:
356,353,87728,1,0,0:0:0:0:
306,344,87816,1,0,0:0:0:0:
256,334,87905,2,0,P|217:292|206:148,1,200
284,64,88346,5,0,0:0:0:0:
371,156,88434,2,0,P|306:178|247:167,1,100
203,155,88699,5,0,0:0:0:0:
145,107,88787,2,0,P|132:39|147:5,1,100
62,100,89052,1,0,0:0:0:0:
71,148,89140,1,0,0:0:0:0:
85,195,89228,1,0,0:0:0:0:
101,241,89316,1,0,0:0:0:0:
101,241,89669,5,0,0:0:0:0:
211,31,89846,1,0,0:0:0:0:
260,331,90022,5,0,0:0:0:0:
260,331,90110,1,0,0:0:0:0:
260,331,90199,2,0,P|340:338|390:325,1,100
434,257,90463,1,0,0:0:0:0:
332,243,90552,2,0,L|217:232,1,100
307,32,90905,5,0,0:0:0:0:
385,46,90993,1,0,0:0:0:0:
439,104,91081,1,0,0:0:0:0:
73,104,91257,5,0,0:0:0:0:
127,46,91345,1,0,0:0:0:0:
205,32,91433,1,0,0:0:0:0:
256,352,91610,5,0,0:0:0:0:
256,312,91787,1,0,0:0:0:0:
256,280,91963,1,0,0:0:0:0:
256,248,92140,1,0,0:0:0:0:
136,339,92316,5,0,0:0:0:0:
120,304,92493,1,0,0:0:0:0:
392,304,92669,5,0,0:0:0:0:
376,339,92846,1,0,0:0:0:0:
256,120,93022,1,0,0:0:0:0:
256,128,93728,5,0,0:0:0:0:
256,304,94434,5,0,0:0:0:0:
256,192,94478,12,0,95846,0:0:0:0:
256,192,95890,12,0,97257,0:0:0:0:
256,192,97302,12,0,99905,0:0:0:0:
35,195,100081,5,0,0:0:0:0:
72,102,100257,1,0,0:0:0:0:
166,69,100434,1,0,0:0:0:0:
256,112,100610,1,0,0:0:0:0:
334,174,100787,5,0,0:0:0:0:
433,174,100963,1,0,0:0:0:0:
475,82,101140,1,0,0:0:0:0:
418,0,101316,1,0,0:0:0:0:
318,12,101493,5,0,0:0:0:0:
433,174,101669,1,0,0:0:0:0:
418,0,101846,1,0,0:0:0:0:
334,174,102022,1,0,0:0:0:0:
460,333,102199,2,0,P|492:257|480:204,1,100
256,80,102905,5,0,0:0:0:0:
256,192,102949,12,0,103963,0:0:0:0:
256,192,104140,5,0,0:0:0:0:
256,40,104316,1,0,0:0:0:0:
256,192,104360,12,0,105375,0:0:0:0:
256,328,105728,5,0,0:0:0:0:
256,192,105772,12,0,106787,0:0:0:0:
256,256,107140,6,0,B|256:192|256:192|159:133|242:61|256:8|365:163|254:121,1,300.000011444092
264,128,108552,1,0,0:0:0:0:
256,192,108596,12,0,109610,0:0:0:0:
256,192,109655,12,0,110669,0:0:0:0:
256,192,111022,6,0,L|256:104,1,75.0000028610231
256,280,111375,1,0,0:0:0:0:
256,192,111419,12,0,112787,0:0:0:0:
256,192,112831,12,0,114199,0:0:0:0:
256,240,115610,5,0,0:0:0:0:
65,334,117728,6,0,L|42:300,1,25,8|0,0:0|0:0,0:0:0:0:
101,309,117816,2,0,L|78:275,1,25
133,290,117905,2,0,P|174:270|236:262,1,100,2|8,0:0|0:0,0:0:0:0:
316,291,118169,1,0,0:0:0:0:
248,356,118257,2,0,P|218:354|176:339,1,50,2|0,0:0|0:0,0:0:0:0:
145,102,118434,5,4,0:0:0:0:
207,70,118522,1,0,0:0:0:0:
276,71,118610,1,0,0:0:0:0:
331,114,118699,1,0,0:0:0:0:
364,175,118787,1,2,0:0:0:0:
429,198,118875,1,0,0:0:0:0:
492,168,118963,1,0,0:0:0:0:
500,97,119052,1,0,0:0:0:0:
444,55,119140,5,0,0:0:0:0:
377,76,119228,1,0,0:0:0:0:
371,145,119316,1,0,0:0:0:0:
325,198,119405,1,0,0:0:0:0:
255,208,119493,1,2,0:0:0:0:
194,172,119581,1,0,0:0:0:0:
173,105,119669,1,0,0:0:0:0:
192,38,119757,1,0,0:0:0:0:
260,19,119846,5,8,0:0:0:0:
318,57,119934,1,0,0:0:0:0:
315,126,120022,1,0,0:0:0:0:
271,180,120110,1,0,0:0:0:0:
205,206,120199,1,2,0:0:0:0:
136,190,120287,1,0,0:0:0:0:
67,202,120375,1,0,0:0:0:0:
36,264,120463,1,0,0:0:0:0:
51,332,120552,5,8,0:0:0:0:
114,361,120640,1,0,0:0:0:0:
183,353,120728,1,0,0:0:0:0:
208,287,120816,1,0,0:0:0:0:
256,235,120905,1,2,0:0:0:0:
325,225,120993,1,0,0:0:0:0:
386,257,121081,1,0,0:0:0:0:
416,319,121169,1,0,0:0:0:0:
371,372,121257,5,8,0:0:0:0:
313,330,121346,1,0,0:0:0:0:
317,260,121434,1,0,0:0:0:0:
366,210,121522,1,0,0:0:0:0:
435,215,121610,1,2,0:0:0:0:
491,172,121699,1,0,0:0:0:0:
500,102,121787,1,0,0:0:0:0:
449,53,121875,1,0,0:0:0:0:
379,62,121963,5,0,0:0:0:0:
369,131,122052,1,0,0:0:0:0:
432,159,122140,1,0,0:0:0:0:
476,105,122228,1,0,0:0:0:0:
416,69,122316,1,2,0:0:0:0:
354,102,122405,1,0,0:0:0:0:
299,145,122493,1,0,0:0:0:0:
230,133,122581,1,0,0:0:0:0:
176,88,122669,5,8,0:0:0:0:
195,21,122757,1,0,0:0:0:0:
265,25,122846,1,0,0:0:0:0:
280,93,122934,1,0,0:0:0:0:
246,154,123022,5,8,0:0:0:0:
182,181,123110,1,0,0:0:0:0:
112,171,123199,1,0,0:0:0:0:
73,112,123287,1,0,0:0:0:0:
93,45,123375,5,10,0:0:0:0:
160,27,123463,1,0,0:0:0:0:
209,76,123552,1,0,0:0:0:0:
209,145,123640,1,0,0:0:0:0:
181,209,123728,1,2,0:0:0:0:
118,240,123816,1,0,0:0:0:0:
54,270,123905,1,0,0:0:0:0:
48,339,123993,1,0,0:0:0:0:
104,379,124081,5,8,0:0:0:0:
170,359,124169,1,0,0:0:0:0:
191,292,124257,1,0,0:0:0:0:
227,231,124346,1,0,0:0:0:0:
295,217,124434,1,2,0:0:0:0:
356,250,124522,1,0,0:0:0:0:
359,319,124610,1,8,0:0:0:0:
295,349,124699,1,0,0:0:0:0:
230,322,124787,5,0,0:0:0:0:
235,252,124875,1,0,0:0:0:0:
302,234,124963,1,2,0:0:0:0:
353,282,125052,1,0,0:0:0:0:
421,293,125140,1,8,0:0:0:0:
481,257,125228,1,0,0:0:0:0:
495,188,125316,1,0,0:0:0:0:
477,119,125405,1,0,0:0:0:0:
425,71,125493,5,8,0:0:0:0:
357,52,125581,1,0,0:0:0:0:
287,55,125669,1,0,0:0:0:0:
220,77,125757,1,0,0:0:0:0:
178,133,125846,1,2,0:0:0:0:
162,201,125934,1,0,0:0:0:0:
166,270,126022,1,0,0:0:0:0:
196,332,126110,1,0,0:0:0:0:
258,363,126199,5,8,0:0:0:0:
327,359,126287,1,0,0:0:0:0:
375,308,126375,1,0,0:0:0:0:
375,238,126463,1,0,0:0:0:0:
329,183,126552,1,2,0:0:0:0:
259,176,126640,1,0,0:0:0:0:
201,215,126728,1,0,0:0:0:0:
182,282,126816,1,0,0:0:0:0:
213,344,126905,5,8,0:0:0:0:
275,313,126993,1,0,0:0:0:0:
294,245,127081,2,0,P|266:167|221:130,1,100,2|8,0:0|0:0,0:0:0:0:
79,73,127434,1,2,0:0:0:0:
60,323,127610,1,8,0:0:0:0:
319,50,127787,1,2,0:0:0:0:
498,299,127963,5,8,0:0:0:0:
458,330,128052,1,0,0:0:0:0:
412,351,128140,1,0,0:0:0:0:
362,355,128228,1,0,0:0:0:0:
312,352,128316,2,0,P|234:327|200:304,1,100,0|2,0:0|0:0,0:0:0:0:
85,101,128669,1,8,0:0:0:0:
369,141,128846,1,2,0:0:0:0:
16,337,129022,5,8,0:0:0:0:
25,288,129110,1,0,0:0:0:0:
35,238,129199,2,0,L|48:172,1,50,2|0,0:0|0:0,0:0:0:0:
201,200,129375,5,8,0:0:0:0:
210,151,129463,1,0,0:0:0:0:
220,101,129552,2,0,L|233:35,1,50,2|0,0:0|0:0,0:0:0:0:
470,54,129728,5,4,0:0:0:0:
481,102,129816,1,0,0:0:0:0:
475,152,129905,1,0,0:0:0:0:
436,183,129993,1,0,0:0:0:0:
386,192,130081,1,2,0:0:0:0:
339,172,130169,1,0,0:0:0:0:
317,126,130257,1,8,0:0:0:0:
315,75,130346,1,0,0:0:0:0:
342,33,130434,5,0,0:0:0:0:
379,20,130522,1,0,0:0:0:0:
416,32,130610,1,2,0:0:0:0:
436,66,130699,1,0,0:0:0:0:
426,104,130787,1,8,0:0:0:0:
390,121,130875,1,0,0:0:0:0:
351,110,130963,1,0,0:0:0:0:
358,70,131052,1,0,0:0:0:0:
395,83,131140,5,8,0:0:0:0:
424,123,131228,1,0,0:0:0:0:
426,172,131316,1,0,0:0:0:0:
406,218,131405,1,0,0:0:0:0:
369,251,131493,1,2,0:0:0:0:
320,262,131581,1,0,0:0:0:0:
270,256,131669,1,0,0:0:0:0:
228,228,131757,1,0,0:0:0:0:
210,180,131846,5,8,0:0:0:0:
212,115,131934,1,0,0:0:0:0:
253,65,132022,1,2,0:0:0:0:
310,34,132110,1,0,0:0:0:0:
375,42,132199,1,0,0:0:0:0:
429,77,132287,1,0,0:0:0:0:
459,134,132375,1,2,0:0:0:0:
464,198,132463,1,0,0:0:0:0:
454,262,132552,5,8,0:0:0:0:
407,307,132640,1,0,0:0:0:0:
347,331,132728,1,0,0:0:0:0:
282,330,132816,1,0,0:0:0:0:
221,303,132905,1,2,0:0:0:0:
176,255,132993,1,0,0:0:0:0:
155,193,133081,1,8,0:0:0:0:
162,128,133169,1,0,0:0:0:0:
188,68,133257,5,0,0:0:0:0:
251,27,133346,1,0,0:0:0:0:
325,19,133434,1,2,0:0:0:0:
398,31,133522,1,0,0:0:0:0:
458,74,133610,2,0,P|487:127|498:178,1,100,8|0,0:0|0:0,0:0:0:0:
468,354,133963,5,8,0:0:0:0:
405,312,134052,1,0,0:0:0:0:
344,266,134140,2,0,L|276:209,1,50,2|0,0:0|0:0,0:0:0:0:
44,251,134316,5,8,0:0:0:0:
107,209,134405,1,0,0:0:0:0:
170,169,134493,2,0,L|236:121,1,50,2|0,0:0|0:0,0:0:0:0:
398,31,134669,5,8,0:0:0:0:
443,51,134757,1,0,0:0:0:0:
471,92,134846,1,2,0:0:0:0:
474,141,134934,1,0,0:0:0:0:
447,183,135022,1,8,0:0:0:0:
403,207,135110,1,0,0:0:0:0:
386,254,135199,1,2,0:0:0:0:
395,302,135287,1,0,0:0:0:0:
438,326,135375,5,8,0:0:0:0:
500,308,135463,1,0,0:0:0:0:
498,242,135552,1,0,0:0:0:0:
437,217,135640,1,0,0:0:0:0:
396,267,135728,1,2,0:0:0:0:
373,327,135816,1,0,0:0:0:0:
313,355,135905,1,8,0:0:0:0:
248,345,135993,1,0,0:0:0:0:
205,295,136081,5,0,0:0:0:0:
200,230,136169,1,0,0:0:0:0:
228,171,136257,1,2,0:0:0:0:
290,149,136346,1,0,0:0:0:0:
353,160,136434,1,8,0:0:0:0:
399,114,136522,1,0,0:0:0:0:
404,49,136610,1,0,0:0:0:0:
349,12,136699,1,0,0:0:0:0:
284,16,136787,5,8,0:0:0:0:
241,65,136875,1,0,0:0:0:0:
246,129,136963,1,0,0:0:0:0:
196,172,137052,1,0,0:0:0:0:
131,176,137140,1,2,0:0:0:0:
69,156,137228,1,0,0:0:0:0:
54,92,137316,1,8,0:0:0:0:
94,40,137405,1,0,0:0:0:0:
158,33,137493,5,0,0:0:0:0:
205,77,137581,1,0,0:0:0:0:
200,141,137669,1,2,0:0:0:0:
148,180,137757,1,0,0:0:0:0:
91,213,137846,1,8,0:0:0:0:
64,272,137934,1,0,0:0:0:0:
72,336,138022,1,0,0:0:0:0:
122,376,138110,1,0,0:0:0:0:
187,381,138199,6,0,P|246:326|238:278,1,100,8|0,0:0|0:0,0:0:0:0:
230,249,138463,1,0,0:0:0:0:
180,206,138552,1,8,0:0:0:0:
115,197,138640,1,0,0:0:0:0:
59,163,138728,1,0,0:0:0:0:
51,98,138816,1,0,0:0:0:0:
93,48,138905,5,8,0:0:0:0:
167,50,138993,1,0,0:0:0:0:
206,113,139081,1,0,0:0:0:0:
169,178,139169,1,0,0:0:0:0:
94,173,139257,1,8,0:0:0:0:
114,100,139346,1,0,0:0:0:0:
188,91,139434,1,0,0:0:0:0:
241,143,139522,1,0,0:0:0:0:
245,215,139610,5,8,0:0:0:0:
268,296,139699,1,0,0:0:0:0:
340,338,139787,1,0,0:0:0:0:
422,317,139875,1,0,0:0:0:0:
486,262,139963,1,2,0:0:0:0:
484,176,140052,1,0,0:0:0:0:
437,105,140140,1,8,0:0:0:0:
353,92,140228,1,0,0:0:0:0:
276,128,140316,5,0,0:0:0:0:
234,213,140405,1,0,0:0:0:0:
257,305,140493,1,2,0:0:0:0:
335,358,140581,1,0,0:0:0:0:
429,347,140669,1,8,0:0:0:0:
494,278,140757,1,0,0:0:0:0:
473,184,140846,1,0,0:0:0:0:
380,164,140934,1,0,0:0:0:0:
314,232,141022,6,0,P|339:297|380:331,1,100,8|0,0:0|0:0,0:0:0:0:
488,103,141375,1,8,0:0:0:0:
457,63,141463,1,0,0:0:0:0:
409,47,141552,2,0,P|336:33|297:41,1,100,0|8,0:0|0:0,0:0:0:0:
212,89,141816,1,0,0:0:0:0:
161,91,141905,1,2,0:0:0:0:
113,77,141993,1,0,0:0:0:0:
94,30,142081,1,8,0:0:0:0:
143,27,142169,1,0,0:0:0:0:
169,69,142257,1,0,0:0:0:0:
161,118,142346,1,0,0:0:0:0:
148,150,142434,5,8,0:0:0:0:
128,179,142522,1,0,0:0:0:0:
117,212,142610,1,0,0:0:0:0:
114,247,142699,1,0,0:0:0:0:
117,281,142787,1,2,0:0:0:0:
130,313,142875,1,0,0:0:0:0:
155,337,142963,1,8,0:0:0:0:
189,346,143052,1,0,0:0:0:0:
288,304,143140,5,0,0:0:0:0:
259,284,143228,1,0,0:0:0:0:
224,282,143316,1,2,0:0:0:0:
189,288,143405,1,0,0:0:0:0:
157,301,143493,1,8,0:0:0:0:
128,320,143581,1,0,0:0:0:0:
93,326,143669,1,0,0:0:0:0:
58,326,143757,1,0,0:0:0:0:
28,233,143846,5,8,0:0:0:0:
62,235,143934,1,0,0:0:0:0:
96,229,144022,1,0,0:0:0:0:
126,211,144110,1,0,0:0:0:0:
225,192,144199,5,8,0:0:0:0:
259,194,144287,1,0,0:0:0:0:
292,204,144375,1,0,0:0:0:0:
322,221,144463,1,0,0:0:0:0:
411,274,144552,5,8,0:0:0:0:
444,282,144640,1,0,0:0:0:0:
478,277,144728,1,0,0:0:0:0:
501,250,144816,1,0,0:0:0:0:
508,215,144905,1,8,0:0:0:0:
498,181,144993,1,0,0:0:0:0:
469,160,145081,1,0,0:0:0:0:
434,152,145169,1,0,0:0:0:0:
442,217,145257,5,8,0:0:0:0:
469,168,145346,1,0,0:0:0:0:
463,113,145434,1,2,0:0:0:0:
423,74,145522,1,0,0:0:0:0:
368,65,145610,1,8,0:0:0:0:
316,86,145699,1,0,0:0:0:0:
292,135,145787,1,2,0:0:0:0:
295,189,145875,1,0,0:0:0:0:
321,231,145963,5,8,0:0:0:0:
390,244,146052,1,0,0:0:0:0:
456,222,146140,1,2,0:0:0:0:
490,161,146228,1,0,0:0:0:0:
486,91,146316,1,0,0:0:0:0:
438,38,146405,1,0,0:0:0:0:
369,25,146493,1,2,0:0:0:0:
300,39,146581,1,0,0:0:0:0:
268,101,146669,5,8,0:0:0:0:
257,169,146757,1,0,0:0:0:0:
228,233,146846,1,0,0:0:0:0:
163,259,146934,1,0,0:0:0:0:
93,251,147022,1,2,0:0:0:0:
36,209,147110,1,0,0:0:0:0:
21,139,147199,1,8,0:0:0:0:
43,72,147287,1,0,0:0:0:0:
95,26,147375,5,0,0:0:0:0:
164,17,147463,1,0,0:0:0:0:
230,41,147552,1,2,0:0:0:0:
280,88,147640,1,0,0:0:0:0:
306,152,147728,1,8,0:0:0:0:
318,220,147816,1,0,0:0:0:0:
349,283,147905,1,0,0:0:0:0:
415,304,147993,1,0,0:0:0:0:
482,288,148081,5,8,0:0:0:0:
509,223,148169,1,0,0:0:0:0:
486,156,148257,1,0,0:0:0:0:
423,123,148346,1,0,0:0:0:0:
359,152,148434,1,2,0:0:0:0:
334,217,148522,1,0,0:0:0:0:
374,273,148610,1,8,0:0:0:0:
444,274,148699,1,0,0:0:0:0:
477,212,148787,5,0,0:0:0:0:
424,165,148875,1,0,0:0:0:0:
366,204,148963,1,2,0:0:0:0:
412,256,149052,1,0,0:0:0:0:
444,194,149140,1,8,0:0:0:0:
382,161,149228,1,0,0:0:0:0:
318,190,149316,1,2,0:0:0:0:
288,254,149405,1,0,0:0:0:0:
251,313,149493,5,8,0:0:0:0:
187,342,149581,1,0,0:0:0:0:
117,339,149669,1,2,0:0:0:0:
60,297,149757,1,0,0:0:0:0:
37,230,149846,1,8,0:0:0:0:
51,161,149934,1,0,0:0:0:0:
99,110,150022,1,2,0:0:0:0:
167,98,150110,1,0,0:0:0:0:
236,111,150199,6,0,P|286:153|301:224,1,100,8|0,0:0|0:0,0:0:0:0:
47,311,150552,1,8,0:0:0:0:
44,236,150640,1,0,0:0:0:0:
44,161,150728,1,0,0:0:0:0:
288,33,150905,5,0,0:0:0:0:
353,58,150993,1,0,0:0:0:0:
397,111,151081,1,0,0:0:0:0:
422,175,151169,1,0,0:0:0:0:
420,244,151257,1,0,0:0:0:0:
385,305,151346,1,0,0:0:0:0:
330,348,151434,1,0,0:0:0:0:
260,353,151522,1,0,0:0:0:0:
196,323,151610,5,0,0:0:0:0:
179,254,151699,1,0,0:0:0:0:
192,185,151787,1,0,0:0:0:0:
252,149,151875,1,0,0:0:0:0:
321,151,151963,1,0,0:0:0:0:
375,195,152052,1,0,0:0:0:0:
444,199,152140,1,0,0:0:0:0:
497,153,152228,1,0,0:0:0:0:
498,83,152316,5,0,0:0:0:0:
447,34,152405,1,0,0:0:0:0:
377,35,152493,1,0,0:0:0:0:
351,100,152581,1,0,0:0:0:0:
373,166,152669,1,0,0:0:0:0:
432,201,152757,1,0,0:0:0:0:
468,261,152846,1,0,0:0:0:0:
464,330,152934,1,0,0:0:0:0:
409,373,153022,5,0,0:0:0:0:
339,370,153110,1,0,0:0:0:0:
280,329,153199,1,0,0:0:0:0:
210,323,153287,1,0,0:0:0:0:
151,361,153375,1,0,0:0:0:0:
81,361,153463,1,0,0:0:0:0:
22,321,153552,1,0,0:0:0:0:
7,252,153640,1,0,0:0:0:0:
40,190,153728,5,0,0:0:0:0:
109,187,153816,1,0,0:0:0:0:
154,132,153905,1,0,0:0:0:0:
98,89,153993,1,0,0:0:0:0:
31,110,154081,1,0,0:0:0:0:
7,44,154169,1,0,0:0:0:0:
71,17,154257,1,0,0:0:0:0:
141,24,154346,1,0,0:0:0:0:
195,67,154434,5,0,0:0:0:0:
234,124,154522,1,0,0:0:0:0:
243,193,154610,1,0,0:0:0:0:
310,212,154699,1,0,0:0:0:0:
376,191,154787,1,0,0:0:0:0:
374,121,154875,1,0,0:0:0:0:
305,135,154963,1,0,0:0:0:0:
329,68,155052,1,0,0:0:0:0:
397,54,155140,5,0,0:0:0:0:
445,103,155228,1,0,0:0:0:0:
454,172,155316,1,0,0:0:0:0:
431,238,155405,1,0,0:0:0:0:
490,275,155493,1,0,0:0:0:0:
463,339,155581,1,0,0:0:0:0:
400,307,155669,1,0,0:0:0:0:
332,324,155757,1,0,0:0:0:0:
276,367,155846,5,0,0:0:0:0:
206,371,155934,1,0,0:0:0:0:
138,354,156022,1,0,0:0:0:0:
84,308,156110,1,0,0:0:0:0:
119,246,156199,1,0,0:0:0:0:
173,289,156287,1,0,0:0:0:0:
242,294,156375,1,0,0:0:0:0:
296,250,156463,1,0,0:0:0:0:
304,179,156552,5,0,0:0:0:0:
274,115,156640,1,0,0:0:0:0:
206,98,156728,1,0,0:0:0:0:
138,113,156816,1,0,0:0:0:0:
115,180,156905,1,0,0:0:0:0:
151,239,156993,1,0,0:0:0:0:
219,254,157081,1,0,0:0:0:0:
272,208,157169,1,0,0:0:0:0:
244,143,157257,5,0,0:0:0:0:
174,155,157346,1,0,0:0:0:0:
164,224,157434,1,0,0:0:0:0:
232,234,157522,1,0,0:0:0:0:
247,165,157610,1,0,0:0:0:0:
184,197,157699,1,0,0:0:0:0:
250,218,157787,1,0,0:0:0:0:
295,165,157875,1,0,0:0:0:0:
288,95,157963,5,0,0:0:0:0:
230,53,158052,1,0,0:0:0:0:
160,44,158140,1,0,0:0:0:0:
99,79,158228,1,0,0:0:0:0:
70,142,158316,1,0,0:0:0:0:
63,212,158405,1,0,0:0:0:0:
84,278,158493,1,0,0:0:0:0:
135,324,158581,1,0,0:0:0:0:
201,343,158669,5,0,0:0:0:0:
270,348,158757,1,0,0:0:0:0:
339,335,158846,1,0,0:0:0:0:
392,289,158934,1,0,0:0:0:0:
421,225,159022,1,0,0:0:0:0:
426,155,159110,1,0,0:0:0:0:
404,87,159199,1,0,0:0:0:0:
354,37,159287,1,0,0:0:0:0:
288,13,159375,5,0,0:0:0:0:
218,7,159463,1,0,0:0:0:0:
149,25,159552,1,0,0:0:0:0:
88,59,159640,1,0,0:0:0:0:
57,121,159728,1,0,0:0:0:0:
46,190,159816,1,0,0:0:0:0:
50,260,159905,1,0,0:0:0:0:
87,319,159993,1,0,0:0:0:0:
146,355,160081,5,0,0:0:0:0:
213,374,160169,1,0,0:0:0:0:
282,376,160257,1,0,0:0:0:0:
350,360,160346,1,0,0:0:0:0:
412,328,160434,1,0,0:0:0:0:
445,266,160522,1,0,0:0:0:0:
472,201,160610,1,0,0:0:0:0:
474,130,160699,1,0,0:0:0:0:
468,60,160787,6,0,P|422:14|377:-4,1,100
325,26,161052,1,0,0:0:0:0:
308,93,161140,1,0,0:0:0:0:
350,148,161228,1,0,0:0:0:0:
374,213,161316,1,0,0:0:0:0:
351,280,161405,1,0,0:0:0:0:
292,318,161493,5,0,0:0:0:0:
220,318,161581,1,0,0:0:0:0:
161,280,161669,1,0,0:0:0:0:
138,213,161758,1,0,0:0:0:0:
162,148,161846,1,0,0:0:0:0:
204,93,161934,1,0,0:0:0:0:
187,26,162022,1,0,0:0:0:0:
121,2,162110,1,0,0:0:0:0:
62,41,162199,5,0,0:0:0:0:
32,114,162287,1,0,0:0:0:0:
27,193,162375,1,0,0:0:0:0:
42,271,162463,1,0,0:0:0:0:
95,331,162552,1,0,0:0:0:0:
169,360,162640,1,0,0:0:0:0:
248,370,162728,1,0,0:0:0:0:
327,365,162816,1,0,0:0:0:0:
403,339,162905,5,0,0:0:0:0:
454,277,162993,1,0,0:0:0:0:
472,199,163081,1,0,0:0:0:0:
474,119,163169,1,0,0:0:0:0:
440,46,163257,1,0,0:0:0:0:
366,12,163346,1,0,0:0:0:0:
287,0,163434,1,0,0:0:0:0:
210,22,163522,1,0,0:0:0:0:
152,118,163610,5,0,0:0:0:0:
37,339,173493,6,0,L|87:329,1,50
65,252,173669,2,0,L|115:242,1,50
234,120,173846,6,0,L|284:110,1,50
262,33,174022,2,0,L|312:23,1,50
405,351,174199,6,0,L|455:341,1,50
433,264,174375,2,0,L|483:254,1,50
301,360,174552,2,0,P|182:336|167:327,1,100
56,129,174905,5,0,0:0:0:0:
253,34,175081,1,0,0:0:0:0:
312,32,175169,1,0,0:0:0:0:
372,31,175257,1,0,0:0:0:0:
331,298,175434,2,0,P|229:276|105:197,1,239.999992675781
425,28,175963,5,0,0:0:0:0:
508,158,176140,2,0,P|483:251|377:366,1,239.999992675781
32,267,176669,5,0,0:0:0:0:
104,87,176846,2,0,L|263:71,1,119.999996337891
463,47,177199,1,0,0:0:0:0:
290,154,177375,2,0,L|170:166,1,119.999996337891
145,319,177728,6,0,P|242:344|316:334,1,119.999996337891
382,320,177993,1,0,0:0:0:0:
382,320,178081,1,0,0:0:0:0:
67,101,178257,2,0,L|59:361,1,239.999992675781
375,317,178787,2,0,P|299:292|247:295,1,119.999996337891
454,354,179140,5,0,0:0:0:0:
490,292,179228,1,0,0:0:0:0:
501,221,179316,2,0,P|498:184|480:133,1,59.9999981689454
334,147,179493,5,0,0:0:0:0:
274,106,179581,1,0,0:0:0:0:
204,86,179669,2,0,P|170:81|101:83,1,59.9999981689454
157,336,179846,5,0,0:0:0:0:
228,326,179934,1,0,0:0:0:0:
295,300,180022,2,0,P|331:274|374:224,1,59.9999981689454
36,83,180199,6,0,L|46:238,1,119.999996337891
497,78,180552,6,0,P|423:65|340:72,1,119.999996337891
310,118,180816,1,0,0:0:0:0:
236,165,180905,2,0,P|156:162|110:143,2,119.999996337891
457,296,181434,1,0,0:0:0:0:
185,362,181610,2,0,P|197:253|208:226,1,119.999996337891
366,274,181875,5,0,0:0:0:0:
326,359,181963,2,0,L|187:358,1,119.999996337891
134,312,182228,1,0,0:0:0:0:
65,359,182316,2,0,P|17:300|12:244,2,119.999996337891
275,232,182846,5,0,0:0:0:0:
210,53,183022,2,0,L|65:50,1,119.999996337891
303,255,183375,6,0,P|399:263|449:233,1,119.999996337891
490,139,183640,1,0,0:0:0:0:
490,139,183728,1,0,0:0:0:0:
156,206,183905,1,0,0:0:0:0:
265,340,184081,1,0,0:0:0:0:
344,104,184257,1,0,0:0:0:0:
20,71,184434,2,0,P|55:158|90:189,1,119.999996337891
256,56,184787,6,0,P|280:39|329:18,1,59.9999981689454
448,192,184963,2,0,P|471:213|492:257,1,59.9999981689454
256,328,185140,6,0,P|232:345|183:366,1,59.9999981689454
64,192,185316,2,0,P|41:171|20:127,1,59.9999981689454
352,95,185493,6,0,P|381:100|430:120,1,59.9999981689454
391,327,185669,2,0,P|393:358|376:404,1,59.9999981689454
159,288,185846,5,0,0:0:0:0:
120,56,186022,1,0,0:0:0:0:
494,132,186199,6,0,P|472:163|410:185,1,59.9999981689454
213,153,186375,1,0,0:0:0:0:
247,76,186463,1,0,0:0:0:0:
321,35,186552,2,0,P|354:34|421:59,1,59.9999981689454
240,236,186728,2,0,P|208:239|151:210,1,59.9999981689454
47,102,186905,5,0,0:0:0:0:
103,57,186993,1,0,0:0:0:0:
174,46,187081,1,0,0:0:0:0:
239,75,187169,1,0,0:0:0:0:
280,133,187257,1,0,0:0:0:0:
341,171,187346,1,0,0:0:0:0:
412,180,187434,1,0,0:0:0:0:
471,140,187522,1,0,0:0:0:0:
478,68,187610,5,0,0:0:0:0:
428,14,187699,1,0,0:0:0:0:
357,25,187787,1,0,0:0:0:0:
337,94,187875,1,0,0:0:0:0:
386,145,187963,1,0,0:0:0:0:
448,181,188052,1,0,0:0:0:0:
473,248,188140,1,0,0:0:0:0:
453,317,188228,1,0,0:0:0:0:
386,343,188316,5,0,0:0:0:0:
320,312,188405,1,0,0:0:0:0:
315,240,188493,1,0,0:0:0:0:
370,194,188581,1,0,0:0:0:0:
434,225,188669,1,0,0:0:0:0:
443,296,188757,1,0,0:0:0:0:
374,320,188846,1,0,0:0:0:0:
312,282,188934,1,0,0:0:0:0:
314,210,189022,6,0,P|322:178|347:146,1,59.9999981689454
233,317,189199,2,0,P|211:295|194:249,1,59.9999981689454
398,213,189375,6,0,L|474:198,1,59.9999981689454
370,353,189552,2,0,L|275:322,1,59.9999981689454
119,238,189728,1,0,0:0:0:0:
83,175,189816,1,0,0:0:0:0:
74,102,189905,2,0,P|80:68|106:15,1,59.9999981689454
456,132,190081,1,0,0:0:0:0:
401,178,190169,1,0,0:0:0:0:
330,191,190257,1,0,0:0:0:0:
257,175,190346,1,0,0:0:0:0:
190,147,190434,6,0,P|165:121|147:89,1,59.9999981689454
349,55,190610,2,0,L|412:45,1,59.9999981689454
495,254,190787,2,0,L|435:263,1,59.9999981689454
231,67,190963,2,0,P|242:47|280:14,1,59.9999981689454
296,266,191140,5,0,0:0:0:0:
247,341,191228,1,0,0:0:0:0:
158,354,191316,1,0,0:0:0:0:
69,334,191405,1,0,0:0:0:0:
32,252,191493,2,0,L|42:175,1,59.9999981689454
296,266,191669,2,0,P|250:267|198:260,1,59.9999981689454
80,54,191846,6,0,P|111:37|165:24,1,59.9999981689454
455,71,192022,2,0,L|491:124,1,59.9999981689454
137,179,192199,6,0,P|135:140|142:104,1,59.9999981689454
431,251,192375,2,0,L|383:327,1,59.9999981689454
165,349,192552,5,0,0:0:0:0:
85,306,192640,1,0,0:0:0:0:
47,224,192728,2,0,P|44:114|60:57,1,119.999996337891
440,34,193081,1,0,0:0:0:0:
453,340,193257,6,0,P|358:357|297:360,1,119.999996337891
212,231,193522,1,0,0:0:0:0:
327,109,193610,2,0,P|379:176|395:240,1,119.999996337891
46,142,193963,6,0,P|43:101|48:51,1,59.9999981689454
265,50,194140,2,0,P|289:33|359:21,1,59.9999981689454
77,353,194316,6,0,B|45:329|45:329|8:278,1,59.9999981689454
177,56,194493,2,0,L|185:125,1,59.9999981689454
233,321,194669,5,0,0:0:0:0:
314,357,194757,1,0,0:0:0:0:
404,351,194846,1,0,0:0:0:0:
472,292,194934,1,0,0:0:0:0:
498,206,195022,2,0,P|497:144|457:59,1,119.999996337891
330,157,195287,5,0,0:0:0:0:
339,295,195375,2,0,P|443:300|507:278,2,119.999996337891
261,248,195816,1,0,0:0:0:0:
173,224,195905,1,0,0:0:0:0:
90,260,195993,1,0,0:0:0:0:
53,341,196081,5,0,0:0:0:0:
127,362,196169,1,0,0:0:0:0:
185,311,196257,1,0,0:0:0:0:
165,234,196346,1,0,0:0:0:0:
104,185,196434,1,0,0:0:0:0:
80,110,196522,1,0,0:0:0:0:
119,42,196610,1,0,0:0:0:0:
197,47,196699,1,0,0:0:0:0:
211,124,196787,5,0,0:0:0:0:
146,80,196875,1,0,0:0:0:0:
210,36,196963,1,0,0:0:0:0:
278,75,197052,1,0,0:0:0:0:
277,152,197140,1,0,0:0:0:0:
227,212,197228,1,0,0:0:0:0:
216,289,197316,1,0,0:0:0:0:
264,351,197405,1,0,0:0:0:0:
341,361,197493,5,0,0:0:0:0:
402,313,197581,1,0,0:0:0:0:
421,237,197669,1,0,0:0:0:0:
383,168,197757,1,0,0:0:0:0:
314,129,197846,1,0,0:0:0:0:
236,139,197934,1,0,0:0:0:0:
189,201,198022,1,0,0:0:0:0:
182,278,198110,1,0,0:0:0:0:
243,327,198199,5,0,0:0:0:0:
315,297,198287,1,0,0:0:0:0:
315,219,198375,1,0,0:0:0:0:
244,187,198463,1,0,0:0:0:0:
173,222,198552,1,0,0:0:0:0:
149,296,198640,1,0,0:0:0:0:
75,322,198728,1,0,0:0:0:0:
13,274,198816,1,0,0:0:0:0:
10,195,198905,6,0,P|30:143|98:86,1,119.999996337891
180,88,199169,1,0,0:0:0:0:
285,85,199257,2,0,P|312:77|352:47,1,59.9999981689454
466,244,199434,2,0,P|451:216|416:170,1,59.9999981689454
174,181,199610,5,0,0:0:0:0:
123,202,199699,1,0,0:0:0:0:
104,252,199787,1,0,0:0:0:0:
116,304,199875,1,0,0:0:0:0:
155,340,199963,1,0,0:0:0:0:
208,348,200052,1,0,0:0:0:0:
249,313,200140,1,0,0:0:0:0:
267,262,200228,1,0,0:0:0:0:
262,208,200316,5,0,0:0:0:0:
198,172,200405,1,0,0:0:0:0:
126,171,200493,1,0,0:0:0:0:
79,225,200581,1,0,0:0:0:0:
77,296,200669,1,0,0:0:0:0:
126,348,200757,1,0,0:0:0:0:
195,367,200846,1,0,0:0:0:0:
264,347,200934,1,0,0:0:0:0:
331,321,201022,6,0,P|366:311|433:302,1,59.9999981689454
478,209,201199,2,0,L|381:196,1,59.9999981689454
65,148,201375,2,0,P|45:113|47:73,1,59.9999981689454
384,43,201552,2,0,L|369:124,1,59.9999981689454
253,356,201728,6,0,P|166:364|87:340,1,119.999996337891
33,269,201993,1,0,0:0:0:0:
149,192,202081,2,0,P|222:245|243:275,1,119.999996337891
325,197,202434,2,0,P|265:126|108:45,1,239.999992675781
27,295,202963,1,0,0:0:0:0:
389,288,203140,6,0,P|422:209|427:170,1,119.999996337891
180,335,203405,2,0,L|307:331,1,119.999996337891
512,158,203669,2,0,P|473:102|419:85,1,119.999996337891
160,114,203934,1,0,0:0:0:0:
103,134,204022,1,0,0:0:0:0:
87,191,204110,1,0,0:0:0:0:
121,240,204199,1,0,0:0:0:0:
180,246,204287,1,0,0:0:0:0:
224,205,204375,1,0,0:0:0:0:
222,145,204463,1,0,0:0:0:0:
157,182,204552,6,0,P|229:219|314:194,1,119.999996337891
366,178,204816,1,0,0:0:0:0:
384,85,204905,2,0,L|306:51,1,59.9999981689454
367,275,205081,2,0,P|401:280|441:270,1,59.9999981689454
228,134,205257,6,0,L|161:178,1,59.9999981689454
477,119,205434,2,0,P|480:86|474:44,1,59.9999981689454
59,193,205610,2,0,L|55:322,2,119.999996337891
87,97,206052,5,0,0:0:0:0:
164,33,206140,2,0,P|194:25|261:37,1,59.9999981689454
386,170,206316,2,0,L|293:151,1,59.9999981689454
176,312,206493,2,0,L|267:310,1,59.9999981689454
482,197,206669,5,0,0:0:0:0:
469,120,206757,1,0,0:0:0:0:
402,78,206846,1,0,0:0:0:0:
326,95,206934,1,0,0:0:0:0:
279,157,207022,1,0,0:0:0:0:
218,205,207110,1,0,0:0:0:0:
140,217,207199,1,0,0:0:0:0:
76,172,207287,1,0,0:0:0:0:
64,95,207375,5,0,0:0:0:0:
110,32,207463,1,0,0:0:0:0:
188,36,207552,1,0,0:0:0:0:
236,96,207640,1,0,0:0:0:0:
236,173,207728,1,0,0:0:0:0:
239,250,207816,1,0,0:0:0:0:
291,308,207905,1,0,0:0:0:0:
368,316,207993,1,0,0:0:0:0:
433,274,208081,5,0,0:0:0:0:
447,197,208169,1,0,0:0:0:0:
414,126,208257,1,0,0:0:0:0:
341,96,208346,1,0,0:0:0:0:
264,112,208434,1,0,0:0:0:0:
215,173,208522,1,0,0:0:0:0:
195,248,208610,1,0,0:0:0:0:
209,325,208699,1,0,0:0:0:0:
278,359,208787,6,0,P|349:303|360:237,1,119.999996337891
72,91,209052,1,0,0:0:0:0:
36,160,209140,2,0,P|58:212|135:272,1,119.999996337891
301,43,209405,5,0,0:0:0:0:
223,36,209493,2,0,L|114:32,1,59.9999981689454
489,75,209669,2,0,L|380:71,1,59.9999981689454
79,340,209846,5,0,0:0:0:0:
192,336,209934,1,0,0:0:0:0:
287,274,210022,1,0,0:0:0:0:
349,179,210110,1,0,0:0:0:0:
365,65,210199,6,0,P|326:49|275:40,1,59.9999981689454
131,166,210375,2,0,L|132:242,1,59.9999981689454
454,342,210552,6,0,P|471:311|473:267,1,59.9999981689454
343,164,210728,2,0,L|249:161,1,59.9999981689454
46,322,210905,5,0,0:0:0:0:
46,322,210993,1,0,0:0:0:0:
46,322,211081,2,0,P|86:322|137:313,1,59.9999981689454
430,178,211257,2,0,L|423:105,1,59.9999981689454
313,341,211434,2,0,L|306:268,1,59.9999981689454
189,39,211610,6,0,L|102:35,1,59.9999981689454
49,331,211787,2,0,P|165:338|218:327,1,119.999996337891
243,263,212052,5,0,0:0:0:0:
267,169,212140,2,0,P|266:134|248:83,1,59.9999981689454
322,316,212316,2,0,P|371:330|454:322,1,119.999996337891
501,259,212581,1,0,0:0:0:0:
503,169,212669,1,0,0:0:0:0:
449,96,212757,1,0,0:0:0:0:
361,72,212846,1,0,0:0:0:0:
272,88,212934,1,0,0:0:0:0:
189,122,213022,5,0,0:0:0:0:
100,134,213110,2,0,P|60:117|39:79,1,59.9999981689454
159,213,213287,1,0,0:0:0:0:
159,213,213375,2,0,P|168:280|245:343,1,119.999996337891
289,332,213640,5,0,0:0:0:0:
338,257,213728,1,0,0:0:0:0:
296,177,213816,1,0,0:0:0:0:
205,173,213905,1,0,0:0:0:0:
118,195,213993,1,0,0:0:0:0:
51,134,214081,1,0,0:0:0:0:
85,50,214169,1,0,0:0:0:0:
173,36,214257,1,0,0:0:0:0:
236,100,214346,1,0,0:0:0:0:
225,189,214434,5,0,0:0:0:0:
269,267,214522,1,0,0:0:0:0:
356,286,214610,1,0,0:0:0:0:
444,267,214699,1,0,0:0:0:0:
475,183,214787,1,0,0:0:0:0:
463,94,214875,1,0,0:0:0:0:
391,40,214963,1,0,0:0:0:0:
300,40,215052,1,0,0:0:0:0:
236,100,215140,5,0,0:0:0:0:
232,177,215228,1,0,0:0:0:0:
285,233,215316,1,0,0:0:0:0:
365,243,215405,1,0,0:0:0:0:
422,190,215493,1,0,0:0:0:0:
428,112,215581,1,0,0:0:0:0:
376,53,215669,1,0,0:0:0:0:
298,49,215757,1,0,0:0:0:0:
236,100,215846,6,0,P|226:137|220:205,1,59.9999981689454
254,334,216022,2,0,L|407:325,1,119.999996337891
171,33,216375,1,0,0:0:0:0:
98,248,216552,6,0,P|103:282|130:332,1,59.9999981689454
325,132,216728,2,0,L|303:64,1,59.9999981689454
183,364,216905,2,0,L|251:338,1,59.9999981689454
114,94,217081,2,0,P|69:84|45:89,1,59.9999981689454
30,360,217257,6,0,L|115:346,1,59.9999981689454
472,366,217434,2,0,L|489:270,1,59.9999981689454
482,24,217610,6,0,L|397:38,1,59.9999981689454
40,18,217787,2,0,L|23:114,1,59.9999981689454
32,364,217963,5,0,0:0:0:0:
110,359,218052,1,0,0:0:0:0:
175,317,218140,1,0,0:0:0:0:
187,240,218228,1,0,0:0:0:0:
163,165,218316,1,0,0:0:0:0:
209,101,218405,1,0,0:0:0:0:
286,110,218493,1,0,0:0:0:0:
310,183,218581,1,0,0:0:0:0:
267,248,218669,5,0,0:0:0:0:
187,240,218757,1,0,0:0:0:0:
136,179,218846,1,0,0:0:0:0:
145,101,218934,1,0,0:0:0:0:
210,59,219022,1,0,0:0:0:0:
286,70,219110,1,0,0:0:0:0:
341,125,219199,1,0,0:0:0:0:
336,202,219287,1,0,0:0:0:0:
267,248,219375,5,0,0:0:0:0:
262,170,219463,1,0,0:0:0:0:
321,118,219552,1,0,0:0:0:0:
395,139,219640,1,0,0:0:0:0:
426,210,219728,1,0,0:0:0:0:
408,285,219816,1,0,0:0:0:0:
345,332,219905,1,0,0:0:0:0:
267,343,219993,1,0,0:0:0:0:
189,333,220081,6,0,P|152:321|90:287,1,59.9999981689454
37,48,220257,2,0,L|115:38,1,59.9999981689454
33,353,220434,6,0,L|36:268,1,59.9999981689454
207,37,220610,2,0,P|250:45|283:71,1,59.9999981689454
254,360,220787,2,0,P|136:353|89:334,1,119.999996337891
36,203,221052,1,0,0:0:0:0:
128,170,221140,2,0,L|208:170,1,59.9999981689454
360,333,221316,2,0,L|440:333,1,59.9999981689454
492,162,221493,5,0,0:0:0:0:
467,107,221581,1,0,0:0:0:0:
413,79,221669,1,0,0:0:0:0:
353,83,221757,1,0,0:0:0:0:
305,120,221846,1,0,0:0:0:0:
298,179,221934,1,0,0:0:0:0:
281,236,222022,1,0,0:0:0:0:
225,258,222110,1,0,0:0:0:0:
165,247,222199,5,0,0:0:0:0:
140,192,222287,1,0,0:0:0:0:
161,136,222375,1,0,0:0:0:0:
220,131,222463,1,0,0:0:0:0:
257,178,222552,5,0,0:0:0:0:
229,230,222640,1,0,0:0:0:0:
169,227,222728,1,0,0:0:0:0:
131,180,222816,1,0,0:0:0:0:
143,120,222905,6,0,P|150:95|209:46,1,59.9999981689454
87,283,223081,2,0,L|34:216,1,59.9999981689454
238,342,223257,2,0,L|155:363,1,59.9999981689454
339,248,223434,2,0,L|346:324,1,59.9999981689454
383,120,223610,5,0,0:0:0:0:
432,154,223699,1,0,0:0:0:0:
453,209,223787,1,0,0:0:0:0:
433,265,223875,1,0,0:0:0:0:
425,324,223963,1,0,0:0:0:0:
481,346,224052,1,0,0:0:0:0:
511,314,224140,1,0,0:0:0:0:
490,257,224228,1,0,0:0:0:0:
430,253,224316,5,0,0:0:0:0:
371,269,224405,1,0,0:0:0:0:
333,315,224493,1,0,0:0:0:0:
279,342,224581,1,0,0:0:0:0:
219,336,224669,1,0,0:0:0:0:
172,297,224757,1,0,0:0:0:0:
159,237,224846,1,0,0:0:0:0:
189,185,224934,1,0,0:0:0:0:
246,169,225022,5,0,0:0:0:0:
322,180,225110,1,0,0:0:0:0:
355,251,225199,1,0,0:0:0:0:
344,328,225287,1,0,0:0:0:0:
280,373,225375,1,0,0:0:0:0:
202,364,225463,1,0,0:0:0:0:
141,314,225552,1,0,0:0:0:0:
118,239,225640,1,0,0:0:0:0:
132,162,225728,5,0,0:0:0:0:
174,119,225816,1,0,0:0:0:0:
234,118,225905,1,0,0:0:0:0:
274,162,225993,1,0,0:0:0:0:
277,221,226081,1,0,0:0:0:0:
235,264,226169,1,0,0:0:0:0:
175,266,226257,1,0,0:0:0:0:
133,221,226346,1,0,0:0:0:0:
132,162,226434,6,0,L|183:108,1,59.9999981689454
460,352,226610,2,0,L|371:345,1,59.9999981689454
29,249,226787,2,0,P|23:215|22:144,1,59.9999981689454
475,221,226963,2,0,L|404:284,1,59.9999981689454
20,54,227140,5,0,0:0:0:0:
104,24,227228,1,0,0:0:0:0:
193,29,227316,1,0,0:0:0:0:
269,77,227405,1,0,0:0:0:0:
331,141,227493,1,0,0:0:0:0:
419,158,227581,1,0,0:0:0:0:
483,95,227669,1,0,0:0:0:0:
425,26,227757,1,0,0:0:0:0:
348,75,227846,5,0,0:0:0:0:
352,164,227934,1,0,0:0:0:0:
397,241,228022,1,0,0:0:0:0:
389,330,228110,1,0,0:0:0:0:
303,361,228199,1,0,0:0:0:0:
228,311,228287,1,0,0:0:0:0:
236,221,228375,1,0,0:0:0:0:
322,195,228463,1,0,0:0:0:0:
409,218,228552,6,0,P|444:240|489:280,1,59.9999981689454
123,351,228728,2,0,L|140:269,1,59.9999981689454
358,129,228905,6,0,P|389:121|448:121,1,59.9999981689454
284,346,229081,2,0,L|201:345,1,59.9999981689454
39,143,229257,5,0,0:0:0:0:
54,72,229346,1,0,0:0:0:0:
119,43,229434,1,0,0:0:0:0:
186,68,229522,1,0,0:0:0:0:
219,131,229610,1,0,0:0:0:0:
286,157,229699,1,0,0:0:0:0:
357,149,229787,1,0,0:0:0:0:
395,88,229875,1,0,0:0:0:0:
387,16,229963,6,0,P|330:56|433:148,1,239.999992675781
395,88,230405,1,0,0:0:0:0:
324,75,230493,1,0,0:0:0:0:
269,121,230581,1,0,0:0:0:0:
248,189,230669,1,0,0:0:0:0:
287,248,230757,1,0,0:0:0:0:
263,316,230846,5,0,0:0:0:0:
192,331,230934,1,0,0:0:0:0:
141,279,231022,1,0,0:0:0:0:
165,211,231110,1,0,0:0:0:0:
235,194,231199,1,0,0:0:0:0:
287,248,231287,1,0,0:0:0:0:
334,301,231375,5,0,0:0:0:0:
423,310,231463,1,0,0:0:0:0:
485,244,231552,1,0,0:0:0:0:
459,158,231640,1,0,0:0:0:0:
370,141,231728,5,0,0:0:0:0:
295,190,231816,1,0,0:0:0:0:
286,280,231905,1,0,0:0:0:0:
225,346,231993,1,0,0:0:0:0:
135,339,232081,5,0,0:0:0:0:
67,280,232169,1,0,0:0:0:0:
61,190,232257,1,0,0:0:0:0:
122,123,232346,1,0,0:0:0:0:
210,105,232434,5,0,0:0:0:0:
316,117,232522,1,0,0:0:0:0:
403,179,232610,1,0,0:0:0:0:
460,271,232699,1,0,0:0:0:0:
489,374,232787,5,0,0:0:0:0:
497,367,233316,6,0,P|503:222|487:98,1,239.999992675781
180,92,233757,1,0,0:0:0:0:
234,184,233846,2,0,L|373:188,1,119.999996337891
172,97,234199,5,0,0:0:0:0:
114,187,234287,1,0,0:0:0:0:
117,294,234375,1,0,0:0:0:0:
377,101,234552,1,0,0:0:0:0:
32,92,234728,1,0,0:0:0:0:
174,350,234905,1,0,0:0:0:0:
371,81,235081,5,0,0:0:0:0:
281,71,235169,1,0,0:0:0:0:
191,61,235257,2,0,L|47:49,1,119.999996337891
291,198,235610,6,0,L|458:189,1,119.999996337891
485,284,235875,1,0,0:0:0:0:
485,284,235963,1,0,0:0:0:0:
188,244,236140,1,0,0:0:0:0:
452,54,236316,1,0,0:0:0:0:
339,336,236493,1,0,0:0:0:0:
32,264,236669,1,0,0:0:0:0:
315,147,236846,6,0,P|419:176|473:215,1,119.999996337891
94,339,237199,1,0,0:0:0:0:
237,52,237375,1,0,0:0:0:0:
237,52,237463,1,0,0:0:0:0:
237,52,237552,1,0,0:0:0:0:
356,301,237728,5,0,0:0:0:0:
35,172,237905,1,0,0:0:0:0:
304,141,238081,1,0,0:0:0:0:
126,347,238257,1,0,0:0:0:0:
496,340,238434,6,0,P|485:249|462:214,1,119.999996337891
321,139,238699,1,0,0:0:0:0:
239,181,238787,2,0,L|83:150,2,119.999996337891
443,55,239316,1,0,0:0:0:0:
256,352,239493,1,0,0:0:0:0:
69,55,239669,6,0,P|145:33|203:28,1,119.999996337891
459,68,240022,1,0,0:0:0:0:
414,336,240199,1,0,0:0:0:0:
66,272,240375,6,0,P|49:175|48:135,1,119.999996337891
510,145,240728,1,0,0:0:0:0:
267,348,240905,1,0,0:0:0:0:
238,48,241081,6,0,P|302:97|323:160,2,119.999996337891
64,48,241522,1,0,0:0:0:0:
64,48,241610,1,0,0:0:0:0:
77,286,241787,2,0,L|352:272,1,239.999992675781
175,161,242316,6,0,L|14:168,1,119.999996337891
55,166,242581,1,0,0:0:0:0:
55,166,242669,1,0,0:0:0:0:
425,90,242846,1,0,0:0:0:0:
189,351,243022,1,0,0:0:0:0:
235,31,243199,5,0,0:0:0:0:
454,328,243375,1,0,0:0:0:0:
42,66,243552,1,0,0:0:0:0:
489,171,243728,5,0,0:0:0:0:
47,343,243905,1,0,0:0:0:0:
243,32,244081,5,0,0:0:0:0:
309,92,244169,1,0,0:0:0:0:
347,172,244257,1,0,0:0:0:0:
361,261,244346,1,0,0:0:0:0:
354,350,244434,1,0,0:0:0:0:
41,150,244610,2,0,P|179:113|242:192,1,239.999992675781
401,55,245140,2,0,L|240:32,1,119.999996337891
149,261,245493,5,0,0:0:0:0:
491,69,245669,1,0,0:0:0:0:
491,69,245757,1,0,0:0:0:0:
491,69,245846,1,0,0:0:0:0:
45,20,246022,1,0,0:0:0:0:
42,24,246376,5,0,0:0:0:0:
28,100,246464,1,0,0:0:0:0:
49,174,246552,2,0,P|59:225|54:301,1,119.999996337891
270,125,246905,6,0,L|118:100,1,119.999996337891
281,217,247169,1,0,0:0:0:0:
349,154,247257,2,0,P|343:81|301:48,1,119.999996337891
158,331,247610,5,0,0:0:0:0:
459,218,247787,1,0,0:0:0:0:
215,24,247963,1,0,0:0:0:0:
342,346,248140,2,0,B|493:347|493:347|390:318,1,239.999992675781
139,349,248669,5,0,0:0:0:0:
35,60,248846,1,0,0:0:0:0:
4,314,249022,5,0,0:0:0:0:
203,24,249199,2,0,P|323:23|463:73,1,239.999992675781
139,349,249728,6,0,L|152:212,1,119.999996337891
180,31,249993,1,0,0:0:0:0:
180,31,250081,1,0,0:0:0:0:
478,196,250257,2,0,B|423:196|423:196|290:243|290:243|237:241,1,239.999992675781
278,32,250787,2,0,P|373:49|426:81,1,119.999996337891
473,212,251052,5,0,0:0:0:0:
419,294,251140,2,0,L|267:263,1,119.999996337891
53,351,251405,1,0,0:0:0:0:
130,349,251493,1,0,0:0:0:0:
207,347,251581,1,0,0:0:0:0:
284,344,251669,1,0,0:0:0:0:
284,344,252022,5,0,0:0:0:0:
208,323,252110,1,0,0:0:0:0:
133,298,252199,2,0,L|5:251,1,119.999996337891
281,266,252552,6,0,L|408:246,1,119.999996337891
460,199,252816,1,0,0:0:0:0:
478,122,252905,1,0,0:0:0:0:
443,52,252993,1,0,0:0:0:0:
365,46,253081,2,0,P|306:80|416:124,1,239.999992675781
65,49,253610,1,0,0:0:0:0:
362,105,253787,1,0,0:0:0:0:
120,322,253963,5,0,0:0:0:0:
64,266,254052,1,0,0:0:0:0:
37,192,254140,2,0,P|30:154|41:109,1,59.9999981689454
480,133,254316,5,0,0:0:0:0:
475,211,254405,1,0,0:0:0:0:
436,279,254493,2,0,P|418:303|394:321,1,59.9999981689454
52,50,254669,5,0,0:0:0:0:
460,50,254846,1,0,0:0:0:0:
209,353,255022,1,0,0:0:0:0:
303,31,255199,1,0,0:0:0:0:
303,353,255375,5,0,0:0:0:0:
209,31,255552,2,0,P|118:33|83:43,1,100
256,208,255905,1,0,0:0:0:0:
402,34,256081,2,0,P|352:27|303:31,1,100
128,192,256434,5,0,0:0:0:0:
335,275,256610,2,0,P|369:239|384:192,1,100
112,192,256963,5,0,0:0:0:0:
398,337,257140,1,0,0:0:0:0:
343,36,257316,1,0,0:0:0:0:
193,344,257493,2,0,P|137:326|82:285,1,100
343,36,257846,1,0,0:0:0:0:
398,337,258022,1,0,0:0:0:0:
48,133,258199,6,0,P|123:108|162:120,1,100
400,192,258552,1,0,0:0:0:0:
488,24,258728,1,0,0:0:0:0:
497,353,258905,6,0,L|357:334,1,100
39,349,259257,1,0,0:0:0:0:
277,227,259434,2,0,L|491:257,1,200
378,22,259963,6,0,P|301:83|294:121,1,100
246,317,260316,1,0,0:0:0:0:
118,343,260493,1,0,0:0:0:0:
58,228,260669,1,0,0:0:0:0:
149,135,260846,1,0,0:0:0:0:
263,195,261022,6,0,P|311:207|371:197,1,100
492,88,261375,1,0,0:0:0:0:
193,68,261552,1,0,0:0:0:0:
253,350,261728,6,0,L|381:315,1,100
193,68,262081,1,0,0:0:0:0:
34,195,262257,2,0,P|67:262|181:356,1,200
329,115,262787,5,0,0:0:0:0:
58,77,262963,1,0,0:0:0:0:
329,115,263140,1,0,0:0:0:0:
58,77,263316,1,0,0:0:0:0:
301,220,263493,5,0,0:0:0:0:
140,22,263669,1,0,0:0:0:0:
157,213,263846,5,0,0:0:0:0:
426,69,264022,1,0,0:0:0:0:
157,213,264199,1,0,0:0:0:0:
426,69,264375,1,0,0:0:0:0:
140,22,264552,5,0,0:0:0:0:
301,296,264728,1,0,0:0:0:0:
426,69,264905,1,0,0:0:0:0:
140,22,265081,2,0,P|85:62|36:203,1,200
117,351,265610,5,0,0:0:0:0:
246,343,265787,1,0,0:0:0:0:
139,264,265963,5,0,0:0:0:0:
344,308,266140,1,0,0:0:0:0:
174,183,266316,5,0,0:0:0:0:
435,272,266493,1,0,0:0:0:0:
249,130,266669,5,0,0:0:0:0:
414,353,266846,1,0,0:0:0:0:
37,244,267022,1,0,0:0:0:0:
379,165,267199,1,0,0:0:0:0:
220,360,267375,2,0,P|123:345|89:322,1,100
61,90,267728,5,0,0:0:0:0:
183,266,267905,2,0,L|413:241,1,200
61,279,268434,5,0,0:0:0:0:
398,313,268610,1,0,0:0:0:0:
184,163,268787,1,0,0:0:0:0:
409,323,268963,1,0,0:0:0:0:
351,128,269140,1,0,0:0:0:0:
194,356,269316,1,0,0:0:0:0:
42,68,269493,6,0,L|184:61,1,100
256,240,269846,1,0,0:0:0:0:
429,54,270022,1,0,0:0:0:0:
22,173,270199,6,0,L|164:166,1,100
424,225,270552,1,0,0:0:0:0:
308,56,270728,2,0,P|163:49|83:83,1,200
369,337,271257,5,0,0:0:0:0:
267,131,271434,1,0,0:0:0:0:
430,227,271610,1,0,0:0:0:0:
236,344,271787,1,0,0:0:0:0:
146,175,271963,1,0,0:0:0:0:
451,135,272140,1,0,0:0:0:0:
236,344,272316,6,0,L|119:334,1,100
32,192,272669,1,0,0:0:0:0:
276,40,272846,6,0,L|393:50,1,100
480,192,273199,1,0,0:0:0:0:
320,350,273375,5,0,0:0:0:0:
32,192,273552,2,0,P|147:62|206:46,1,200
258,208,274081,6,0,P|162:204|122:190,1,100
341,111,274434,1,0,0:0:0:0:
402,277,274610,1,0,0:0:0:0:
474,156,274787,1,0,0:0:0:0:
251,78,274963,1,0,0:0:0:0:
224,344,275140,6,0,L|358:329,1,100
447,72,275493,1,0,0:0:0:0:
500,311,275669,1,0,0:0:0:0:
96,278,275846,6,0,L|230:263,1,100
493,231,276199,1,0,0:0:0:0:
249,32,276375,2,0,P|152:114|107:183,1,200
370,52,276905,5,0,0:0:0:0:
76,56,277081,1,0,0:0:0:0:
286,167,277257,1,0,0:0:0:0:
494,277,277434,1,0,0:0:0:0:
139,349,277610,1,0,0:0:0:0:
286,167,277787,1,0,0:0:0:0:
455,11,277963,5,0,0:0:0:0:
499,302,278140,1,0,0:0:0:0:
363,36,278316,1,0,0:0:0:0:
400,254,278493,1,0,0:0:0:0:
265,52,278669,1,0,0:0:0:0:
297,220,278846,1,0,0:0:0:0:
167,46,279022,1,0,0:0:0:0:
171,170,279199,1,0,0:0:0:0:
455,11,279375,5,0,0:0:0:0:
499,302,279552,1,0,0:0:0:0:
363,36,279728,1,0,0:0:0:0:
374,335,279905,1,0,0:0:0:0:
265,52,280081,1,0,0:0:0:0:
201,358,280257,1,0,0:0:0:0:
167,46,280434,1,0,0:0:0:0:
23,358,280610,1,0,0:0:0:0:
66,321,282199,6,0,B|158:308|158:308|174:259|136:234|136:234|108:290|150:353,1,300
244,333,283346,1,0,0:0:0:0:
233,226,283434,2,0,P|134:142|43:255,1,300
42,248,284052,1,0,0:0:0:0:
42,248,284140,1,0,0:0:0:0:
267,346,284316,5,0,0:0:0:0:
342,348,284405,1,0,0:0:0:0:
412,323,284493,1,0,0:0:0:0:
446,256,284581,1,0,0:0:0:0:
444,181,284669,1,0,0:0:0:0:
406,116,284757,1,0,0:0:0:0:
331,101,284846,1,0,0:0:0:0:
305,171,284934,1,0,0:0:0:0:
378,182,285022,5,0,0:0:0:0:
435,134,285110,1,0,0:0:0:0:
428,58,285199,1,0,0:0:0:0:
360,25,285287,1,0,0:0:0:0:
286,38,285375,1,0,0:0:0:0:
251,104,285463,1,0,0:0:0:0:
251,179,285552,1,0,0:0:0:0:
194,227,285640,1,0,0:0:0:0:
119,227,285728,5,0,0:0:0:0:
61,179,285816,1,0,0:0:0:0:
65,103,285905,1,0,0:0:0:0:
121,53,285993,1,0,0:0:0:0:
195,61,286081,1,0,0:0:0:0:
227,128,286169,1,0,0:0:0:0:
192,194,286257,1,0,0:0:0:0:
116,196,286346,1,0,0:0:0:0:
77,132,286434,5,0,0:0:0:0:
149,115,286522,1,0,0:0:0:0:
208,160,286610,1,0,0:0:0:0:
249,223,286699,1,0,0:0:0:0:
322,237,286787,1,0,0:0:0:0:
388,203,286875,1,0,0:0:0:0:
422,136,286963,1,0,0:0:0:0:
396,64,287052,1,0,0:0:0:0:
325,39,287140,5,0,0:0:0:0:
251,53,287228,1,0,0:0:0:0:
213,117,287316,1,0,0:0:0:0:
222,191,287405,1,0,0:0:0:0:
260,254,287493,1,0,0:0:0:0:
264,328,287581,1,0,0:0:0:0:
201,369,287669,1,0,0:0:0:0:
149,315,287757,1,0,0:0:0:0:
202,261,287846,5,0,0:0:0:0:
259,308,287934,1,0,0:0:0:0:
197,350,288022,1,0,0:0:0:0:
125,328,288110,1,0,0:0:0:0:
94,258,288199,1,0,0:0:0:0:
111,185,288287,1,0,0:0:0:0:
171,140,288375,1,0,0:0:0:0:
184,66,288463,1,0,0:0:0:0:
117,29,288552,5,0,0:0:0:0:
65,83,288640,1,0,0:0:0:0:
73,157,288728,1,0,0:0:0:0:
137,194,288816,1,0,0:0:0:0:
186,251,288905,1,0,0:0:0:0:
175,325,288993,1,0,0:0:0:0:
108,359,289081,1,0,0:0:0:0:
41,324,289169,1,0,0:0:0:0:
47,249,289257,5,0,0:0:0:0:
117,222,289346,1,0,0:0:0:0:
186,251,289434,1,0,0:0:0:0:
244,297,289522,1,0,0:0:0:0:
316,314,289610,1,0,0:0:0:0:
390,300,289699,1,0,0:0:0:0:
443,247,289787,1,0,0:0:0:0:
455,173,289875,1,0,0:0:0:0:
432,101,289963,5,0,0:0:0:0:
361,73,290052,1,0,0:0:0:0:
286,77,290140,1,0,0:0:0:0:
237,133,290228,1,0,0:0:0:0:
241,207,290316,1,0,0:0:0:0:
305,247,290405,1,0,0:0:0:0:
375,223,290493,1,0,0:0:0:0:
377,148,290581,1,0,0:0:0:0:
304,168,290669,5,0,0:0:0:0:
329,238,290757,1,0,0:0:0:0:
400,261,290846,1,0,0:0:0:0:
474,251,290934,1,0,0:0:0:0:
509,185,291022,1,0,0:0:0:0:
509,110,291110,1,0,0:0:0:0:
457,54,291199,1,0,0:0:0:0:
383,38,291287,1,0,0:0:0:0:
308,47,291375,5,0,0:0:0:0:
240,78,291463,1,0,0:0:0:0:
193,137,291552,1,0,0:0:0:0:
136,185,291640,1,0,0:0:0:0:
61,186,291728,1,0,0:0:0:0:
16,125,291816,1,0,0:0:0:0:
44,54,291905,1,0,0:0:0:0:
118,46,291993,1,0,0:0:0:0:
160,107,292081,6,0,P|156:136|140:183,1,50
85,352,292257,2,0,L|212:337,1,100
485,300,292610,1,0,0:0:0:0:
33,277,292787,5,0,0:0:0:0:
406,347,292963,1,0,0:0:0:0:
48,191,293140,5,0,0:0:0:0:
406,347,293316,1,0,0:0:0:0:
465,98,293493,5,0,0:0:0:0:
447,73,293581,1,0,0:0:0:0:
421,58,293669,1,0,0:0:0:0:
392,49,293757,1,0,0:0:0:0:
361,46,293846,1,0,0:0:0:0:
331,52,293934,1,0,0:0:0:0:
303,64,294022,1,0,0:0:0:0:
277,80,294110,1,0,0:0:0:0:
249,92,294199,1,0,0:0:0:0:
219,97,294287,1,0,0:0:0:0:
189,90,294375,1,0,0:0:0:0:
172,65,294463,1,0,0:0:0:0:
185,37,294552,1,0,0:0:0:0:
214,34,294640,1,0,0:0:0:0:
227,60,294728,1,0,0:0:0:0:
201,76,294816,1,0,0:0:0:0:
175,59,294905,5,0,0:0:0:0:
127,43,294993,1,0,0:0:0:0:
77,47,295081,1,0,0:0:0:0:
37,77,295169,1,0,0:0:0:0:
30,126,295257,1,0,0:0:0:0:
45,173,295346,1,0,0:0:0:0:
73,213,295434,1,0,0:0:0:0:
80,262,295522,1,0,0:0:0:0:
52,303,295610,5,0,0:0:0:0:
3,267,295699,1,0,0:0:0:0:
8,207,295787,1,0,0:0:0:0:
62,181,295875,1,0,0:0:0:0:
121,190,295963,1,0,0:0:0:0:
165,230,296052,1,0,0:0:0:0:
220,253,296140,1,0,0:0:0:0:
279,244,296228,1,0,0:0:0:0:
330,213,296316,5,0,0:0:0:0:
340,153,296405,1,0,0:0:0:0:
318,97,296493,1,0,0:0:0:0:
261,76,296581,1,0,0:0:0:0:
202,89,296669,1,0,0:0:0:0:
174,142,296757,1,0,0:0:0:0:
182,201,296846,1,0,0:0:0:0:
229,237,296934,1,0,0:0:0:0:
288,237,297022,5,0,0:0:0:0:
349,203,297110,1,0,0:0:0:0:
369,135,297199,1,0,0:0:0:0:
332,75,297287,1,0,0:0:0:0:
272,38,297375,1,0,0:0:0:0:
203,49,297463,1,0,0:0:0:0:
157,102,297552,1,0,0:0:0:0:
155,171,297640,1,0,0:0:0:0:
183,234,297728,5,0,0:0:0:0:
183,313,297816,1,0,0:0:0:0:
112,352,297905,1,0,0:0:0:0:
35,328,297993,1,0,0:0:0:0:
7,253,298081,1,0,0:0:0:0:
40,180,298169,1,0,0:0:0:0:
114,150,298257,1,0,0:0:0:0:
162,85,298346,1,0,0:0:0:0:
103,30,298434,5,0,0:0:0:0:
68,101,298522,1,0,0:0:0:0:
71,180,298610,1,0,0:0:0:0:
87,258,298699,1,0,0:0:0:0:
143,316,298787,2,0,P|228:351|302:341,1,139.999995727539
486,191,299140,5,0,0:0:0:0:
446,121,299228,1,0,0:0:0:0:
373,86,299316,1,0,0:0:0:0:
294,102,299405,1,0,0:0:0:0:
227,146,299493,1,0,0:0:0:0:
153,176,299581,1,0,0:0:0:0:
73,172,299669,1,0,0:0:0:0:
16,116,299757,1,0,0:0:0:0:
40,39,299846,5,0,0:0:0:0:
128,22,299934,1,0,0:0:0:0:
205,67,300022,1,0,0:0:0:0:
256,144,300110,1,0,0:0:0:0:
256,232,300199,1,0,0:0:0:0:
307,309,300287,1,0,0:0:0:0:
384,354,300375,1,0,0:0:0:0:
472,337,300463,1,0,0:0:0:0:
512,248,300552,6,0,P|444:214|343:244,1,150.000005722046
307,309,300816,1,0,0:0:0:0:
209,364,300905,2,0,P|106:351|59:324,1,150.000005722046
54,83,301257,5,0,0:0:0:0:
127,102,301346,1,0,0:0:0:0:
190,141,301434,1,0,0:0:0:0:
218,210,301522,1,0,0:0:0:0:
227,284,301610,1,0,0:0:0:0:
2,359,301787,1,0,0:0:0:0:
41,87,301963,6,0,P|148:46|336:70,1,300.000011444092
485,182,302493,1,0,0:0:0:0:
385,338,302669,1,0,0:0:0:0:
347,304,302757,1,0,0:0:0:0:
297,284,302846,1,0,0:0:0:0:
244,284,302934,1,0,0:0:0:0:
195,304,303022,1,0,0:0:0:0:
155,338,303110,1,0,0:0:0:0:
101,342,303199,1,0,0:0:0:0:
53,319,303287,1,0,0:0:0:0:
39,268,303375,5,0,0:0:0:0:
80,197,303463,1,0,0:0:0:0:
161,211,303552,1,0,0:0:0:0:
185,289,303640,1,0,0:0:0:0:
116,334,303728,1,0,0:0:0:0:
36,311,303816,1,0,0:0:0:0:
15,230,303905,1,0,0:0:0:0:
67,166,303993,1,0,0:0:0:0:
149,160,304081,5,0,0:0:0:0:
218,216,304169,1,0,0:0:0:0:
215,305,304257,1,0,0:0:0:0:
152,370,304346,1,0,0:0:0:0:
62,367,304434,1,0,0:0:0:0:
1,301,304522,1,0,0:0:0:0:
2,211,304610,1,0,0:0:0:0:
60,141,304699,1,0,0:0:0:0:
149,137,304787,5,0,0:0:0:0:
235,160,304875,1,0,0:0:0:0:
283,235,304963,1,0,0:0:0:0:
347,299,305052,1,0,0:0:0:0:
436,303,305140,5,0,0:0:0:0:
507,249,305228,1,0,0:0:0:0:
502,159,305316,1,0,0:0:0:0:
450,84,305405,1,0,0:0:0:0:
360,78,305493,1,0,0:0:0:0:
292,137,305581,1,0,0:0:0:0:
291,226,305669,1,0,0:0:0:0:
374,257,305757,1,0,0:0:0:0:
446,202,305846,5,0,0:0:0:0:
435,127,305934,1,0,0:0:0:0:
369,91,306022,1,0,0:0:0:0:
307,134,306110,1,0,0:0:0:0:
317,208,306199,6,0,P|400:248|453:84,1,300.000011444092
226,276,306728,2,0,P|324:338|506:325,1,300.000011444092
150,188,307257,1,0,0:0:0:0:
136,239,307346,1,0,0:0:0:0:
121,289,307434,1,0,0:0:0:0:
69,106,307610,5,0,0:0:0:0:
99,62,307699,1,0,0:0:0:0:
147,42,307787,1,0,0:0:0:0:
198,49,307875,1,0,0:0:0:0:
242,75,307963,1,0,0:0:0:0:
258,125,308052,1,0,0:0:0:0:
293,163,308140,1,0,0:0:0:0:
343,177,308228,1,0,0:0:0:0:
394,169,308316,5,0,0:0:0:0:
426,127,308405,1,0,0:0:0:0:
426,74,308493,1,0,0:0:0:0:
382,44,308581,1,0,0:0:0:0:
333,62,308669,1,0,0:0:0:0:
326,114,308757,1,0,0:0:0:0:
373,138,308846,1,0,0:0:0:0:
420,116,308934,1,0,0:0:0:0:
471,125,309022,5,0,0:0:0:0:
502,184,309110,1,0,0:0:0:0:
497,251,309199,1,0,0:0:0:0:
470,312,309287,1,0,0:0:0:0:
407,337,309375,1,0,0:0:0:0:
339,330,309463,1,0,0:0:0:0:
287,285,309552,1,0,0:0:0:0:
275,218,309640,1,0,0:0:0:0:
287,151,309728,5,0,0:0:0:0:
353,116,309816,1,0,0:0:0:0:
418,154,309905,1,0,0:0:0:0:
431,227,309993,1,0,0:0:0:0:
393,291,310081,1,0,0:0:0:0:
323,317,310169,1,0,0:0:0:0:
248,311,310257,1,0,0:0:0:0:
176,284,310346,1,0,0:0:0:0:
141,217,310434,5,0,0:0:0:0:
135,134,310522,1,0,0:0:0:0:
173,61,310610,1,0,0:0:0:0:
247,23,310699,1,0,0:0:0:0:
329,22,310787,1,0,0:0:0:0:
402,58,310875,1,0,0:0:0:0:
453,122,310963,1,0,0:0:0:0:
472,202,311052,1,0,0:0:0:0:
471,276,311140,5,0,0:0:0:0:
436,325,311228,1,0,0:0:0:0:
377,336,311316,1,0,0:0:0:0:
328,300,311405,1,0,0:0:0:0:
321,240,311493,1,0,0:0:0:0:
356,191,311581,1,0,0:0:0:0:
415,185,311669,1,0,0:0:0:0:
459,225,311757,1,0,0:0:0:0:
395,264,311846,6,0,P|314:231|270:157,1,150.000005722046
279,56,312110,1,0,0:0:0:0:
399,35,312199,2,0,L|417:208,1,150.000005722046
395,264,312463,1,0,0:0:0:0:
336,322,312552,1,0,0:0:0:0:
255,340,312640,1,0,0:0:0:0:
172,336,312728,2,0,P|129:319|93:274,1,75.0000028610231
39,95,312905,5,0,0:0:0:0:
119,76,312993,1,0,0:0:0:0:
198,54,313081,2,0,L|294:27,1,75.0000028610231
448,165,313257,5,0,0:0:0:0:
470,221,313346,1,0,0:0:0:0:
463,280,313434,1,0,0:0:0:0:
422,323,313522,1,0,0:0:0:0:
443,378,313610,1,0,0:0:0:0:
500,358,313699,1,0,0:0:0:0:
469,306,313787,1,0,0:0:0:0:
409,309,313875,1,0,0:0:0:0:
364,349,313963,5,0,0:0:0:0:
306,366,314052,1,0,0:0:0:0:
246,366,314140,1,0,0:0:0:0:
188,348,314228,1,0,0:0:0:0:
136,317,314316,1,0,0:0:0:0:
114,260,314405,1,0,0:0:0:0:
110,200,314493,1,0,0:0:0:0:
127,142,314581,1,0,0:0:0:0:
175,106,314669,6,0,P|215:113|270:149,1,75.0000028610231
33,162,314846,2,0,P|106:38|154:20,1,150.000005722046
399,27,315199,1,0,0:0:0:0:
237,288,315375,1,0,0:0:0:0:
27,44,315552,2,0,L|218:32,1,150.000005722046
272,49,315816,1,0,0:0:0:0:
303,69,315905,1,0,0:0:0:0:
329,95,315993,1,0,0:0:0:0:
347,127,316081,5,0,0:0:0:0:
350,201,316169,1,0,0:0:0:0:
307,262,316257,1,0,0:0:0:0:
231,259,316346,1,0,0:0:0:0:
203,189,316434,1,0,0:0:0:0:
239,123,316522,1,0,0:0:0:0:
313,131,316610,1,0,0:0:0:0:
325,205,316699,1,0,0:0:0:0:
265,250,316787,5,0,0:0:0:0:
179,223,316875,1,0,0:0:0:0:
141,141,316963,1,0,0:0:0:0:
181,59,317052,1,0,0:0:0:0:
265,29,317140,1,0,0:0:0:0:
352,48,317228,1,0,0:0:0:0:
404,120,317316,1,0,0:0:0:0:
411,210,317405,1,0,0:0:0:0:
377,293,317493,6,0,P|329:335|208:340,1,150.000005722046
32,32,317846,1,0,0:0:0:0:
122,32,317935,1,0,0:0:0:0:
211,32,318023,1,0,0:0:0:0:
300,33,318111,1,0,0:0:0:0:
390,32,318199,1,0,0:0:0:0:
480,32,318288,1,0,0:0:0:0:
480,112,318375,1,0,0:0:0:0:
480,192,318463,1,0,0:0:0:0:
480,272,318552,5,0,0:0:0:0:
480,352,318640,1,0,0:0:0:0:
390,352,318729,1,0,0:0:0:0:
300,351,318817,1,0,0:0:0:0:
211,352,318905,5,0,0:0:0:0:
122,352,318993,1,0,0:0:0:0:
32,352,319082,1,0,0:0:0:0:
32,272,319169,1,0,0:0:0:0:
32,192,319258,1,0,0:0:0:0:
32,112,319346,1,0,0:0:0:0:
32,32,319434,1,0,0:0:0:0:
122,32,319523,1,0,0:0:0:0:
211,32,319611,5,0,0:0:0:0:
300,33,319699,1,0,0:0:0:0:
390,32,319787,1,0,0:0:0:0:
480,32,319876,1,0,0:0:0:0:
480,112,319963,1,0,0:0:0:0:
480,192,320051,1,0,0:0:0:0:
480,272,320140,1,0,0:0:0:0:
480,352,320228,1,0,0:0:0:0:
390,352,320316,6,0,L|16:352,1,358.000004916382
480,32,320846,1,0,0:0:0:0:
480,352,321022,1,0,0:0:0:0:
32,352,321199,1,0,0:0:0:0:
32,32,321375,1,0,0:0:0:0:
480,352,321552,1,0,0:0:0:0:
32,352,321728,5,0,0:0:0:0:
72,282,321816,1,0,0:0:0:0:
150,260,321905,1,0,0:0:0:0:
32,32,322081,5,0,0:0:0:0:
102,72,322169,1,0,0:0:0:0:
124,150,322258,1,0,0:0:0:0:
480,32,322434,5,0,0:0:0:0:
440,102,322522,1,0,0:0:0:0:
362,124,322611,1,0,0:0:0:0:
480,352,322787,5,0,0:0:0:0:
410,312,322875,1,0,0:0:0:0:
388,234,322964,1,0,0:0:0:0:
32,352,323140,6,0,P|79:286|163:260,1,150.000005722046
230,275,323405,1,0,0:0:0:0:
311,311,323493,1,0,0:0:0:0:
400,308,323581,1,0,0:0:0:0:
467,249,323669,1,0,0:0:0:0:
446,161,323757,1,0,0:0:0:0:
358,138,323846,5,0,0:0:0:0:
299,206,323934,1,0,0:0:0:0:
277,293,324022,1,0,0:0:0:0:
205,347,324110,1,0,0:0:0:0:
114,348,324199,1,0,0:0:0:0:
47,287,324287,1,0,0:0:0:0:
41,197,324375,1,0,0:0:0:0:
89,121,324463,1,0,0:0:0:0:
178,104,324552,5,0,0:0:0:0:
261,135,324640,1,0,0:0:0:0:
278,223,324728,1,0,0:0:0:0:
303,308,324816,1,0,0:0:0:0:
390,333,324905,5,0,0:0:0:0:
475,304,324993,1,0,0:0:0:0:
503,218,325081,1,0,0:0:0:0:
482,130,325169,1,0,0:0:0:0:
406,81,325257,5,0,0:0:0:0:
315,89,325346,1,0,0:0:0:0:
273,168,325434,1,0,0:0:0:0:
259,256,325522,1,0,0:0:0:0:
232,341,325610,1,0,0:0:0:0:
143,363,325699,1,0,0:0:0:0:
59,330,325787,1,0,0:0:0:0:
23,247,325875,1,0,0:0:0:0:
61,165,325963,5,0,0:0:0:0:
165,145,326052,1,0,0:0:0:0:
235,222,326140,1,0,0:0:0:0:
190,316,326228,1,0,0:0:0:0:
85,307,326316,1,0,0:0:0:0:
44,209,326405,1,0,0:0:0:0:
62,105,326493,1,0,0:0:0:0:
140,36,326581,1,0,0:0:0:0:
244,27,326669,5,0,0:0:0:0:
346,50,326757,1,0,0:0:0:0:
425,119,326846,1,0,0:0:0:0:
452,220,326934,1,0,0:0:0:0:
417,318,327022,1,0,0:0:0:0:
331,378,327110,1,0,0:0:0:0:
225,365,327199,1,0,0:0:0:0:
161,281,327287,1,0,0:0:0:0:
183,178,327375,5,0,0:0:0:0:
256,126,327463,1,0,0:0:0:0:
345,142,327552,1,0,0:0:0:0:
396,215,327640,1,0,0:0:0:0:
386,304,327728,1,0,0:0:0:0:
307,348,327816,1,0,0:0:0:0:
228,301,327905,1,0,0:0:0:0:
241,212,327993,1,0,0:0:0:0:
330,201,328081,5,0,0:0:0:0:
367,265,328169,1,0,0:0:0:0:
313,317,328257,1,0,0:0:0:0:
255,268,328346,1,0,0:0:0:0:
303,210,328434,1,0,0:0:0:0:
375,230,328522,1,0,0:0:0:0:
449,230,328610,1,0,0:0:0:0:
509,184,328699,1,0,0:0:0:0:
416,138,328787,5,0,0:0:0:0:
256,192,328831,12,0,331610,0:0:0:0:
160,192,334434,5,0,0:0:0:0:
256,104,334522,1,0,0:0:0:0:
352,192,334610,1,0,0:0:0:0:
256,280,334698,1,0,0:0:0:0:
256,192,334787,2,0,B|328:192|328:192|256:272|256:272|184:192|184:192|260:100,2,400
256,352,336375,5,0,0:0:0:0:
427,108,336552,2,0,P|379:85|313:63,1,100
176,69,336905,2,0,P|130:86|85:108,1,100
478,345,337257,6,0,P|497:254|496:131,1,200
14,147,337963,2,0,P|14:247|34:345,1,200
123,131,338493,5,0,0:0:0:0:
105,82,338581,1,0,0:0:0:0:
64,48,338669,1,0,0:0:0:0:
448,48,338846,1,0,0:0:0:0:
256,264,339022,1,0,0:0:0:0:
256,48,339199,1,0,0:0:0:0:
448,336,339375,5,0,0:0:0:0:
64,336,339552,1,0,0:0:0:0:
64,48,339728,1,0,0:0:0:0:
160,48,339816,1,0,0:0:0:0:
256,48,339905,1,0,0:0:0:0:
352,48,339993,1,0,0:0:0:0:
448,48,340081,1,0,0:0:0:0:
256,360,340257,5,0,0:0:0:0:
256,280,340346,1,0,0:0:0:0:
256,200,340434,1,0,0:0:0:0:
486,122,340610,2,0,P|496:222|481:339,1,200
256,24,341140,5,0,0:0:0:0:
26,320,341316,2,0,P|15:221|26:122,1,200
80,46,341757,1,0,0:0:0:0:
165,21,341846,1,0,0:0:0:0:
325,198,342022,6,0,L|90:182,1,200
368,78,342552,1,0,0:0:0:0:
163,301,342728,1,0,0:0:0:0:
77,66,342905,6,0,P|160:47|204:46,1,100
368,78,343169,1,0,0:0:0:0:
434,142,343257,2,0,L|419:280,1,100
41,317,343787,5,0,0:0:0:0:
423,241,343963,2,0,L|434:142,1,100
345,310,344316,6,0,L|426:324,1,50
447,246,344493,2,0,L|528:260,1,50
190,103,344669,6,0,L|271:117,1,50
292,39,344846,2,0,L|373:53,1,50
104,297,345022,6,0,L|185:311,1,50
206,233,345199,2,0,L|287:247,1,50
59,49,345375,5,0,0:0:0:0:
256,352,345552,1,0,0:0:0:0:
453,49,345728,2,0,P|380:31|278:20,1,150
51,64,346081,2,0,L|58:167,1,100
74,349,346434,1,0,0:0:0:0:
159,205,346610,5,0,0:0:0:0:
152,129,346699,1,0,0:0:0:0:
144,54,346787,2,0,P|192:26|240:14,1,100
328,316,347140,6,0,L|197:283,1,100
159,205,347405,1,0,0:0:0:0:
291,218,347493,2,0,P|357:209|413:184,1,100
500,340,347846,6,0,P|429:289|372:276,1,100
327,316,348110,1,0,0:0:0:0:
240,368,348199,2,0,L|128:368,1,100
23,206,348552,6,0,L|123:206,1,100
256,128,348816,1,0,0:0:0:0:
389,206,348905,2,0,L|489:206,2,100
22,206,349434,1,0,0:0:0:0:
35,127,349522,1,0,0:0:0:0:
84,64,349610,2,0,P|128:38|206:27,1,100
428,64,349963,5,0,0:0:0:0:
477,127,350051,1,0,0:0:0:0:
490,206,350139,1,0,0:0:0:0:
460,281,350228,1,0,0:0:0:0:
417,348,350316,5,0,0:0:0:0:
339,370,350405,1,0,0:0:0:0:
256,384,350493,1,0,0:0:0:0:
173,370,350581,1,0,0:0:0:0:
95,348,350670,5,0,0:0:0:0:
52,281,350758,1,0,0:0:0:0:
22,206,350847,1,0,0:0:0:0:
35,127,350935,1,0,0:0:0:0:
84,64,351022,6,0,L|206:48,1,100
317,289,351375,5,0,0:0:0:0:
295,301,351463,1,0,0:0:0:0:
271,307,351551,1,0,0:0:0:0:
246,307,351639,1,0,0:0:0:0:
222,301,351727,1,0,0:0:0:0:
200,289,351816,1,0,0:0:0:0:
183,271,351904,1,0,0:0:0:0:
170,249,351992,1,0,0:0:0:0:
164,225,352080,1,0,0:0:0:0:
164,200,352169,1,0,0:0:0:0:
170,176,352257,1,0,0:0:0:0:
183,155,352345,1,0,0:0:0:0:
200,137,352434,2,0,P|235:125|301:140,2,66.6666666666667
89,305,352787,5,0,0:0:0:0:
423,305,352963,1,0,0:0:0:0:
256,24,353140,1,0,0:0:0:0:
40,136,353316,5,0,0:0:0:0:
256,360,353493,1,0,0:0:0:0:
472,136,353669,1,0,0:0:0:0:
256,24,353846,5,0,0:0:0:0:
256,360,354022,1,0,0:0:0:0:
256,192,354199,5,0,0:0:0:0:
280,168,354287,1,0,0:0:0:0:
280,216,354375,1,0,0:0:0:0:
232,216,354463,1,0,0:0:0:0:
232,168,354551,1,0,0:0:0:0:
256,152,354640,5,0,0:0:0:0:
296,192,354728,1,0,0:0:0:0:
256,232,354816,1,0,0:0:0:0:
216,192,354904,1,0,0:0:0:0:
216,152,354993,5,0,0:0:0:0:
296,152,355081,1,0,0:0:0:0:
296,232,355169,1,0,0:0:0:0:
216,232,355257,1,0,0:0:0:0:
216,232,355610,5,0,0:0:0:0:
24,32,355787,1,0,0:0:0:0:
256,296,355963,5,0,0:0:0:0:
256,32,356140,1,0,0:0:0:0:
304,360,356316,5,0,0:0:0:0:
488,32,356493,1,0,0:0:0:0:
24,32,356669,5,0,0:0:0:0:
208,360,356846,1,0,0:0:0:0:
448,104,357022,5,0,0:0:0:0:
424,132,357110,1,0,0:0:0:0:
395,157,357198,1,0,0:0:0:0:
364,177,357286,1,0,0:0:0:0:
329,192,357374,1,0,0:0:0:0:
293,200,357463,1,0,0:0:0:0:
256,204,357551,1,0,0:0:0:0:
218,200,357639,1,0,0:0:0:0:
182,192,357727,1,0,0:0:0:0:
147,177,357816,1,0,0:0:0:0:
116,157,357904,1,0,0:0:0:0:
87,132,357992,1,0,0:0:0:0:
64,104,358080,1,0,0:0:0:0:
64,104,358434,5,0,0:0:0:0:
488,32,358610,1,0,0:0:0:0:
488,352,358787,5,0,0:0:0:0:
152,40,358963,1,0,0:0:0:0:
24,352,359140,5,0,0:0:0:0:
360,40,359316,1,0,0:0:0:0:
488,352,359493,1,0,0:0:0:0:
152,40,359669,1,0,0:0:0:0:
256,192,359846,5,0,0:0:0:0:
256,192,359890,12,0,362669,0:0:0:0:
256,192,362713,12,0,365493,0:0:0:0:
216,312,366905,6,0,B|168:344|128:344|128:344|72:312|40:264|40:264|0:200|32:80|32:80|152:264|152:264|152:32|152:32|256:96|352:280|256:368|256:368|160:280|256:96|360:32|360:32|360:264|360:264|480:80|480:80|512:200|472:264|472:264|440:312|384:344|384:344|344:344|296:312,1,2505.21925988394,4|0,0:0|0:0,0:0:0:0:
