osu file format v14

[General]
AudioFilename: Flowers.mp3
AudioLeadIn: 0
PreviewTime: 46583
Countdown: 0
SampleSet: Soft
StackLeniency: 0.7
Mode: 0
LetterboxInBreaks: 0
WidescreenStoryboard: 0

[Editor]
DistanceSpacing: 1
BeatDivisor: 2
GridSize: 8
TimelineZoom: 0.6999999

[Metadata]
Title:FLOWERS
TitleUnicode:FLOWERS
Artist:Shimotsuki Haruka
ArtistUnicode:霜月はるか
Creator:NeK0Nyqn
Version:Normal
Source:FLOWERS
Tags:Innocent Grey yuri visual novel galgame 鈴湯 Suzuyu
BeatmapID:655927
BeatmapSetID:288019

[Difficulty]
HPDrainRate:4
CircleSize:3
OverallDifficulty:3
ApproachRate:4
SliderMultiplier:1
SliderTickRate:1

[Events]
//Background and Video events
0,0,"bg1.jpg",0,0
Video,0,"video.avi"
//Break Periods
//Storyboard Layer 0 (Background)
//Storyboard Layer 1 (Fail)
//Storyboard Layer 2 (Pass)
//Storyboard Layer 3 (Foreground)
//Storyboard Sound Samples

[TimingPoints]
377,344.827586206897,4,2,1,40,1,0
10721,-100,4,2,1,5,0,0
11756,-100,4,2,1,40,0,0
33480,-100,4,2,2,60,0,0
46583,-100,4,2,1,60,0,0
46928,-100,4,2,3,70,0,0
47273,-100,4,2,3,80,0,1
56756,-100,4,2,3,80,0,0
58308,-100,4,2,3,80,0,1
77618,-100,4,2,3,60,0,0
80032,-100,4,2,3,80,0,1
82445,-100,4,2,3,60,0,0
85894,-100,4,2,1,40,0,0

[Colours]
Combo1 : 200,255,255
Combo2 : 208,255,208

[HitObjects]
104,184,377,6,0,B|168:216|224:200|264:144|264:144|320:192,1,250,2|0,0:0|0:0,0:0:0:0:
392,256,1583,1,0,0:0:0:0:
272,304,3135,6,0,P|220:312|167:290,1,100,2|0,0:0|0:0,0:0:0:0:
40,232,3997,2,0,P|24:278|32:327,1,100
168,96,5894,6,0,P|256:69|368:112,3,200,4|0|0|0,0:0|0:0|0:0|0:0,0:0:0:0:
264,280,8652,1,4,0:0:0:0:
256,192,8997,12,0,10721,0:0:0:0:
134,92,11756,6,0,P|127:148|164:197,1,100
229,241,12445,1,0,0:0:0:0:
316,192,12790,2,0,P|370:180|427:210,2,100
229,242,13825,2,0,P|213:189|242:128,1,100
264,56,14514,2,0,P|316:67|380:43,1,100
408,40,15032,1,0,2:0:0:0:
456,56,15204,2,0,L|496:88,2,50
448,152,15894,6,0,P|399:166|342:144,1,100
264,104,16583,2,0,P|250:151|264:200,1,100
296,296,17273,1,0,0:0:0:0:
200,264,17618,2,0,P|155:239|96:244,1,100
16,192,18308,6,0,P|8:144|32:80,1,100
96,24,18997,2,0,P|144:16|208:40,1,100
208,128,19687,2,0,P|256:136|320:112,1,100
336,80,20204,1,0,2:0:0:0:
368,40,20377,2,0,P|417:40|461:63,1,100
488,104,20894,1,0,2:0:0:0:
480,200,21239,5,0,2:0:0:0:
456,248,21411,2,0,L|493:305,2,50
408,248,21928,1,0,2:0:0:0:
264,288,22445,6,0,P|213:298|155:267,1,100
112,200,23135,2,0,P|101:147|117:87,1,100
146,68,23652,2,0,P|159:45|167:11,2,50
205,149,24342,6,0,P|260:158|315:143,1,100
344,120,24859,1,0,0:0:0:0:
392,104,25032,2,0,L|353:260,1,150
448,296,25894,2,0,P|460:267|467:231,2,50,0|0|0,2:0|0:0|2:0,0:0:0:0:
408,328,26411,1,0,0:0:0:0:
264,360,26928,6,0,P|208:368|152:352,1,100
120,272,27618,2,0,P|62:262|8:280,2,100
216,264,28652,5,0,0:0:0:0:
312,232,28997,2,0,P|360:240|432:216,1,100
472,304,29687,1,0,0:0:0:0:
303,55,30721,5,0,0:0:0:0:
206,80,31066,1,0,0:0:0:0:
109,107,31411,1,0,0:0:0:0:
13,136,31756,2,0,P|12:189|34:236,1,100
128,248,32445,2,0,L|288:224,1,150
376,240,33308,5,0,0:0:0:0:
424,216,33480,2,0,L|440:168,1,50,4|0,2:0|2:0,2:0:0:0:
432,120,33825,1,0,0:0:0:0:
384,32,34170,2,0,P|331:18|273:38,1,100,2|0,0:0|0:0,0:0:0:0:
224,104,34859,6,0,P|211:155|222:204,1,100
296,264,35549,2,0,P|306:318|294:362,1,100
208,312,36239,2,0,P|159:302|111:315,1,100
20,355,36928,5,2,0:0:0:0:
29,305,37101,2,0,P|38:256|25:208,1,100
19,158,37618,2,0,P|9:109|22:61,1,100
107,113,38308,2,0,L|216:113,1,100,2|0,0:0|0:0,0:0:0:0:
297,161,38997,6,0,P|308:120|288:52,2,100,4|0|2,2:0|0:0|0:0,0:0:0:0:
226,232,40032,2,0,L|111:268,1,100
55,195,40721,2,0,L|166:160,1,100,0|2,0:0|0:0,0:0:0:0:
343,114,41756,5,0,0:0:0:0:
433,156,42101,1,0,0:0:0:0:
432,255,42445,1,2,0:0:0:0:
359,324,42790,2,0,P|312:340|245:331,1,100,0|2,0:0|0:0,0:0:0:0:
173,290,43480,1,0,0:0:0:0:
103,362,43825,1,2,0:0:0:0:
34,289,44170,2,0,P|14:237|21:178,1,100
111,223,44859,2,0,P|157:202|224:214,1,100
279,19,45894,5,0,0:0:0:0:
390,185,46583,2,0,P|405:137|386:79,1,100,2|8,0:0|0:0,0:0:0:0:
320,20,47273,6,0,L|208:16,1,100,6|8,0:0|0:0,0:0:0:0:
168,104,47963,2,0,L|280:108,1,100,2|8,0:0|0:0,0:0:0:0:
360,136,48652,6,0,P|368:184|352:240,1,100,0|8,0:0|0:0,0:0:0:0:
296,312,49342,1,2,0:0:0:0:
216,248,49687,2,0,P|168:232|112:248,1,100,8|2,0:0|0:0,0:0:0:0:
40,304,50377,1,8,0:0:0:0:
0,208,50721,2,0,P|-14:152|8:102,1,100,2|8,0:0|0:0,0:0:0:0:
87,160,51411,6,0,B|136:178|136:178|198:154,2,100,2|8|2,0:0|0:0|0:0,0:0:0:0:
84,59,52445,1,8,0:0:0:0:
176,20,52790,2,0,P|228:31|294:8,1,100,2|0,0:0|0:0,0:0:0:0:
307,114,53480,2,0,P|323:146|315:210,2,100,0|8|2,0:0|0:0|0:0,0:0:0:0:
206,113,54514,2,0,P|190:153|198:209,2,100,8|2|8,0:0|0:0|0:0,0:0:0:0:
259,28,55549,5,2,0:0:0:0:
356,51,55894,1,8,0:0:0:0:
408,136,56239,2,0,P|424:192|400:248,1,100,2|8,0:0|0:0,0:0:0:0:
384,272,56756,1,2,0:0:0:0:
344,296,56928,2,0,P|304:304|240:280,1,100,0|8,0:0|0:0,0:0:0:0:
208,192,57618,2,0,P|247:184|311:208,1,100,2|0,0:0|0:0,0:0:0:0:
344,296,58308,6,0,P|392:304|448:296,1,100,6|8,0:0|0:0,0:0:0:0:
504,224,58997,2,0,P|504:183|484:113,1,100,0|8,0:0|0:0,0:0:0:0:
416,56,59687,1,0,0:0:0:0:
328,104,60032,2,0,P|280:112|224:104,1,100,8|2,0:0|0:0,0:0:0:0:
136,72,60721,1,8,0:0:0:0:
72,152,61066,2,0,P|64:200|80:264,1,100,2|8,0:0|0:0,0:0:0:0:
128,336,61756,1,0,0:0:0:0:
220,297,62101,1,8,0:0:0:0:
305,347,62445,6,0,P|351:360|402:340,2,100,6|8|2,0:0|0:0|0:0,0:0:0:0:
220,297,63480,1,8,0:0:0:0:
263,206,63825,2,0,P|276:154|250:94,1,100,6|8,0:0|0:0,0:0:0:0:
173,64,64514,2,0,P|160:111|173:159,1,100,0|8,0:0|0:0,0:0:0:0:
130,250,65204,5,0,0:0:0:0:
72,332,65549,2,0,P|40:304|29:241,1,100,8|2,0:0|0:0,0:0:0:0:
73,160,66239,1,0,0:0:0:0:
50,64,66583,5,2,0:0:0:0:
138,16,66928,2,0,L|238:31,1,100,8|0,0:0|0:0,0:0:0:0:
291,115,67618,1,8,0:0:0:0:
345,198,67963,6,0,P|394:208|449:196,1,100,2|8,0:0|0:0,0:0:0:0:
495,113,68652,1,2,0:0:0:0:
425,40,68997,1,8,0:0:0:0:
340,93,69342,6,0,P|290:106|236:91,1,100,2|8,0:0|0:0,0:0:0:0:
146,69,70032,1,2,0:0:0:0:
96,156,70377,2,0,P|82:207|93:258,1,100,8|2,0:0|0:0,0:0:0:0:
170,312,71066,2,0,L|277:311,1,100,8|2,0:0|0:0,0:0:0:0:
356,259,71756,2,0,P|369:217|359:162,1,100,8|2,0:0|0:0,0:0:0:0:
411,77,72445,5,8,0:0:0:0:
463,162,72790,2,0,P|455:208|478:273,1,100,0|8,0:0|0:0,0:0:0:0:
406,337,73480,2,0,P|349:347|294:334,1,100,0|8,0:0|0:0,0:0:0:0:
218,293,74170,1,2,0:0:0:0:
128,336,74514,1,2,0:0:0:0:
45,279,74859,6,0,P|36:231|45:182,1,100,4|2,0:0|0:0,0:0:0:0:
102,98,75549,1,0,0:0:0:0:
181,158,75894,2,0,P|231:170|292:153,1,100,0|2,0:0|0:0,0:0:0:0:
353,95,76583,1,8,0:0:0:0:
438,146,76928,2,0,P|448:197|434:255,1,100,2|0,0:0|0:0,0:0:0:0:
338,243,77618,6,0,P|327:194|337:145,1,100,4|2,0:0|0:0,0:0:0:0:
380,55,78308,2,0,P|334:42|272:70,1,100,0|2,0:0|0:0,0:0:0:0:
203,114,78997,1,0,0:0:0:0:
118,167,79342,2,0,P|103:123|124:58,1,100,8|0,0:0|0:0,0:0:0:0:
205,114,80032,1,2,0:0:0:0:
249,203,80377,6,0,P|305:213|354:199,1,100,2|8,0:0|0:0,0:0:0:0:
381,167,80894,2,0,P|390:113|377:59,1,100,2|8,0:0|0:0,0:0:0:0:
350,29,81411,1,0,0:0:0:0:
306,4,81583,2,0,L|153:27,1,150,2|8,0:0|0:0,0:0:0:0:
256,192,82790,12,0,85204,0:0:0:0:
371,29,85894,6,0,P|463:85|515:177,2,200
256,193,87963,1,0,0:0:0:0:
138,354,88652,2,0,P|46:298|-6:206,2,200,6|0|0,0:0|0:0|0:0,0:0:0:0:
336,329,90721,1,0,0:0:0:0:
414,266,91066,1,4,3:0:0:0:
443,170,91411,1,4,0:0:0:0:
252,108,92101,6,0,P|157:149|50:115,1,200
50,225,93135,2,0,P|100:241|137:293,2,100
256,192,94514,12,0,98825,2:0:0:0:
