osu file format v14

[General]
AudioFilename: Flowers.mp3
AudioLeadIn: 0
PreviewTime: 46583
Countdown: 0
SampleSet: Soft
StackLeniency: 0.7
Mode: 0
LetterboxInBreaks: 0
WidescreenStoryboard: 0

[Editor]
Bookmarks: 46928
DistanceSpacing: 1.3
BeatDivisor: 4
GridSize: 8
TimelineZoom: 1.5

[Metadata]
Title:FLOWERS
TitleUnicode:FLOWERS
Artist:Shimotsuki Haruka
ArtistUnicode:霜月はるか
Creator:NeK0Nyqn
Version:Hard
Source:FLOWERS
Tags:Innocent Grey yuri visual novel galgame 鈴湯 Suzuyu
BeatmapID:655860
BeatmapSetID:288019

[Difficulty]
HPDrainRate:5
CircleSize:4
OverallDifficulty:5
ApproachRate:7.5
SliderMultiplier:1.4
SliderTickRate:1

[Events]
//Background and Video events
0,0,"bg1.jpg",0,0
Video,0,"video.avi"
//Break Periods
//Storyboard Layer 0 (Background)
//Storyboard Layer 1 (Fail)
//Storyboard Layer 2 (Pass)
//Storyboard Layer 3 (Foreground)
//Storyboard Sound Samples

[TimingPoints]
377,344.827586206897,4,2,1,40,1,0
377,-133.333333333333,4,2,1,40,0,0
4342,-133.333333333333,4,2,1,40,0,0
11756,-133.333333333333,4,2,1,40,0,0
26928,-133.333333333333,4,2,1,50,0,0
33480,-100,4,2,2,60,0,0
46583,-83.3333333333333,4,2,3,60,0,0
46928,-166.666666666667,4,2,3,70,0,0
47273,-100,4,2,3,80,0,1
56756,-100,4,2,3,80,0,0
58308,-100,4,2,3,80,0,1
77618,-100,4,2,3,60,0,0
80032,-100,4,2,3,80,0,1
82445,-133.333333333333,4,2,3,60,0,0
85894,-133.333333333333,4,2,1,40,0,0

[Colours]
Combo1 : 200,255,255
Combo2 : 208,255,208

[HitObjects]
220,219,377,6,0,P|219:281|195:339,2,105.000004005432,2|0|0,0:0|0:0|0:0,0:0:0:0:
158,149,1411,2,0,P|157:121|165:75,1,52.5000020027161
415,170,3135,6,0,L|464:275,2,105.000004005432,2|0|0,0:0|0:0|0:0,0:0:0:0:
332,174,3997,2,0,L|352:222,1,52.5000020027161
382,297,4342,2,0,P|341:328|269:322,1,105.000004005432
227,277,4859,1,0,0:0:0:0:
233,118,5894,6,0,P|224:197|341:213,2,210.000008010865,4|0|0,0:0|0:0|0:0,0:0:0:0:
332,221,7618,6,0,L|300:270,2,52.5000020027161
332,133,8135,2,0,L|297:82,1,52.5000020027161
220,58,8480,1,0,0:0:0:0:
161,122,8652,6,0,P|109:136|57:118,2,105.000004005432,4|0|0,0:0|0:0|0:0,0:0:0:0:
219,58,9514,2,0,L|234:-2,1,52.5000020027161
256,192,10032,12,0,11411,0:0:0:0:
404,184,11756,5,0,0:0:0:0:
333,241,11928,2,0,L|276:255,1,52.5000020027161
129,253,12445,1,0,0:0:0:0:
59,291,12618,1,0,0:0:0:0:
45,213,12790,6,0,P|43:182|53:143,1,52.5000020027161
114,65,13308,1,0,0:0:0:0:
114,66,13652,1,0,0:0:0:0:
206,97,13825,2,0,L|273:80,1,52.5000020027161
341,99,14170,1,0,0:0:0:0:
341,99,14514,6,0,P|337:132|322:169,1,52.5000020027161
359,239,14859,1,0,2:0:0:0:
359,239,15032,1,0,2:0:0:0:
359,239,15204,2,0,P|326:241|289:232,1,52.5000020027161,0|0,2:0|0:0,0:0:0:0:
205,249,15894,5,0,0:0:0:0:
145,335,16239,2,0,P|110:302|104:243,1,105.000004005432
205,201,16928,5,0,0:0:0:0:
205,201,17273,1,0,0:0:0:0:
332,324,17618,2,0,P|376:296|384:243,1,105.000004005432
337,175,18135,1,0,0:0:0:0:
320,259,18308,6,0,P|362:305|418:300,1,105.000004005432
468,250,18825,1,0,0:0:0:0:
511,174,18997,2,0,P|521:120|509:70,1,105.000004005432
424,124,19514,1,0,0:0:0:0:
337,174,19687,2,0,P|326:116|338:72,1,105.000004005432
424,123,20204,5,0,2:0:0:0:
512,176,20377,2,0,L|503:238,2,52.5000020027161
507,76,20894,1,0,2:0:0:0:
333,171,21239,5,0,2:0:0:0:
421,225,21411,2,0,L|410:296,2,52.5000020027161
424,124,21928,1,0,2:0:0:0:
191,266,22445,6,0,P|252:264|304:224,1,105.000004005432
269,135,22963,1,0,0:0:0:0:
167,169,23135,2,0,P|170:229|201:277,1,105.000004005432
263,317,23652,1,0,0:0:0:0:
350,307,23825,2,0,L|411:297,1,52.5000020027161
414,311,24342,6,0,L|311:328,1,105.000004005432
192,340,24859,2,0,P|190:309|200:276,1,52.5000020027161
240,217,25204,1,0,0:0:0:0:
298,156,25377,2,0,P|298:129|293:104,1,52.5000020027161
140,98,25894,2,0,P|133:128|135:164,2,52.5000020027161
221,28,26411,1,0,0:0:0:0:
381,160,26928,6,0,P|363:215|310:239,1,105.000004005432
269,161,27618,2,0,P|281:210|330:239,2,105.000004005432
117,261,28652,5,0,0:0:0:0:
43,149,28997,1,0,0:0:0:0:
96,24,29342,2,0,P|147:9|205:28,1,105.000004005432
255,193,30721,5,0,0:0:0:0:
201,271,31066,1,0,0:0:0:0:
125,214,31411,1,0,0:0:0:0:
114,308,31756,2,0,P|148:353|213:362,1,105.000004005432
306,180,32445,2,0,L|239:197,1,52.5000020027161
114,308,32963,1,0,0:0:0:0:
306,180,33308,5,0,0:0:0:0:
223,167,33480,2,0,L|153:192,1,70,4|0,2:0|2:0,2:0:0:0:
72,185,33825,2,0,P|80:227|105:268,1,70
178,295,34170,2,0,P|122:343|31:325,1,140,2|0,0:0|0:0,0:0:0:0:
0,254,34687,1,0,0:0:0:0:
73,184,34859,6,0,P|89:140|39:173,1,140
194,245,35549,2,0,L|209:210,2,35,2|0|0,0:0|0:0|0:0,0:0:0:0:
194,326,35894,6,0,P|249:324|299:258,1,140
259,191,36411,2,0,P|278:153|285:112,2,70
193,246,36928,5,2,0:0:0:0:
129,190,37101,1,0,0:0:0:0:
101,110,37273,2,0,L|116:36,1,70
190,3,37618,1,0,0:0:0:0:
224,95,37790,1,0,0:0:0:0:
193,247,38135,1,0,0:0:0:0:
256,313,38308,2,0,P|293:317|349:306,1,70,2|0,0:0|0:0,0:0:0:0:
369,224,38652,2,0,P|396:245|417:273,1,70
326,314,38997,6,0,P|306:361|205:359,2,140,4|0|2,2:0|0:0|0:0,0:0:0:0:
271,238,39859,2,0,L|283:157,1,70
369,225,40204,1,0,0:0:0:0:
396,320,40377,6,0,L|309:312,1,70
226,326,40721,2,0,L|193:347,2,35
271,238,41066,2,0,P|289:165|372:129,1,140,2|0,0:0|0:0,0:0:0:0:
161,73,41756,5,0,0:0:0:0:
161,73,42101,1,0,0:0:0:0:
161,73,42445,1,2,0:0:0:0:
266,79,42618,1,0,0:0:0:0:
200,154,42790,2,0,P|165:161|107:147,1,70
97,248,43135,6,0,P|173:237|260:262,1,140,2|0,0:0|0:0,0:0:0:0:
161,355,43825,1,2,0:0:0:0:
310,298,44170,6,0,P|321:264|321:230,1,70
230,279,44514,2,0,P|229:313|240:347,1,70
311,297,44859,6,0,P|386:240|305:165,1,210
328,164,45894,5,0,0:0:0:0:
328,164,46583,2,0,L|373:155,2,41.9999987182618,2|2|8,0:0|0:0|0:0,0:0:0:0:
326,78,46928,6,0,P|284:85|254:80,1,62.9999980773926
221,84,47273,6,0,B|180:77|168:165|85:153,1,140,6|8,0:0|0:0,0:0:0:0:
75,53,47790,1,2,0:0:0:0:
172,11,47963,2,0,P|213:-2|260:1,1,70,2|2,0:0|0:0,0:0:0:0:
326,78,48308,1,8,0:0:0:0:
325,78,48480,1,2,0:0:0:0:
280,156,48652,6,0,P|263:224|295:301,1,140,0|8,0:0|0:0,0:0:0:0:
375,318,49170,2,0,P|357:357|319:370,1,70,0|2,0:0|0:0,0:0:0:0:
285,288,49514,1,2,0:0:0:0:
348,245,49687,2,0,P|356:207|347:170,1,70,8|2,0:0|0:0,0:0:0:0:
325,78,50032,6,0,P|392:57|468:96,1,140,2|8,0:0|0:0,0:0:0:0:
510,149,50549,1,0,0:0:0:0:
448,212,50721,2,0,P|410:218|369:206,1,70,2|2,0:0|0:0,0:0:0:0:
296,173,51066,1,8,0:0:0:0:
296,173,51411,6,0,P|219:154|160:178,1,140,2|8,0:0|0:0,0:0:0:0:
103,255,51928,2,0,P|69:196|85:118,1,140,0|2,0:0|0:0,0:0:0:0:
156,62,52445,1,8,0:0:0:0:
156,62,52790,6,0,P|226:83|311:58,1,140
381,81,53308,1,0,0:0:0:0:
347,165,53480,2,0,P|302:218|285:285,1,140,2|8,0:0|0:0,0:0:0:0:
223,353,53997,1,2,0:0:0:0:
161,285,54170,2,0,P|142:218|98:164,1,140,0|8,0:0|0:0,0:0:0:0:
26,107,54687,1,0,0:0:0:0:
92,45,54859,6,0,P|130:39|173:44,1,70,2|2,0:0|0:0,0:0:0:0:
199,124,55204,2,0,P|241:130|285:123,1,70,8|0,0:0|0:0,0:0:0:0:
342,62,55549,2,0,P|366:129|342:195,1,140,2|8,0:0|0:0,0:0:0:0:
253,195,56066,2,0,P|229:128|253:62,1,140,2|2,0:0|0:0,0:0:0:0:
343,27,56583,1,8,0:0:0:0:
343,27,56756,1,2,0:0:0:0:
433,63,56928,6,0,P|455:116|407:211,1,140,0|8,0:0|0:0,0:0:0:0:
354,241,57445,1,2,0:0:0:0:
354,241,57618,1,10,0:0:0:0:
279,293,57790,2,0,P|244:298|210:293,1,70
137,237,58135,1,0,0:0:0:0:
63,290,58308,6,0,P|47:228|87:160,1,140,6|8,0:0|0:0,0:0:0:0:
159,115,58825,1,0,0:0:0:0:
245,142,58997,2,0,P|281:150|322:141,1,70,0|2,0:0|0:0,0:0:0:0:
385,88,59342,1,8,0:0:0:0:
385,88,59514,1,2,0:0:0:0:
455,146,59687,6,0,P|478:215|438:291,1,140,0|8,0:0|0:0,0:0:0:0:
367,247,60204,2,0,P|334:241|288:254,1,70,0|2,0:0|0:0,0:0:0:0:
221,296,60549,1,2,0:0:0:0:
144,247,60721,2,0,P|138:214|149:169,1,70,8|0,0:0|0:0,0:0:0:0:
226,114,61066,6,0,P|248:184|208:260,1,140,2|8,0:0|0:0,0:0:0:0:
157,308,61583,1,0,0:0:0:0:
157,308,61756,1,0,0:0:0:0:
218,374,61928,2,0,P|249:380|311:361,1,70,2|8,0:0|0:0,0:0:0:0:
356,314,62273,1,2,0:0:0:0:
412,243,62445,6,0,P|418:206|411:168,2,70,6|2|8,0:0|0:0|0:0,0:0:0:0:
333,288,62963,1,0,0:0:0:0:
361,188,63135,6,0,P|366:144|359:107,2,70,2|2|8,0:0|0:0|0:0,0:0:0:0:
313,263,63652,1,0,0:0:0:0:
217,311,63825,6,0,P|148:313|93:271,1,140,2|8,0:0|0:0,0:0:0:0:
97,178,64342,1,0,0:0:0:0:
180,221,64514,6,0,P|188:289|123:354,1,140,0|8,0:0|0:0,0:0:0:0:
55,342,65032,1,2,0:0:0:0:
104,270,65204,1,0,0:0:0:0:
30,217,65377,6,0,P|20:180|32:136,1,70,2|8,0:0|0:0,0:0:0:0:
75,73,65721,1,0,0:0:0:0:
154,118,65894,2,0,P|191:129|234:118,1,70,2|2,0:0|0:0,0:0:0:0:
291,65,66239,2,0,P|325:60|382:81,1,70,8|2,0:0|0:0,0:0:0:0:
319,150,66583,6,0,P|300:214|331:302,1,140,2|8,0:0|0:0,0:0:0:0:
251,347,67101,1,6,0:0:0:0:
184,285,67273,2,0,P|204:214|175:138,1,140,0|8,0:0|0:0,0:0:0:0:
101,104,67790,6,0,P|129:72|176:56,1,70,2|0,0:0|0:0,0:0:0:0:
244,62,68135,2,0,P|273:80|296:107,1,70,2|8,0:0|0:0,0:0:0:0:
282,197,68480,1,0,0:0:0:0:
368,168,68652,2,0,L|448:141,2,70,2|0|8,0:0|0:0|0:0,0:0:0:0:
282,197,69170,1,0,0:0:0:0:
194,131,69342,6,0,P|172:192|211:276,1,140,2|8,0:0|0:0,0:0:0:0:
228,351,69859,2,0,P|186:358|139:339,2,70,0|2|2,0:0|0:0|0:0,0:0:0:0:
285,301,70377,5,8,0:0:0:0:
285,301,70549,1,2,0:0:0:0:
319,237,70721,2,0,P|329:204|320:149,1,70,8|2,0:0|0:0,0:0:0:0:
178,186,71066,2,0,L|274:198,1,70,8|2,0:0|0:0,0:0:0:0:
323,87,71411,2,0,L|243:79,1,70,8|2,0:0|0:0,0:0:0:0:
179,40,71756,2,0,P|169:73|173:107,1,70,8|2,0:0|0:0,0:0:0:0:
247,195,72101,6,0,P|190:222|98:203,1,140,2|8,0:0|0:0,0:0:0:0:
24,228,72618,1,2,0:0:0:0:
92,292,72790,2,0,P|127:303|160:352,1,70,8|2,0:0|0:0,0:0:0:0:
234,343,73135,1,8,0:0:0:0:
321,353,73308,1,2,0:0:0:0:
394,303,73480,6,0,P|439:244|431:180,1,140,8|8,0:0|0:0,0:0:0:0:
385,111,73997,1,0,0:0:0:0:
315,65,74170,2,0,L|242:78,1,70
217,165,74514,2,0,L|305:150,1,70,2|8,0:0|0:0,0:0:0:0:
308,40,74859,6,0,P|252:8|178:56,1,140,4|2,0:0|0:0,0:0:0:0:
158,206,75377,2,0,P|218:236|284:191,1,140,2|0,0:0|0:0,0:0:0:0:
257,101,75894,1,0,0:0:0:0:
167,29,76066,6,0,B|135:13|135:13|92:55|131:131,1,140,2|2,0:0|0:0,0:0:0:0:
158,207,76583,1,8,0:0:0:0:
238,310,76928,5,2,0:0:0:0:
238,310,77273,1,0,0:0:0:0:
395,306,77618,2,0,P|447:272|472:182,1,140,4|2,0:0|0:0,0:0:0:0:
423,125,78135,1,8,0:0:0:0:
375,203,78308,2,0,P|318:228|225:189,1,140,0|2,0:0|0:0,0:0:0:0:
192,134,78825,1,8,0:0:0:0:
137,62,78997,6,0,P|100:53|54:74,1,70,0|2,0:0|0:0,0:0:0:0:
16,162,79342,2,0,P|53:171|99:150,1,70,8|0,0:0|0:0,0:0:0:0:
192,134,79687,2,0,L|186:183,4,35,0|0|0|0|2,0:0|0:0|0:0|0:0|0:0,0:0:0:0:
226,116,80204,6,0,P|258:107|312:121,1,70,2|8,0:0|0:0,0:0:0:0:
400,247,80721,1,2,0:0:0:0:
400,247,80894,2,0,P|366:250|313:234,1,70,2|0,0:0|0:0,0:0:0:0:
240,218,81239,1,8,0:0:0:0:
155,175,81411,2,0,L|133:78,1,70,2|2,0:0|0:0,0:0:0:0:
264,18,81928,5,2,0:0:0:0:
264,18,82101,1,8,0:0:0:0:
374,104,82445,1,0,0:0:0:0:
256,192,82790,12,0,85894,0:0:0:0:
256,191,86239,5,0,0:0:0:0:
256,191,86411,2,0,P|296:237|340:251,1,105.000004005432
434,187,86928,1,0,0:0:0:0:
400,98,87101,2,0,P|354:127|338:187,1,105.000004005432
371,255,87618,2,0,P|352:303|308:329,1,105.000004005432
229,269,88652,6,0,P|209:307|201:228,2,210.000008010865,6|0|0,0:0|0:0|0:0,0:0:0:0:
194,154,90204,2,0,P|141:160|89:203,1,105.000004005432,0|8,0:0|3:0,0:0:0:0:
69,267,90721,1,0,0:0:0:0:
69,267,90894,1,4,3:0:0:0:
17,200,91066,1,4,3:0:0:0:
194,153,91411,1,4,0:0:0:0:
173,241,92101,6,0,P|264:217|273:106,1,210.000008010865
270,208,93135,2,0,L|329:249,2,52.5000020027161
194,153,93825,1,0,0:0:0:0:
256,192,94514,12,0,98825,2:0:0:0:
