osu file format v14

[General]
AudioFilename: Flowers.mp3
AudioLeadIn: 1700
PreviewTime: 46485
Countdown: 0
SampleSet: Soft
StackLeniency: 0.7
Mode: 0
LetterboxInBreaks: 0
WidescreenStoryboard: 0

[Editor]
DistanceSpacing: 1.2
BeatDivisor: 4
GridSize: 4
TimelineZoom: 1

[Metadata]
Title:FLOWERS
TitleUnicode:FLOWERS
Artist:Shimotsuki Haruka
ArtistUnicode:霜月はるか
Creator:Flower
Version:Hard
Source:FLOWERS
Tags:Innocent Grey yuri visual novel galgame 鈴湯 Suzuyu
BeatmapID:544287
BeatmapSetID:196525

[Difficulty]
HPDrainRate:5
CircleSize:4
OverallDifficulty:5
ApproachRate:7
SliderMultiplier:1.35
SliderTickRate:1

[Events]
//Background and Video events
0,0,"wp_mofu01_1920.jpg",0,0
Video,-170,"bgvideo.avi"
//Break Periods
//Storyboard Layer 0 (Background)
//Storyboard Layer 1 (Fail)
//Storyboard Layer 2 (Pass)
//Storyboard Layer 3 (Foreground)
//Storyboard Sound Samples

[TimingPoints]
322,344.827586206897,4,2,2,30,1,0
322,-133.333333333333,4,2,2,30,0,0
5839,-133.333333333333,4,2,0,30,0,0
5925,-133.333333333333,4,2,2,30,0,0
8597,-133.333333333333,4,2,0,30,0,0
8684,-133.333333333333,4,2,2,30,0,0
33425,-100,4,2,2,30,0,0
44804,-100,4,2,3,80,0,0
46528,-100,4,2,1,40,0,0
47218,-100,4,2,1,60,0,1
48425,-100,4,2,1,50,0,1
48511,-100,4,2,1,60,0,1
57477,-100,4,2,1,40,0,1
57735,-100,4,2,1,60,0,1
68770,-100,4,2,1,45,0,1
69287,-90.9090909090909,4,2,1,60,0,1
74804,-100,4,2,1,60,0,1
75753,-100,4,2,1,40,0,1
75925,-100,4,2,1,60,0,1
76873,-100,4,2,1,50,0,1
77304,-100,4,2,1,60,0,1
77563,-100,4,2,1,60,0,0
83080,-133.333333333333,4,2,0,30,0,0
83166,-133.333333333333,4,2,2,30,0,0
88597,-133.333333333333,4,2,0,30,0,0
88770,-133.333333333333,4,2,2,30,0,0
91270,-133.333333333333,4,2,0,30,0,0
91442,-133.333333333333,4,2,2,30,0,0
98597,-133.333333333333,4,2,2,20,0,0

[Colours]
Combo1 : 58,99,218
Combo2 : 134,240,180
Combo3 : 125,170,151
Combo4 : 155,225,240

[HitObjects]
112,330,322,6,0,B|161:313|211:330|211:330|261:346|311:330,1,202.500007724762,4|0,0:0|0:0,0:0:0:0:
377,294,1184,2,0,L|441:294,2,50.6250019311906,0|0|4,0:0|0:0|0:0,0:0:0:0:
256,192,1701,12,4,3080,0:0:0:0:
84,90,3942,6,0,L|135:90,1,50.6250019311906,0|0,0:0|0:0,0:0:0:0:
200,53,4287,2,0,B|237:41|275:53|275:53|312:66|350:53,1,151.875005793572,4|0,0:0|0:0,0:0:0:0:
111,96,5839,6,0,P|181:132|151:244,3,202.500007724762,4|0|2|4,0:2|0:0|0:0|0:0,0:0:0:0:
401,288,8597,6,0,P|331:252|361:140,2,202.500007724762,4|0|4,0:0|0:0|0:0,0:0:0:0:
146,345,11356,5,4,0:0:0:0:
146,345,11701,2,0,L|87:337,2,50.6250019311906,2|0|2,0:0|0:0|0:0,0:0:0:0:
388,345,12563,2,0,L|334:345,1,50.6250019311906,0|2,0:0|0:0,0:0:0:0:
459,331,12908,2,0,B|475:287|442:278|460:224,1,101.250003862381
368,91,13597,2,0,L|368:155,1,50.6250019311906,0|0,0:0|0:0,0:0:0:0:
368,240,13942,1,0,0:0:0:0:
304,192,14115,6,0,B|272:176|256:135|256:135|240:176|208:192,1,151.875005793572,4|0,0:0|0:0,0:0:0:0:
144,240,14804,2,0,L|80:240,1,50.6250019311906,0|0,0:0|0:0,0:0:0:0:
32,192,15149,1,2,0:0:0:0:
32,112,15322,1,0,0:0:0:0:
256,32,15839,5,2,0:0:0:0:
128,112,16184,1,0,0:0:0:0:
256,192,16528,1,2,0:0:0:0:
384,112,16873,6,0,B|426:77|480:96|480:96|504:151|469:193,1,202.500007724762,4|0,0:0|0:0,0:0:0:0:
368,320,17908,2,0,L|304:320,1,50.6250019311906,2|0,0:0|0:0,0:0:0:0:
256,272,18253,2,0,B|240:240|272:208|256:168,1,101.250003862381,2|2,0:0|0:0,0:0:0:0:
256,96,18770,1,0,0:0:0:0:
256,20,18942,1,4,0:0:0:0:
96,48,19287,5,2,0:0:0:0:
96,123,19459,1,0,0:0:0:0:
96,199,19632,2,0,B|96:248|96:248|119:273|126:301,1,101.250003862381,2|2,0:0|0:0,0:0:0:0:
272,352,20322,6,0,L|336:352,1,50.6250019311906,0|0,0:0|0:0,0:0:0:0:
336,277,20666,2,0,L|272:277,1,50.6250019311906,2|0,0:0|0:0,0:0:0:0:
226,107,21356,2,0,L|176:107,1,50.6250019311906,0|0,0:0|0:0,0:0:0:0:
99,107,21701,5,0,0:0:0:0:
189,32,21873,1,4,0:0:0:0:
486,78,22390,5,4,0:0:0:0:
486,78,22735,2,0,L|468:21,2,50.6250019311906,2|0|0,0:0|0:0|0:0,0:0:0:0:
495,308,23597,2,0,L|495:248,1,50.6250019311906,0|2,0:0|0:0,0:0:0:0:
445,361,23942,2,0,B|395:373|390:346|333:363,1,101.250003862381
256,240,24632,2,0,L|256:176,1,50.6250019311906,0|0,0:0|0:0,0:0:0:0:
256,112,24977,1,0,0:0:0:0:
256,112,25149,6,0,B|194:113|194:113|147:139|147:183,1,151.875005793572,4|0,0:0|0:0,0:0:0:0:
72,197,25839,2,0,L|71:258,1,50.6250019311906,2|0,0:0|0:0,0:0:0:0:
72,323,26184,1,2,0:0:0:0:
176,256,26356,1,0,0:0:0:0:
415,323,26873,5,2,0:0:0:0:
460,177,27218,1,0,0:0:0:0:
416,114,27390,2,0,L|388:72,1,50.6250019311906,4|0,0:0|0:0,0:0:0:0:
256,147,27908,6,0,B|222:243|297:248|255:347,1,202.500007724762,2|2,0:0|0:0,0:0:0:0:
48,354,28942,2,0,L|112:354,1,50.6250019311906,2|0,0:0|0:0,0:0:0:0:
156,304,29287,2,0,P|171:264|140:215,1,101.250003862381,2|0,0:0|0:0,0:0:0:0:
43,62,30666,6,0,B|97:93|140:58|140:58,1,101.250003862381,4|2,0:0|0:0,0:0:0:0:
256,160,31356,2,0,L|256:224,1,50.6250019311906,0|0,0:0|0:0,0:0:0:0:
182,232,31701,2,0,L|182:168,1,50.6250019311906,2|0,0:0|0:0,0:0:0:0:
106,170,32046,6,0,P|77:212|97:263,1,101.250003862381,0|2,0:0|0:0,0:0:0:0:
192,320,32563,2,0,L|304:320,1,101.250003862381,0|0,0:0|0:0,0:0:0:0:
353,273,33080,1,0,0:0:0:0:
299,218,33253,1,2,0:0:0:0:
408,328,33425,6,0,P|431:276|396:207,1,135,4|2,0:0|0:0,0:0:0:0:
256,128,34115,2,0,B|192:128|192:128|156:134|136:171,1,135,0|0,3:0|0:0,0:0:0:0:
96,96,34632,2,0,L|96:240,1,135,4|0,0:0|0:0,0:0:0:0:
148,292,35149,2,0,P|177:305|217:297,1,67.5,0|0,0:0|0:0,0:0:0:0:
69,309,35494,6,0,B|35:322|16:352|16:352|0:272,1,135,0|0,3:0|0:0,0:0:0:0:
23,126,36184,1,4,0:0:0:0:
23,126,36528,2,0,L|90:142,1,67.5,2|0,0:0|0:0,0:0:0:0:
158,99,36873,2,0,P|190:69|196:45,1,67.5,0|0,3:0|0:0,0:0:0:0:
256,157,37218,6,0,L|256:112,3,45,2|0|0|2,0:0|0:0|0:0|0:0,0:0:0:0:
316,47,37735,6,0,B|327:78|352:95|352:95|334:171,1,135,0|0,0:0|0:0,0:0:0:0:
302,241,38253,1,0,3:0:0:0:
302,241,38425,1,0,0:0:0:0:
382,232,38597,1,0,0:0:0:0:
382,232,38770,1,0,0:0:0:0:
461,219,38942,6,0,B|447:284|447:284|409:299|395:338,1,135,4|2,0:0|0:0,0:0:0:0:
113,329,39632,2,0,B|103:299|65:284|65:284|51:219,1,135,0|0,3:0|0:0,0:0:0:0:
32,139,40149,5,4,0:0:0:0:
256,46,40666,1,0,0:0:0:0:
256,208,41011,1,0,3:0:0:0:
256,128,41184,1,2,0:0:0:0:
256,128,41701,6,0,P|193:159|177:220,1,135,4|2,0:0|0:0,0:0:0:0:
304,320,42390,1,0,3:0:0:0:
384,320,42563,2,0,L|464:320,1,67.5,0|2,0:0|0:0,0:0:0:0:
496,160,43080,5,0,0:0:0:0:
304,320,43425,1,2,0:0:0:0:
345,250,43597,1,2,0:0:0:0:
265,250,43770,2,0,L|191:250,1,67.5,0|0,3:0|0:0,0:0:0:0:
149,315,44115,2,0,P|87:306|53:240,1,135,0|4,0:0|0:0,0:0:0:0:
23,87,44804,5,0,1:0:0:0:
256,160,45322,1,0,2:0:0:0:
489,87,45839,1,0,3:0:0:0:
256,160,46528,5,4,2:3:0:0:
256,160,46615,1,0,1:0:0:0:
256,160,46701,2,0,P|278:109|225:54,1,135,0|0,1:0|0:0,0:0:0:0:
158,92,47218,6,0,L|22:117,1,135,6|8,0:1|0:0,0:0:0:0:
8,278,47908,2,0,P|48:291|85:273,1,67.5,0|2,0:0|0:0,0:0:0:0:
141,242,48253,2,0,L|124:173,1,67.5,8|4,0:0|0:0,0:0:0:0:
204,164,48597,5,0,0:0:0:0:
269,212,48770,1,2,0:0:0:0:
334,258,48942,2,0,B|392:296|392:296|432:289|460:258,1,135,8|0,0:0|0:0,0:0:0:0:
400,192,49459,1,6,0:0:0:0:
450,116,49632,2,0,B|432:95|392:87|392:87|334:126,2,135,8|2|8,0:0|0:0|0:0,0:0:0:0:
400,192,50494,5,0,0:0:0:0:
334,258,50666,2,0,L|326:335,1,67.5,0|2,0:0|0:0,0:0:0:0:
184,325,51011,2,0,L|178:258,1,67.5,8|4,0:0|0:0,0:0:0:0:
121,199,51356,6,0,P|162:179|253:228,1,135,0|8,0:0|0:0,0:0:0:0:
301,153,51873,2,0,P|263:127|260:24,1,135,4|6,0:0|0:0,0:0:0:0:
169,30,52390,2,0,L|99:52,1,67.5,8|0,0:0|0:0,0:0:0:0:
35,93,52735,6,0,P|59:126|67:154,1,67.5,6|0,0:1|0:0,0:0:0:0:
66,232,53080,2,0,P|55:264|35:291,1,67.5,12|0,0:0|0:0,0:0:0:0:
96,343,53425,1,4,0:0:0:0:
164,299,53597,1,2,0:0:0:0:
241,323,53770,1,12,0:0:0:0:
316,352,53942,6,0,B|355:326|361:273|361:273|321:241,1,135,0|2,0:0|0:0,0:0:0:0:
208,192,54459,1,12,0:0:0:0:
208,192,54804,2,0,L|198:119,1,67.5,0|2,0:0|0:0,0:0:0:0:
313,125,55149,2,0,L|304:192,1,67.5,12|0,0:0|0:0,0:0:0:0:
256,258,55494,6,0,B|206:289|158:257|158:257|126:264,1,135,6|8,0:1|0:0,0:0:0:0:
78,327,56011,2,0,P|102:284|70:211,1,135,6|0,0:1|0:0,0:0:0:0:
20,146,56528,1,8,0:0:0:0:
82,93,56701,1,4,0:0:0:0:
20,146,56873,6,0,P|65:173|152:133,1,135,0|12,0:0|0:0,0:0:0:0:
192,87,57390,1,2,0:0:0:0:
192,87,57477,1,8,0:0:0:0:
192,87,57563,2,0,P|182:128|194:158,1,67.5,8|2,0:0|0:0,0:0:0:0:
322,151,57908,2,0,P|330:118|320:87,1,67.5,8|0,0:0|0:0,0:0:0:0:
256,192,58253,6,0,B|256:256|256:256|286:266|312:309,1,135,6|8,0:1|0:0,0:0:0:0:
373,350,58770,1,0,0:0:0:0:
433,295,58942,2,0,L|468:216,1,67.5,0|2,0:0|0:0,0:0:0:0:
460,150,59287,2,0,L|433:89,1,67.5,8|4,0:0|0:0,0:0:0:0:
370,35,59632,5,0,0:0:0:0:
315,94,59804,1,2,0:0:0:0:
369,156,59977,2,0,B|378:218|378:218|356:249|302:254,1,135,8|0,0:0|0:0,0:0:0:0:
256,176,60494,1,6,0:0:0:0:
195,252,60666,2,0,B|156:249|134:218|134:218|143:156,2,135,8|2|8,0:0|0:0|0:0,0:0:0:0:
256,176,61528,5,0,0:0:0:0:
369,156,61701,2,0,P|358:121|334:93,1,67.5,0|2,0:0|0:0,0:0:0:0:
172,97,62046,2,0,P|152:123|143:156,1,67.5,12|0,0:0|0:0,0:0:0:0:
102,225,62390,5,4,0:0:0:0:
289,346,62735,1,12,0:0:0:0:
410,159,63080,1,4,0:0:0:0:
223,38,63425,1,12,0:0:0:0:
102,225,63770,6,0,P|156:260|161:338,1,135,6|8,0:1|0:0,0:0:0:0:
326,343,64459,2,0,L|397:331,1,67.5,0|2,0:0|0:0,0:0:0:0:
464,294,64804,2,0,P|434:263|421:221,1,67.5,12|0,0:0|0:0,0:0:0:0:
359,192,65149,5,6,0:0:0:0:
426,146,65322,1,0,0:0:0:0:
353,109,65494,2,0,B|307:77|307:77|267:65|225:87,1,135,8|4,0:0|0:0,0:0:0:0:
178,146,66011,1,2,0:0:0:0:
103,114,66184,2,0,P|67:118|35:140,1,67.5,8|4,0:0|0:0,0:0:0:0:
40,249,66528,6,0,B|70:272|123:266|123:266|163:235,1,135,6|8,0:1|0:0,0:0:0:0:
178,146,67046,2,0,P|188:195|258:234,1,135,4|2,0:1|0:0,0:0:0:0:
339,235,67563,2,0,L|329:302,1,67.5,8|0,0:0|0:0,0:0:0:0:
394,349,67908,6,0,P|455:326|471:260,1,135,0|8,0:0|0:0,0:0:0:0:
432,192,68425,1,4,0:0:0:0:
471,120,68597,1,0,1:0:0:0:
398,84,68770,2,0,L|389:49,2,33.75,0|0|0,1:0|1:0|1:0,0:0:0:0:
358,155,69115,1,0,1:0:0:0:
278,172,69287,6,0,B|220:160|174:203|174:203|136:190,1,148.50000453186,6|12,0:1|0:0,0:0:0:0:
74,131,69804,1,0,0:0:0:0:
74,131,69977,2,0,L|1:113,1,74.2500022659302,12|0,0:0|0:0,0:0:0:0:
74,253,70322,2,0,L|1:271,1,74.2500022659302,12|0,0:0|0:0,0:0:0:0:
142,297,70666,6,0,B|150:357|206:370|206:370|245:334,1,148.50000453186,12|12,0:0|0:0,0:0:0:0:
256,256,71184,1,0,0:0:0:0:
256,256,71356,2,0,P|305:243|335:246,1,74.2500022659302,12|0,0:0|0:0,0:0:0:0:
256,128,71701,2,0,P|305:141|335:138,1,74.2500022659302,12|0,0:0|0:0,0:0:0:0:
416,192,72046,6,0,P|431:151|392:58,1,148.50000453186,6|12,0:1|0:0,0:0:0:0:
309,26,72563,1,0,0:0:0:0:
309,26,72735,2,0,L|226:42,1,74.2500022659302,12|0,0:0|0:0,0:0:0:0:
151,113,73080,2,0,P|169:149|163:193,1,74.2500022659302,12|0,0:0|0:0,0:0:0:0:
256,224,73425,6,0,B|233:283|233:283|186:293|165:339,1,148.50000453186,12|8,0:0|0:0,0:0:0:0:
83,302,73942,1,2,0:0:0:0:
83,302,74028,1,8,0:0:0:0:
83,302,74115,2,0,L|46:229,1,74.2500022659302,8|0,0:0|0:0,0:0:0:0:
49,148,74459,2,0,L|83:82,1,74.2500022659302,8|0,0:0|0:0,0:0:0:0:
154,43,74804,6,0,P|196:67|178:155,1,135,6|8,0:1|0:0,0:0:0:0:
256,193,75322,2,0,B|236:257|276:263|256:327,1,135,6|6,0:0|0:0,0:0:0:0:
251,334,75753,1,8,0:0:0:0:
246,343,75839,1,8,0:0:0:0:
171,373,76011,6,0,P|112:357|95:290,1,135,4|0,0:0|3:0,0:0:0:0:
160,192,76528,1,8,0:0:0:0:
160,192,76873,6,0,B|218:192|218:192|257:178|294:190,1,135,0|0,3:0|3:0,0:0:0:0:
347,250,77390,1,0,0:0:0:0:
401,310,77563,6,0,B|441:314|468:298|468:298|486:260|475:224,1,135,6|8,0:1|0:0,0:0:0:0:
477,149,78080,2,0,B|486:124|468:86|468:86|441:70|401:74,1,135,6|0,0:1|0:0,0:0:0:0:
324,131,78597,1,12,0:0:0:0:
256,64,78770,6,0,P|226:103|136:99,1,135,6|0,0:1|0:0,0:0:0:0:
95,41,79287,2,0,P|117:113|72:161,1,135,12|0,0:0|3:0,0:0:0:0:
23,210,79804,1,0,3:0:0:0:
99,236,79977,2,0,P|136:250|157:280,1,67.5,0|0,3:0|0:0,0:0:0:0:
86,317,80322,1,6,0:1:0:0:
315,344,80666,5,8,0:0:0:0:
393,324,80839,2,0,P|407:286|354:218,1,135,6|0,0:1|0:0,0:0:0:0:
256,288,81356,1,8,0:0:0:0:
196,233,81528,1,4,0:0:0:0:
196,233,81873,5,0,3:0:0:0:
256,178,82046,1,0,3:0:0:0:
400,54,83080,6,0,B|351:71|301:54|301:54|251:38|201:54,1,202.500007724762,4|0,0:0|0:0,0:0:0:0:
135,90,83942,2,0,L|71:90,2,50.6250019311906,0|0|4,0:0|0:0|0:0,0:0:0:0:
256,192,84459,12,4,85839,0:0:0:0:
428,294,86701,6,0,L|377:294,1,50.6250019311906,0|0,0:0|0:0,0:0:0:0:
312,331,87046,2,0,B|275:343|237:331|237:331|200:318|162:331,1,151.875005793572,4|0,0:0|0:0,0:0:0:0:
401,288,88597,6,0,P|331:252|361:140,3,202.500007724762,4|0|4|2,0:0|0:0|0:0|0:0,0:0:0:0:
111,96,91356,6,0,P|181:132|151:244,2,202.500007724762,4|2|2,0:0|0:0|0:0,0:0:0:0:
36,191,93080,1,0,0:0:0:0:
39,311,93425,1,2,0:0:0:0:
151,358,93770,1,0,0:0:0:0:
244,279,94115,1,4,0:0:0:0:
256,192,94287,12,4,98597,0:0:0:0:
