osu file format v10

[General]
AudioFilename: EXEC_HYMN_BATTLESPHERE.mp3
AudioLeadIn: 1500
PreviewTime: 27744
Countdown: 0
SampleSet: Normal
StackLeniency: 0.4
Mode: 0
LetterboxInBreaks: 0

[Editor]
DistanceSpacing: 0.8
BeatDivisor: 4
GridSize: 8

[Metadata]
Title:EXEC_HYMM_BATTLESPHERE/.#Finnel extracting
TitleUnicode:EXEC_HYMM_BATTLESPHERE/.#Finnel extracting
Artist:Shimotsuki Haruka
ArtistUnicode:Shimotsuki Haruka
Creator:Mystica
Version:Insane
Source:Ar tonelico III
Tags:pieces qoga knell of ar ciel tyria impossiblexu beren aabc271 ts8zs
BeatmapID:182093
BeatmapSetID:21809

[Difficulty]
HPDrainRate:8
CircleSize:4
OverallDifficulty:8
ApproachRate:9
SliderMultiplier:2.2
SliderTickRate:1

[Events]
//Background and Video events
0,0,"BG.jpg"
//Break Periods
//Storyboard Layer 0 (Background)
//Storyboard Layer 1 (Fail)
//Storyboard Layer 2 (Pass)
//Storyboard Layer 3 (Foreground)
//Storyboard Sound Samples
//Background Colour Transformations
3,100,163,162,255

[TimingPoints]
544,400,4,2,1,70,1,0
14944,-100,4,2,2,50,0,0
15544,-100,4,2,1,70,0,0
15744,-100,4,2,2,50,0,0
16344,-100,4,2,1,70,0,0
16544,-100,4,2,2,50,0,0
16844,-100,4,2,1,70,0,0
16944,-100,4,2,2,50,0,0
17244,-100,4,2,1,70,0,0
17344,-100,4,2,2,50,0,0
17744,-100,4,2,1,70,0,0
18144,-100,4,2,2,50,0,0
18744,-100,4,2,1,70,0,0
18944,-100,4,2,2,50,0,0
19244,-100,4,2,1,70,0,0
19344,-100,4,2,2,50,0,0
20744,-100,4,2,1,70,0,0
21344,-100,4,2,2,50,0,0
22544,-100,4,2,1,70,0,0
22944,-100,4,2,2,50,0,0
23244,-100,4,2,1,70,0,0
23344,-100,4,2,2,50,0,0
23644,-100,4,2,1,70,0,0
23744,-100,4,2,2,50,0,0
24144,-100,4,2,1,70,0,0
24544,-100,4,2,2,50,0,0
25144,-100,4,2,1,70,0,0
25344,-100,4,2,2,50,0,0
25944,-100,4,2,1,70,0,0
26144,-100,4,2,2,50,0,0
26544,-100,4,2,1,70,0,0
26744,-100,4,2,2,50,0,0
27744,-100,4,2,1,85,0,0
40544,-100,4,2,2,65,0,0
65544,-100,4,2,0,45,0,0
66144,-100,4,2,2,70,0,0
67344,-100,4,2,0,45,0,0
67744,-100,4,2,2,70,0,0
68944,-100,4,2,0,45,0,0
69344,-100,4,2,2,70,0,0
71744,-100,4,2,0,45,0,0
72544,-100,4,2,2,70,0,0
73744,-100,4,2,0,45,0,0
74144,-100,4,2,2,70,0,0
74944,-100,4,2,0,45,0,0
75744,-100,4,2,2,70,0,0
78944,375,4,1,2,40,1,0
102944,-66.6666666666667,4,1,2,40,0,0
103319,-100,4,2,2,5,0,0
103881,-100,4,1,2,40,0,0
117944,428.571428571429,4,2,0,70,1,0
118372,-100,4,2,2,60,0,0
118801,-100,4,2,0,40,0,0
119015,-100,4,1,1,60,0,0
119658,-100,4,2,0,60,0,0
120086,-100,4,2,2,60,0,0
120515,-100,4,2,0,60,0,0
120729,-100,4,2,2,60,0,0
121158,-100,4,1,1,60,0,0
121372,-100,4,2,0,60,0,0
121694,-100,4,1,1,60,0,0
122229,-100,4,2,0,60,0,0
122444,-100,4,2,2,60,0,0
123086,-100,4,2,0,60,0,0
123408,-100,4,1,1,60,0,0
123944,-100,4,2,0,60,0,0
124158,-100,4,2,2,60,0,0
124801,-100,4,2,0,60,0,0
125122,-100,4,1,1,60,0,0
125658,-100,4,2,2,60,0,0
126515,-100,4,2,0,60,0,0
126836,-100,4,1,1,60,0,0
127372,-100,4,2,0,60,0,0
127586,-100,4,2,2,60,0,0
128015,-100,4,2,2,60,0,0
128229,-100,4,2,0,60,0,0
128551,-100,4,1,1,60,0,0
129086,-100,4,2,0,60,0,0
129515,-100,4,2,2,60,0,0
129944,-100,4,2,0,60,0,0
130265,-100,4,1,1,60,0,0
130801,-100,4,2,2,60,0,0
131658,-100,4,2,0,60,0,0
131872,-100,4,1,1,60,0,0
132515,-100,4,2,0,60,0,0
132836,-100,4,1,1,60,0,0
133372,-100,4,2,0,30,0,0
133586,-100,4,1,1,60,0,0
134229,-100,4,2,0,60,0,0
134551,-100,4,1,1,60,0,0
135086,-100,4,2,0,60,0,0
135194,-100,4,1,1,60,0,0
135729,-100,4,2,0,60,0,0
135836,-100,4,1,1,60,0,0
136801,-100,4,2,0,30,0,0
137122,-100,4,1,1,60,0,0
137658,-100,4,2,0,60,0,0
137872,-100,4,1,1,60,0,0
138515,-100,4,2,0,60,0,0
138944,-100,4,1,1,60,0,0
139158,-100,4,2,0,60,0,0
139372,-100,4,1,1,60,0,0
140229,-100,4,2,0,30,0,0
140551,-100,4,1,1,60,0,0
141086,-100,4,2,0,60,0,0
141301,-100,4,1,1,60,0,0
141944,-100,4,2,0,60,0,0
142051,-100,4,1,1,60,0,0
142586,-100,4,2,0,60,0,0
142694,-100,4,1,1,60,0,0
143658,-100,4,2,0,30,0,0
143979,-100,4,1,1,60,0,0
144515,-100,4,2,0,60,0,0
144729,-100,4,1,1,60,0,0
145372,-100,4,2,0,60,0,0
145801,-100,4,1,1,60,0,0
146122,-100,4,2,0,60,0,0
146444,-100,4,1,1,60,0,0
147086,-100,4,2,0,30,0,0
147301,-100,4,1,1,60,0,0
147944,-100,4,2,0,30,0,0
148051,-100,4,1,1,60,0,0
148801,-100,4,2,0,30,0,0
149122,-100,4,1,1,60,0,0
149658,-100,4,2,0,60,0,0
150086,-100,4,1,1,60,0,0
150515,-100,4,2,0,30,0,0
150729,-100,4,1,1,60,0,0
150944,-100,4,2,0,60,0,0
151158,-100,4,1,1,60,0,0
151586,-100,4,2,0,60,0,0
151694,-100,4,1,1,60,0,0
151801,-100,4,2,0,60,0,0
152015,-100,4,1,1,60,0,0
152229,-100,4,2,0,30,0,0
152551,-100,4,1,1,60,0,0
153086,-100,4,2,0,30,0,0
153944,-100,4,2,0,60,0,0
154372,-100,4,1,1,60,0,0
154586,-100,4,2,0,60,0,0
155229,-100,4,1,1,60,0,0
155444,-100,4,2,0,60,0,0
155872,-100,4,1,1,60,0,0
156086,-100,4,2,0,60,0,0
156301,-100,4,1,1,60,0,0
156515,-100,4,2,0,60,0,0
156944,-100,4,1,1,60,0,0
157158,-100,4,2,0,60,0,0
157801,-100,4,1,1,60,0,0
158015,-100,4,2,0,60,0,0
158444,-100,4,1,1,60,0,0
158872,-100,4,2,0,60,0,0
159301,-100,4,1,1,60,0,0
159515,-100,4,2,0,60,0,0
159729,-100,4,1,1,60,0,0
159944,-100,4,2,0,60,0,0
160372,-100,4,2,0,90,0,0
160801,-100,4,2,0,85,0,0
161229,-100,4,2,0,80,0,0
161658,-100,4,2,0,75,0,0
162086,-100,4,2,0,70,0,0
162515,-100,4,2,0,65,0,0
162944,-100,4,2,0,60,0,0
163372,-100,4,2,0,55,0,0
163801,-100,4,2,0,50,0,0
164229,-100,4,2,0,45,0,0
164658,-100,4,2,0,40,0,0
165086,-100,4,2,0,35,0,0
165515,-100,4,2,0,30,0,0
165944,-100,4,2,0,25,0,0
166372,-100,4,2,0,20,0,0
166801,-100,4,2,0,15,0,0
167229,-100,4,2,0,10,0,0
167658,-100,4,1,1,5,0,0

[Colours]
Combo1 : 128,128,64
Combo2 : 217,217,217
Combo3 : 110,110,110

[HitObjects]
256,192,544,12,0,1744,0:0:0
408,88,2144,6,0,B|352:104|320:152|280:128,1,110,8|2,0:0|0:0,0:0:0
96,88,2544,2,0,B|152:104|184:152|224:128,1,110,0|2,0:0|0:0,0:0:0
256,328,2944,1,8,0:0:0
256,216,3144,1,0,0:0:0
256,200,3244,1,0,0:0:0
256,184,3344,1,2,0:0:0
256,72,3544,1,2,0:0:0
168,136,3744,6,0,B|120:184|64:200,1,110,10|0,0:0|0:0,0:0:0
64,200,4044,1,0,0:0:0
48,200,4144,1,0,0:0:0
256,136,4344,1,2,0:0:0
344,136,4544,2,0,B|376:192|432:216,1,110,10|0,0:0|0:0,0:0:0
440,216,4844,1,0,0:0:0
456,216,4944,1,2,0:0:0
256,136,5144,1,2,0:0:0
264,256,5344,6,0,B|248:312|264:376,1,110,8|0,0:0|0:0,0:0:0
360,312,5744,2,0,B|416:320|488:304,1,110,2|0,0:0|0:0,0:0:0
256,136,6144,2,0,B|280:80|256:16,1,110,8|0,0:0|0:0,0:0:0
260,28,6444,1,0,0:0:0
260,28,6544,1,2,0:0:0
168,88,6744,2,0,B|104:104|48:88,1,110,2|8,0:0|0:0,0:0:0
70,201,7144,5,10,0:0:0
123,297,7344,1,2,0:0:0
224,344,7544,1,0,0:0:0
288,40,7744,1,8,0:0:0
392,72,7944,1,10,0:0:0
432,112,8044,1,0,0:0:0
464,160,8144,2,0,B|491:216|495:272|472:324|420:354,1,220,2|10,0:0|0:0,0:0:0
320,320,8744,5,2,0:0:0
216,296,8944,1,2,0:0:0
112,328,9144,1,0,0:0:0
16,144,9344,2,0,B|24:240|32:288,1,110,10|0,0:0|0:0,0:0:0
27,253,9644,1,0,0:0:0
27,253,9744,1,2,0:0:0
128,216,9944,1,0,0:0:0
304,128,10144,6,0,B|224:128|176:152,1,110,10|0,0:0|0:0,0:0:0
195,143,10444,1,0,0:0:0
195,143,10544,1,2,0:0:0
232,248,10744,1,0,0:0:0
344,232,10944,2,0,B|450:184|483:61,1,220,10|0,0:0|0:0,0:0:0
376,48,11544,2,0,B|312:40|248:40,1,110,2|8,0:0|0:0,0:0:0
128,128,11944,5,10,0:0:0
128,128,12044,1,0,0:0:0
128,128,12144,1,2,0:0:0
120,240,12344,1,2,0:0:0
384,304,12544,1,10,0:0:0
394,194,12744,1,10,0:0:0
394,194,12844,1,0,0:0:0
394,194,12944,1,2,0:0:0
360,88,13144,2,0,B|304:64|240:72,1,110,2|8,0:0|0:0,0:0:0
240,184,13544,6,0,B|224:264,1,55,10|0,0:0|0:0,0:0:0
176,248,13744,2,0,B|112:272|48:264,1,110,2|0,0:0|0:0,0:0:0
136,64,14144,1,8,0:0:0
240,40,14344,1,2,0:0:0
240,40,14444,1,0,0:0:0
240,40,14544,2,0,B|320:40|384:48,1,110,2|0,0:0|0:0,0:0:0
424,120,14944,6,0,B|424:216|408:256,1,110,2|0,0:0|0:0,0:0:0
415,229,15244,1,0,0:0:0
415,229,15344,1,0,0:0:0
160,280,15544,2,0,B|214:292|269:280,1,110,2|2,0:0|0:0,0:0:0
216,184,15944,1,0,0:0:0
216,184,16044,1,0,0:0:0
216,184,16144,2,0,B|158:172|108:182,1,110,0|2,0:0|0:0,0:0:0
288,72,16544,6,0,B|368:120|368:216,1,165,2|2,0:0|0:0,0:0:0
320,232,16944,2,0,B|272:280|208:288|136:280,1,165,2|2,0:0|0:0,0:0:0
144,232,17344,2,0,B|104:184|88:128|80:80|88:16,1,220,2|0,0:0|0:0,0:0:0
144,32,17844,2,0,B|208:64,1,55
32,328,18144,6,0,B|48:264|72:208,1,110,2|0,0:0|0:0,0:0:0
104,184,18444,1,0,0:0:0
112,128,18544,1,0,0:0:0
200,200,18744,2,0,B|216:264,1,55,2|0,0:0|0:0,0:0:0
272,248,18944,2,0,B|328:232|384:224|448:232,1,165,2|2,0:0|0:0,0:0:0
472,192,19344,2,0,B|480:136|464:72|432:24,1,165,2|0,0:0|0:0,0:0:0
384,40,19744,6,0,B|272:64|144:40,1,220,2|2,0:0|0:0,0:0:0
64,88,20344,1,0,0:0:0
64,88,20444,1,0,0:0:0
64,88,20544,2,0,B|48:160|72:216,1,110,2|0,0:0|0:0,0:0:0
136,280,20944,2,0,B|224:288|264:272,1,110,2|0,0:0|0:0,0:0:0
416,40,21344,6,0,B|400:104|424:176,1,110,2|0,0:0|0:0,0:0:0
432,200,21644,1,0,0:0:0
416,256,21744,1,0,0:0:0
328,320,21944,1,0,0:0:0
320,208,22144,2,0,B|264:192|176:216,1,110,2|0,0:0|0:0,0:0:0
176,168,22444,1,0,0:0:0
136,128,22544,2,0,B|72:144|16:120,1,110,2|0,0:0|0:0,0:0:0
200,48,22944,6,0,B|272:32|384:48,1,165,2|0,0:0|0:0,0:0:0
400,88,23344,2,0,B|416:184|400:272,1,165,2|0,0:0|0:0,0:0:0
352,272,23744,2,0,B|240:304|112:264,1,220,2|0,0:0|0:0,0:0:0
64,184,24344,1,0,0:0:0
136,104,24544,6,0,B|216:80|264:120,1,110,2|0,0:0|0:0,0:0:0
288,136,24844,1,0,0:0:0
336,104,24944,1,0,0:0:0
440,128,25144,2,0,B|456:192|440:248,1,110,2|2,0:0|0:0,0:0:0
344,288,25544,2,0,B|304:328,1,55
272,280,25744,2,0,B|256:208|280:152,1,110,0|2,0:0|0:0,0:0:0
192,104,26144,6,0,B|120:96|64:112,1,110,2|0,0:0|0:0,0:0:0
104,160,26444,1,0,0:0:0
80,208,26544,2,0,B|48:272|40:336,1,110,2|0,0:0|0:0,0:0:0
152,280,26944,2,0,B|272:248|400:296,1,220,2|0,0:0|0:0,0:0:0
432,72,27744,6,0,B|344:144,1,110,2|0,0:0|0:0,0:0:0
296,136,28044,1,0,0:0:0
248,160,28144,2,0,B|176:144|128:176,1,110
88,264,28544,1,2,0:0:0
40,168,28744,1,0,0:0:0
40,168,28844,1,0,0:0:0
40,168,28944,2,0,B|64:96|64:40,1,110
176,56,29344,6,0,B|240:48,1,55,2|0,0:0|0:0,0:0:0
256,96,29544,2,0,B|336:80,1,55,0|0,0:0|0:0,0:0:0
360,112,29744,2,0,B|384:184|384:232,1,110,2|0,0:0|0:0,0:0:0
288,272,30144,1,2,0:0:0
320,312,30244,1,0,0:0:0
352,352,30344,1,2,0:0:0
392,328,30444,1,0,0:0:0
440,344,30544,1,2,0:0:0
488,248,30744,1,0,0:0:0
464,64,30944,6,0,B|400:80|360:128,1,110,2|0,0:0|0:0,0:0:0
344,168,31244,2,0,B|296:136,1,55,0|2,0:0|0:0,0:0:0
256,240,31544,1,0,0:0:0
176,312,31744,1,2,0:0:0
120,320,31844,1,0,0:0:0
64,304,31944,1,2,0:0:0
32,256,32044,1,0,0:0:0
32,200,32144,1,2,0:0:0
144,184,32344,1,0,0:0:0
112,80,32544,6,0,B|184:56,1,55,2|0,0:0|0:0,0:0:0
208,96,32744,1,0,0:0:0
256,72,32844,1,0,0:0:0
304,96,32944,2,0,B|352:128,1,55,2|0,0:0|0:0,0:0:0
400,104,33144,2,0,B|464:80,1,55
464,136,33344,2,0,B|440:248,1,110,2|0,0:0|0:0,0:0:0
320,312,33744,2,0,B|352:192,1,110,2|0,0:0|0:0,0:0:0
48,104,34144,5,2,0:0:0
56,160,34244,1,0,0:0:0
88,208,34344,1,2,0:0:0
80,264,34444,1,0,0:0:0
112,312,34544,2,0,B|160:288|232:288,1,110,2|0,0:0|0:0,0:0:0
240,48,34944,5,2,0:0:0
240,104,35044,1,0,0:0:0
280,144,35144,1,2,0:0:0
272,200,35244,1,0,0:0:0
312,232,35344,2,0,B|392:192|448:192,1,110,2|0,0:0|0:0,0:0:0
336,272,35744,5,2,0:0:0
280,288,35844,1,0,0:0:0
224,280,35944,1,2,0:0:0
184,240,36044,1,0,0:0:0
152,192,36144,2,0,B|88:160|40:168,1,110,2|0,0:0|0:0,0:0:0
152,144,36544,5,2,0:0:0
200,112,36644,1,0,0:0:0
256,104,36744,1,2,0:0:0
312,104,36844,1,0,0:0:0
360,88,36944,2,0,B|432:72|480:40,1,110,2|0,0:0|0:0,0:0:0
472,160,37344,5,2,0:0:0
448,208,37444,1,0,0:0:0
400,232,37544,1,2,0:0:0
384,288,37644,1,0,0:0:0
328,296,37744,2,0,B|264:312,1,55,2|0,0:0|0:0,0:0:0
232,272,37944,2,0,B|168:296|120:288,1,110,2|2,0:0|0:0,0:0:0
72,200,38344,6,0,B|64:144,1,55,2|0,0:0|0:0,0:0:0
96,104,38544,1,2,0:0:0
144,80,38644,1,0,0:0:0
200,80,38744,1,0,0:0:0
264,168,38944,5,0,0:0:0
368,152,39144,1,0,0:0:0
328,256,39344,1,2,0:0:0
224,296,39544,5,0,0:0:0
168,304,39644,1,0,0:0:0
120,288,39744,1,2,0:0:0
88,240,39844,1,0,0:0:0
104,184,39944,1,0,0:0:0
152,152,40044,1,0,0:0:0
200,176,40144,1,2,0:0:0
192,232,40244,1,0,0:0:0
152,200,40344,1,2,0:0:0
456,72,40544,6,0,B|376:64|320:80,1,110,6|0,0:0|0:0,0:0:0
240,64,40944,1,0,0:0:0
128,80,41144,1,0,0:0:0
88,120,41244,1,0,0:0:0
56,168,41344,2,0,B|40:232|56:288,1,110,2|0,0:0|0:0,0:0:0
144,336,41744,2,0,B|200:352|264:336|264:336,1,110
344,272,42144,6,0,B|424:256|472:280,1,110,6|0,0:0|0:0,0:0:0
452,272,42444,1,0,0:0:0
452,272,42544,1,0,0:0:0
392,176,42744,2,0,B|352:136|328:80,1,110,0|2,0:0|0:0,0:0:0
224,64,43144,1,0,0:0:0
168,56,43244,1,0,0:0:0
112,64,43344,1,0,0:0:0
168,168,43544,1,0,0:0:0
48,336,43744,6,0,B|72:280|72:216,1,110,6|0,0:0|0:0,0:0:0
71,229,44044,1,0,0:0:0
71,229,44144,1,0,0:0:0
48,120,44344,1,0,0:0:0
104,136,44444,1,0,0:0:0
160,120,44544,2,0,B|224:128,1,55,2|0,0:0|0:0,0:0:0
264,112,44744,2,0,B|328:104|376:128,1,110
376,232,45144,1,0,0:0:0
168,312,45344,6,0,B|256:288|312:280,1,110,6|0,0:0|0:0,0:0:0
288,232,45644,2,0,B|320:168,1,55
264,152,45844,1,0,0:0:0
216,176,45944,1,0,0:0:0
112,200,46144,2,0,B|80:136|80:88,1,110,2|0,0:0|0:0,0:0:0
128,64,46444,2,0,B|168:24,1,55
256,96,46744,1,0,0:0:0
440,40,46944,6,0,B|456:128|432:168,1,110,6|0,0:0|0:0,0:0:0
424,200,47244,1,0,0:0:0
440,256,47344,1,0,0:0:0
352,320,47544,1,0,0:0:0
312,216,47744,2,0,B|256:192,1,55,2|0,0:0|0:0,0:0:0
208,208,47944,1,0,0:0:0
176,168,48044,1,0,0:0:0
120,160,48144,2,0,B|72:216|64:264,1,110
136,72,48544,6,0,B|224:64|264:40,1,110,6|0,0:0|0:0,0:0:0
296,72,48844,2,0,B|384:104,1,55
408,184,49144,1,0,0:0:0
312,240,49344,1,2,0:0:0
256,224,49444,1,0,0:0:0
208,248,49544,2,0,B|168:264|144:256,1,55
112,224,49744,2,0,B|64:184,1,55
64,136,49944,2,0,B|40:88,1,55
88,56,50144,6,0,B|176:48|240:56,1,110,6|0,0:0|0:0,0:0:0
240,88,50444,2,0,B|296:88,1,55
368,176,50744,1,0,0:0:0
320,200,50844,1,0,0:0:0
288,248,50944,1,2,0:0:0
280,304,51044,1,0,0:0:0
304,352,51144,2,0,B|384:360|416:352,1,110
456,248,51544,1,0,0:0:0
448,136,51744,6,0,B|384:112|336:104,1,110,6|0,0:0|0:0,0:0:0
288,128,52044,2,0,B|232:152,1,55
184,128,52244,2,0,B|112:104,1,55
88,144,52444,2,0,B|64:200,1,55,0|2,0:0|0:0,0:0:0
104,232,52644,2,0,B|120:288,1,55
176,296,52844,2,0,B|240:320,1,55
280,296,53044,2,0,B|336:272,1,55
384,104,53344,5,8,0:0:0
256,192,53544,1,0,0:0:0
136,96,53744,1,0,0:0:0
256,40,53944,1,0,0:0:0
256,56,54044,1,0,0:0:0
256,72,54144,1,8,0:0:0
160,192,54344,1,0,0:0:0
352,192,54544,1,0,0:0:0
256,320,54744,5,0,0:0:0
256,304,54844,1,0,0:0:0
256,288,54944,1,8,0:0:0
352,192,55144,1,0,0:0:0
160,192,55344,1,0,0:0:0
48,88,55544,1,0,0:0:0
48,72,55644,1,0,0:0:0
48,56,55744,1,8,0:0:0
48,208,55944,1,0,0:0:0
160,328,56144,1,0,0:0:0
256,200,56344,5,0,0:0:0
256,216,56444,1,0,0:0:0
256,232,56544,1,8,0:0:0
352,88,56744,1,0,0:0:0
448,208,56944,1,0,0:0:0
352,328,57144,1,0,0:0:0
368,328,57244,1,0,0:0:0
384,328,57344,1,8,0:0:0
256,240,57544,1,0,0:0:0
352,88,57744,1,0,0:0:0
152,80,57944,5,0,0:0:0
136,80,58044,1,0,0:0:0
120,80,58144,1,8,0:0:0
256,160,58344,1,0,0:0:0
152,272,58544,1,0,0:0:0
256,384,58744,1,0,0:0:0
256,368,58844,1,0,0:0:0
256,352,58944,1,8,0:0:0
256,240,59144,1,0,0:0:0
256,88,59344,1,0,0:0:0
40,328,59744,5,8,0:0:0
40,176,59944,1,0,0:0:0
40,24,60144,1,0,0:0:0
184,24,60344,2,0,B|184:88,1,55
184,176,60544,1,8,0:0:0
184,328,60744,1,0,0:0:0
336,328,60944,1,0,0:0:0
336,176,61144,6,0,B|336:112,1,55
336,24,61344,1,8,0:0:0
488,24,61544,1,0,0:0:0
488,176,61744,1,0,0:0:0
488,328,61944,2,0,B|424:328,1,55
336,328,62144,1,8,0:0:0
184,328,62344,1,0,0:0:0
32,328,62544,1,0,0:0:0
32,184,62744,6,0,B|128:184,1,55
184,184,62944,1,8,0:0:0
336,184,63144,1,0,0:0:0
488,184,63344,1,0,0:0:0
488,32,63544,2,0,B|408:32,1,55
336,32,63744,1,8,0:0:0
184,32,63944,1,0,0:0:0
32,32,64144,1,0,0:0:0
256,352,64344,6,0,B|256:296,1,55
256,128,64544,5,8,0:0:0
448,312,64944,1,8,0:0:0
88,312,65344,1,8,0:0:0
256,328,65544,6,2,B|256:296|256:296,12,27.5,2|2|2|2|2|2|2|2|2|2|2|2|6,0:0|0:0|0:0|0:0|0:0|0:0|0:0|0:0|0:0|0:0|0:0|0:0|0:0,0:0:0
256,216,66344,1,0,0:0:0
160,168,66544,2,0,B|112:144|48:144,1,110,2|0,0:0|0:0,0:0:0
53,144,66844,1,0,0:0:0
53,144,66944,1,2,0:0:0
80,248,67144,1,0,0:0:0
176,296,67344,2,0,B|208:336|208:336,8,27.5,2|2|2|2|2|2|2|2|6,0:0|0:0|0:0|0:0|0:0|0:0|0:0|0:0|0:0,0:0:0
256,216,67944,5,0,0:0:0
352,168,68144,2,0,B|400:224|448:240,1,110,2|0,0:0|0:0,0:0:0
437,235,68444,1,0,0:0:0
437,235,68544,1,2,0:0:0
464,128,68744,1,0,0:0:0
384,56,68944,2,0,B|416:16|416:16,8,27.5,2|2|2|2|2|2|2|2|6,0:0|0:0|0:0|0:0|0:0|0:0|0:0|0:0|0:0,0:0:0
256,112,69544,5,0,0:0:0
144,120,69744,2,0,B|128:192|72:224,1,110,2|0,0:0|0:0,0:0:0
40,240,70044,1,0,0:0:0
48,296,70144,1,2,0:0:0
152,320,70344,2,0,B|216:328|280:328,1,110,0|2,0:0|0:0,0:0:0
240,216,70744,6,0,B|240:136,1,55
280,128,70944,2,0,B|368:112|424:144,1,110,6|0,0:0|0:0,0:0:0
416,176,71244,2,0,B|432:232,1,55,0|2,0:0|0:0,0:0:0
352,304,71544,1,0,0:0:0
304,280,71644,1,0,0:0:0
248,288,71744,2,0,B|208:296|208:296,16,27.5,2|2|2|2|2|2|2|2|2|2|2|2|2|2|2|2|6,0:0|0:0|0:0|0:0|0:0|0:0|0:0|0:0|0:0|0:0|0:0|0:0|0:0|0:0|0:0|0:0|0:0,0:0:0
141,255,72744,5,0,0:0:0
56,184,72944,2,0,B|40:112|40:64,1,110,2|0,0:0|0:0,0:0:0
88,48,73244,1,0,0:0:0
144,32,73344,1,2,0:0:0
256,72,73544,1,0,0:0:0
344,136,73744,2,0,B|376:176|376:176,8,27.5,2|2|2|2|2|2|2|2|6,0:0|0:0|0:0|0:0|0:0|0:0|0:0|0:0|0:0,0:0:0
240,176,74344,5,0,0:0:0
328,240,74544,2,0,B|288:288|272:352,1,110,2|0,0:0|0:0,0:0:0
328,352,74844,1,0,0:0:0
376,320,74944,2,0,B|408:288|408:288,12,27.5,2|2|2|2|2|2|2|2|2|2|2|2|2,0:0|0:0|0:0|0:0|0:0|0:0|0:0|0:0|0:0|0:0|0:0|0:0|0:0,0:0:0
440,112,75744,5,6,0:0:0
392,88,75844,1,0,0:0:0
336,88,75944,1,0,0:0:0
288,112,76044,1,0,0:0:0
240,144,76144,2,0,B|168:136|104:152,1,110,2|0,0:0|0:0,0:0:0
32,288,76544,2,0,B|96:304|168:280,1,110,2|0,0:0|0:0,0:0:0
192,272,76844,1,0,0:0:0
248,288,76944,1,2,0:0:0
464,288,77144,5,0,0:0:0
416,264,77244,1,0,0:0:0
368,288,77344,2,0,B|336:176|376:32,1,220,6|2,0:0|0:0,0:0:0
256,64,77944,1,0,0:0:0
256,120,78044,1,0,0:0:0
256,176,78144,2,0,B|144:208|24:176,1,220,2|0,0:0|0:0,0:0:0
400,312,78944,6,0,B|400:240,1,55,4|8,0:0|0:0,0:0:0
280,168,79225,2,0,B|280:224,1,55,0|0,0:0|0:0,0:0:0
280,224,79506,1,12,0:0:0
168,64,79881,2,0,B|168:144,1,55
168,184,80069,1,12,0:0:0
24,344,80444,5,12,0:0:0
40,288,80537,1,0,0:0:0
64,240,80631,1,0,0:0:0
104,200,80725,1,0,0:0:0
152,168,80819,2,0,B|216:144|288:144,1,110,4|0,0:0|0:0,0:0:0
432,48,81194,6,0,B|448:144|424:176,1,110,8|0,0:0|0:0,0:0:0
424,208,81475,1,0,0:0:0
440,264,81569,2,0,B|392:304|328:320,1,110,12|0,0:0|0:0,0:0:0
288,312,81850,1,0,0:0:0
240,288,81944,1,8,0:0:0
264,184,82131,1,0,0:0:0
216,152,82225,1,0,0:0:0
192,104,82319,1,12,0:0:0
104,40,82506,1,0,0:0:0
48,128,82694,6,0,B|32:192,1,55,8|0,0:0|0:0,0:0:0
80,216,82881,2,0,B|88:280,1,55
136,304,83069,1,4,0:0:0
184,280,83162,1,0,0:0:0
240,280,83256,1,0,0:0:0
280,320,83350,1,0,0:0:0
312,368,83444,2,0,B|384:336,1,55,8|0,0:0|0:0,0:0:0
384,296,83631,2,0,B|432:248,1,55
456,208,83819,2,0,B|472:144|456:80,1,110,4|0,0:0|0:0,0:0:0
352,80,84194,5,8,0:0:0
304,96,84287,1,0,0:0:0
248,104,84381,1,0,0:0:0
192,88,84475,1,0,0:0:0
144,64,84569,2,0,B|96:120|72:176,1,110,12|0,0:0|0:0,0:0:0
152,304,84944,1,8,0:0:0
184,264,85037,1,0,0:0:0
232,240,85131,1,0,0:0:0
288,256,85225,1,0,0:0:0
336,288,85319,2,0,B|400:296|456:248,1,110,12|0,0:0|0:0,0:0:0
424,152,85694,5,8,0:0:0
384,112,85787,1,0,0:0:0
328,112,85881,1,0,0:0:0
296,72,85975,1,0,0:0:0
248,96,86069,2,0,B|168:88,1,55,4|0,0:0|0:0,0:0:0
168,40,86256,2,0,B|104:56,1,55
120,112,86444,5,8,0:0:0
160,152,86537,1,0,0:0:0
136,200,86631,1,0,0:0:0
152,256,86725,1,0,0:0:0
104,288,86819,2,0,B|64:336|16:360,1,110,4|0,0:0|0:0,0:0:0
24,168,87194,6,0,B|48:88|72:56,1,110,8|0,0:0|0:0,0:0:0
120,56,87475,1,0,0:0:0
168,80,87569,2,0,B|232:128|272:128,1,110,12|0,0:0|0:0,0:0:0
320,136,87850,1,0,0:0:0
376,128,87944,1,8,0:0:0
432,224,88131,1,0,0:0:0
464,176,88225,1,0,0:0:0
472,120,88319,1,12,0:0:0
352,208,88506,1,0,0:0:0
256,208,88694,6,0,B|224:208|192:192,1,55,8|0,0:0|0:0,0:0:0
152,216,88881,2,0,B|80:240,1,55
80,184,89069,1,4,0:0:0
104,136,89162,1,0,0:0:0
96,80,89256,1,0,0:0:0
136,40,89350,1,0,0:0:0
192,56,89444,2,0,B|216:112,1,55,8|0,0:0|0:0,0:0:0
264,120,89631,2,0,B|360:112,1,55
352,160,89819,2,0,B|368:240|392:288,1,110,4|0,0:0|0:0,0:0:0
448,176,90194,6,0,B|464:120|464:40|472:40,1,110,8|0,0:0|0:0,0:0:0
408,72,90475,1,0,0:0:0
360,48,90569,1,4,0:0:0
248,56,90756,1,0,0:0:0
200,80,90850,1,0,0:0:0
144,72,90944,2,0,B|80:128|64:184,1,110,8|0,0:0|0:0,0:0:0
48,200,91225,1,0,0:0:0
96,224,91319,2,0,B|160:240|208:288,1,110,4|0,0:0|0:0,0:0:0
224,232,91600,1,0,0:0:0
248,184,91694,6,0,B|256:112,1,55,8|0,0:0|0:0,0:0:0
224,88,91881,2,0,B|216:24,1,55
272,24,92069,1,4,0:0:0
320,56,92162,1,0,0:0:0
376,40,92256,1,0,0:0:0
408,88,92350,1,0,0:0:0
416,144,92444,6,0,B|408:280|264:336,1,220,8|4,0:0|0:0,0:0:0
200,280,93006,2,0,B|136:216|80:208,1,110,8|8,0:0|0:0,0:0:0
64,112,93381,1,0,0:0:0
64,112,93569,2,0,B|192:80|296:80,1,220,0|8,0:0|0:0,0:0:0
384,112,94131,2,0,B|416:160|416:232,1,110,0|0,0:0|0:0,0:0:0
312,256,94506,5,0,0:0:0
256,248,94600,1,0,0:0:0
208,272,94694,2,0,B|136:256|72:288,1,110
24,200,95069,2,0,B|48:144|48:80,1,110
152,48,95444,2,0,B|168:128|208:168,1,110,8|0,0:0|0:0,0:0:0
216,256,95819,1,0,0:0:0
136,328,96006,1,0,0:0:0
112,224,96194,1,0,0:0:0
296,344,96381,5,0,0:0:0
352,328,96475,1,0,0:0:0
400,304,96569,2,0,B|440:240|448:152,1,110
336,160,96944,2,0,B|264:128|208:48|208:48,2,165,8|0|0,0:0|0:0|0:0,0:0:0
208,184,97694,2,0,B|144:224|112:288,1,110,8|0,0:0|0:0,0:0:0
128,259,97975,1,0,0:0:0
128,259,98069,1,0,0:0:0
256,320,98256,1,0,0:0:0
472,288,98444,6,0,B|416:264|336:296,1,110,8|0,0:0|0:0,0:0:0
56,288,99006,1,0,0:0:0
56,288,99194,2,0,B|120:304|184:280,1,110,8|0,0:0|0:0,0:0:0
220,189,99569,2,0,B|176:176|112:192,1,110
288,104,99944,6,0,B|344:120|400:104,1,110,8|0,0:0|0:0,0:0:0
396,104,100225,1,0,0:0:0
396,104,100319,1,0,0:0:0
208,56,100506,1,0,0:0:0
208,56,100694,2,0,B|128:24|32:64|32:64,2,165,8|0|0,0:0|0:0|0:0,0:0:0
128,152,101444,5,8,0:0:0
208,232,101631,1,0,0:0:0
208,232,101725,1,0,0:0:0
208,232,101819,2,0,B|224:304|200:360,1,110
112,288,102194,2,0,B|16:192|16:64,1,220,8|0,0:0|0:0,0:0:0
112,48,102756,1,0,0:0:0
200,96,102944,6,0,B|280:96|280:96|308:48|362:38|400:64|424:104|416:144|392:174|356:182|356:182,1,330.000012588501
392,312,103881,5,0,0:0:0
352,280,103975,1,0,0:0:0
312,240,104069,1,0,0:0:0
376,152,104256,2,0,B|328:80|288:64,1,110
200,104,104631,5,0,0:0:0
144,96,104725,1,0,0:0:0
88,88,104819,1,0,0:0:0
168,200,105006,5,0,0:0:0
120,224,105100,1,0,0:0:0
72,248,105194,1,0,0:0:0
224,280,105381,5,0,0:0:0
192,328,105475,1,0,0:0:0
160,376,105569,1,0,0:0:0
192,328,105662,1,0,0:0:0
224,280,105756,1,0,0:0:0
264,240,105850,1,0,0:0:0
312,208,105944,6,0,B|368:160|400:112,1,110,12|0,0:0|0:0,0:0:0
448,224,106319,2,0,B|464:280|456:344,1,110
400,320,106600,1,0,0:0:0
344,304,106694,2,0,B|272:296|200:304,1,110,4|0,0:0|0:0,0:0:0
168,216,107069,1,0,0:0:0
104,304,107256,1,0,0:0:0
56,200,107444,6,0,B|32:136|48:64,1,110,4|0,0:0|0:0,0:0:0
96,80,107725,1,0,0:0:0
144,64,107819,2,0,B|208:56|264:72,1,110
240,120,108100,1,0,0:0:0
248,176,108194,2,0,B|240:240|208:288,1,110,4|0,0:0|0:0,0:0:0
213,279,108569,1,0,0:0:0
448,328,108756,5,0,0:0:0
424,280,108850,1,0,0:0:0
368,272,108944,2,0,B|344:216|360:144,1,110,4|0,0:0|0:0,0:0:0
356,164,109319,1,0,0:0:0
416,72,109506,1,0,0:0:0
360,88,109600,1,0,0:0:0
304,72,109694,2,0,B|232:64|128:80|128:80,2,165,4|0|0,0:0|0:0|0:0,0:0:0
240,184,110444,1,4,0:0:0
160,256,110631,5,0,0:0:0
128,208,110725,1,0,0:0:0
136,152,110819,2,0,B|104:96|48:56,1,110
32,176,111194,2,0,B|24:240|48:304,1,110,4|0,0:0|0:0,0:0:0
80,328,111475,1,0,0:0:0
136,320,111569,2,0,B|200:304|264:328,1,110
384,240,111944,5,4,0:0:0
280,264,112131,1,0,0:0:0
312,160,112319,1,0,0:0:0
152,120,112506,1,0,0:0:0
152,120,112600,1,0,0:0:0
152,120,112694,1,4,0:0:0
72,200,112881,1,0,0:0:0
176,232,113069,2,0,B|256:192|272:144,1,110
312,64,113444,6,0,B|424:112|472:232,1,220,4|0,0:0|0:0,0:0:0
392,296,114006,1,0,0:0:0
336,312,114100,1,0,0:0:0
288,288,114194,2,0,B|216:288|168:312,1,110,4|0,0:0|0:0,0:0:0
112,216,114569,2,0,B|80:152|64:96,1,110
112,80,114850,1,0,0:0:0
152,104,114944,6,0,B|204:79|228:28,1,110,4|0,0:0|0:0,0:0:0
304,88,115319,2,0,B|315:143|353:185,1,110
384,232,115600,1,0,0:0:0
344,264,115694,2,0,B|285:264|245:310,1,110,4|0,0:0|0:0,0:0:0
208,200,116069,2,0,B|148:196|112:147,1,110
64,176,116350,1,0,0:0:0
48,232,116444,6,0,B|48:288|16:344,1,110,4|0,0:0|0:0,0:0:0
128,320,116819,2,0,B|200:312|264:320,1,110
344,280,117194,2,0,B|408:176|408:176|448:152|368:96|360:176,1,220,4|0,0:0|0:0,0:0:0
256,312,117944,5,2,0:0:0
256,96,118372,2,0,B|192:80|128:104,1,110,0|2,0:0|0:0,0:0:0
64,168,118801,2,0,B|48:248|72:296,1,110,4|0,0:0|0:0,0:0:0
168,320,119229,2,0,B|240:336|304:312,1,110,2|0,0:0|0:0,0:0:0
464,288,119658,6,0,B|384:208|376:80,1,220,2|0,0:0|0:0,0:0:0
272,128,120301,1,2,0:0:0
176,80,120515,2,0,B|136:128|72:160,1,110
160,232,120944,2,0,B|168:288|176:344,1,110,0|8,0:0|0:0,0:0:0
272,288,121372,2,0,B|344:248|448:240|448:240,2,165,0|2|0,0:0|0:0|0:0,0:0:0
288,176,122229,6,0,B|304:112|304:56,1,110,0|0,0:0|0:0,0:0:0
200,104,122658,2,0,B|136:104|88:80,1,110,2|0,0:0|0:0,0:0:0
88,192,123086,2,0,B|48:248|40:312|32:360|32:360,2,165,0|8|0,0:0|0:0|0:0,0:0:0
168,264,123944,2,0,B|240:280|272:312,1,110,0|2,0:0|0:0,0:0:0
328,216,124372,2,0,B|384:184|440:176,1,110
344,112,124801,6,0,B|264:88|208:16|208:16,2,165,0|8|0,0:0|0:0|0:0,0:0:0
424,184,125658,2,0,B|440:256|432:320,1,110,2|0,0:0|0:0,0:0:0
328,296,126086,2,0,B|272:320|208:320,1,110
176,160,126515,2,0,B|80:96|16:80|16:80,2,165,2|8|0,0:0|0:0|0:0,0:0:0
72,208,127372,2,0,B|72:272|104:320,1,110,0|0,0:0|0:0,0:0:0
184,248,127801,2,0,B|248:248|312:288,1,110,2|0,0:0|0:0,0:0:0
288,168,128229,6,0,B|384:112|416:48|416:48,2,165,2|8|0,0:0|0:0|0:0,0:0:0
256,64,129086,2,0,B|128:32|8:88,1,220,0|2,0:0|0:0,0:0:0
224,200,129944,2,0,B|272:248|245:299|300:347|300:347,2,165,0|8|0,0:0|0:0|0:0,0:0:0
120,240,130801,2,0,B|104:176|144:120,1,110,2|0,0:0|0:0,0:0:0
232,80,131229,1,0,0:0:0
320,144,131444,1,0,0:0:0
392,56,131658,6,0,B|456:48|512:56,1,110
448,152,132086,2,0,B|464:224|448:288,1,110,8|0,0:0|0:0,0:0:0
344,264,132515,2,0,B|264:264|192:344|192:344,2,165,0|8|0,0:0|0:0|0:0,0:0:0
128,48,133372,6,0,B|104:112|64:144,1,110,4|0,0:0|0:0,0:0:0
40,184,133694,1,0,0:0:0
64,232,133801,1,8,0:0:0
152,296,134015,1,0,0:0:0
184,192,134229,2,0,B|248:160|344:152|344:152,2,165,0|0|0,0:0|0:0|0:0,0:0:0
272,256,135086,1,0,0:0:0
296,304,135194,1,0,0:0:0
320,352,135301,1,0,0:0:0
408,152,135729,5,0,0:0:0
384,104,135836,1,0,0:0:0
360,56,135944,2,0,B|264:32|200:40,1,110,8|0,0:0|0:0,0:0:0
152,80,136372,2,0,B|88:96|32:88,1,110,8|0,0:0|0:0,0:0:0
240,152,136801,6,0,B|288:208|392:240|392:240,2,165,4|8|0,0:0|0:0|0:0,0:0:0
208,256,137658,2,0,B|184:304|136:336,1,110
112,232,138086,2,0,B|80:168|88:120,1,110,8|0,0:0|0:0,0:0:0
176,56,138515,5,0,0:0:0
248,144,138729,1,0,0:0:0
288,40,138944,1,0,0:0:0
344,48,139051,1,0,0:0:0
392,72,139158,2,0,B|432:112|456:176|456:176,2,110,0|8|0,0:0|0:0|0:0,0:0:0
360,176,139801,2,0,B|352:248|384:304,1,110,8|0,0:0|0:0,0:0:0
96,272,140229,6,0,B|168:264|272:288|272:288,2,165,4|0|0,0:0|0:0|0:0,0:0:0
88,160,141086,2,0,B|64:40,1,110
176,80,141515,1,8,0:0:0
192,192,141729,1,0,0:0:0
280,128,141944,1,0,0:0:0
328,160,142051,1,0,0:0:0
376,192,142158,1,0,0:0:0
168,256,142586,5,0,0:0:0
120,288,142694,1,0,0:0:0
72,320,142801,2,0,B|40:256|32:200,1,110
104,128,143229,2,0,B|128:72|136:24,1,110,8|0,0:0|0:0,0:0:0
232,80,143658,6,0,B|256:200|288:256|288:256,2,165,4|8|0,0:0|0:0|0:0,0:0:0
336,104,144515,2,0,B|408:128|448:160,1,110
376,240,144944,2,0,B|400:296|464:328,1,110
488,216,145372,5,0,0:0:0
496,104,145586,1,0,0:0:0
400,48,145801,1,8,0:0:0
344,32,145908,1,0,0:0:0
240,56,146122,2,0,B|264:120|368:160,1,165
240,192,146658,2,0,B|208:248|136:296,1,110,8|0,0:0|0:0,0:0:0
136,168,147086,5,4,0:0:0
56,96,147301,1,0,0:0:0
56,96,147408,2,0,B|120:64|240:48,1,165,8|0,0:0|0:0,0:0:0
304,112,147944,1,4,0:0:0
304,112,148051,1,0,0:0:0
304,112,148158,2,0,B|376:144|424:136,1,110,8|0,0:0|0:0,0:0:0
480,56,148586,1,0,0:0:0
480,168,148801,6,0,B|456:248|456:336|456:336,2,165,4|8|0,0:0|0:0|0:0,0:0:0
384,224,149658,2,0,B|264:256|128:256,1,220
88,336,150301,1,0,0:0:0
32,240,150515,1,4,0:0:0
88,144,150729,1,8,0:0:0
136,112,150836,1,0,0:0:0
192,104,150944,2,0,B|256:128|320:96,1,110
208,256,151372,5,0,0:0:0
248,224,151479,1,0,0:0:0
304,208,151586,1,0,0:0:0
360,224,151694,1,0,0:0:0
408,256,151801,2,0,B|480:272|520:256,1,110
472,160,152229,2,0,B|432:64|336:32|336:32,2,165,4|8|0,0:0|0:0|0:0,0:0:0
360,152,153086,2,0,B|272:136|184:160|120:192,1,220,4|0,0:0|0:0,0:0:0
16,360,153944,6,0,B|64:232|80:128,1,220
48,40,154586,1,0,0:0:0
152,88,154801,2,0,B|272:104|376:96,1,220
464,40,155444,1,0,0:0:0
368,232,155658,5,0,0:0:0
416,136,155872,1,0,0:0:0
464,168,155979,1,0,0:0:0
472,224,156086,2,0,B|464:288|432:328,1,110
328,296,156515,2,0,B|208:272|96:272,1,220
56,176,157158,1,0,0:0:0
112,80,157372,1,0,0:0:0
296,200,157801,5,8,0:0:0
352,104,158015,1,0,0:0:0
416,192,158229,2,0,B|432:256|416:320,1,110
368,296,158551,1,0,0:0:0
320,280,158658,1,8,0:0:0
416,192,158872,1,0,0:0:0
440,88,159086,2,0,B|368:48|312:48,1,110
240,104,159515,2,0,B|176:88|120:96,1,110
48,168,159944,1,0,0:0:0
256,192,160372,12,0,167658,0:0:0
