osu file format v9

[General]
AudioFilename: COSMOLAGOON (Short Ver.).mp3
AudioLeadIn: 1250
PreviewTime: 66857
Countdown: 0
SampleSet: Soft
StackLeniency: 0.7
Mode: 0
LetterboxInBreaks: 0

[Editor]
DistanceSpacing: 1
BeatDivisor: 4
GridSize: 4

[Metadata]
Title:COSMOLAGOON (Short Ver.)
Artist:Shimotsuki Haruka
Creator:Darksonic
Version:Normal
Source:Trinity Universe
Tags:verdisphena opening Sony Theme Kanae Aoki Daisuke Achiwa nippon ichi software idea factory gust corporation

[Difficulty]
HPDrainRate:4
CircleSize:4
OverallDifficulty:4
ApproachRate:5
SliderMultiplier:1.1
SliderTickRate:2

[Events]
//Background and Video events
0,0,"BG.jpg"
Video,699,"Trinity Universe Opening HD.avi"
//Break Periods
//Storyboard Layer 0 (Background)
//Storyboard Layer 1 (Fail)
//Storyboard Layer 2 (Pass)
//Storyboard Layer 3 (Foreground)
//Storyboard Sound Samples
//Background Colour Transformations
3,100,163,162,255

[TimingPoints]
1214,342.857142857143,4,2,2,80,1,0
9442,-100,4,2,1,75,0,0
20414,-100,4,1,0,75,0,0
20928,-100,4,2,1,80,0,0
21271,-100,4,1,0,75,0,0
21614,-100,4,2,1,80,0,0
21956,-100,4,1,0,75,0,0
22299,-100,4,2,1,80,0,0
22642,-100,4,1,0,75,0,0
22814,-100,4,2,1,80,0,0
23156,-100,4,1,0,70,0,0
28471,-100,4,2,1,80,0,0
34128,-100,4,1,0,70,0,0
39614,-100,4,2,1,80,0,0
64299,-100,4,1,0,75,0,0
66528,-100,4,2,1,80,0,0
67042,-100,4,2,1,80,0,1
75271,-100,4,1,0,75,0,0
78014,-100,4,2,1,80,0,1
86414,-100,4,1,0,75,0,1
86756,-100,4,2,1,80,0,1
87099,-100,4,1,0,75,0,1
87442,-100,4,2,1,80,0,1
88985,-100,4,2,1,80,0,0
97385,-100,4,1,0,75,0,0
97728,-100,4,2,1,80,0,0
98071,-100,4,1,0,75,0,0
98414,-100,4,2,1,80,0,0
98756,-100,4,1,0,75,0,0
99099,-100,4,2,1,80,0,0
99442,-100,4,1,0,75,0,0
99614,-100,4,2,1,80,0,0
99956,-100,4,2,1,75,0,0
101328,-100,4,2,1,60,0,0
102699,-100,4,2,1,45,0,0
104071,-100,4,2,1,5,0,0
104756,-100,4,2,1,80,0,0

[Colours]
Combo1 : 255,255,128
Combo2 : 21,249,220
Combo3 : 210,210,210
Combo4 : 251,137,11

[HitObjects]
360,240,1214,2,0,B|352:172|304:149,1,110,0|2
256,40,1899,1,0
207,149,2242,2,0,B|160:172|152:240,1,110,2|0
204,336,2928,2,0,B|256:376|308:336,1,110,2|0
408,296,3614,1,2
376,192,3956,6,0,B|328:168|328:168|328:112,1,110,0|2
312,60,4471,2,0,B|256:52|256:52|200:60,1,110,0|2
96,76,5156,1,2
180,336,6014,2,2,B|236:316|256:261|256:261|276:316|332:336,1,220,0|2
344,228,7042,5,2
352,120,7385,2,0,B|297:120,1,55
188,120,7899,2,0,B|136:136|79:135,1,110,2|0
79,248,8585,2,0,B|136:248|188:264,1,110,2|0
240,280,9099,1,0
332,340,9442,6,0,B|332:285,1,55,12|8
428,232,9956,2,0,B|428:122,1,110,8|0
324,88,10642,2,0,B|292:44|256:84|256:84|220:44|188:88,1,165,8|2
100,156,11499,2,0,B|56:120|41:64,2,110,2|2|6
40,248,12528,5,8
148,232,12871,2,0,B|192:268|200:328,1,110,0|8
312,326,13556,2,0,B|320:268|364:232,1,110,0|8
472,248,14242,1,0
420,152,14585,2,0,B|376:116|368:57,1,110,8|2
256,56,15271,5,8
202,152,15614,2,0,B|162:192|162:192|202:232,1,110,0|8
310,232,16299,2,0,B|350:192|350:192|310:152,1,110,0|8
256,56,16985,1,0
202,152,17328,1,8
100,192,17671,6,0,B|132:240|132:240|132:292,1,110,4|8
176,328,18185,1,2
256,252,18528,1,2
336,328,18871,2,0,B|388:328|388:328|436:296,1,110,6|0
340,240,19556,2,0,B|340:124,1,110,6|0
308,84,20071,1,8
200,84,20414,6,0,B|200:139,1,55,4|0
120,212,20928,2,0,B|108:276|153:310,1,110,8|0
244,248,21614,2,0,B|354:248,1,110,8|0
444,310,22299,2,0,B|489:275|477:211,1,110,8|0
478,156,22814,1,8
400,76,23156,6,0,B|345:76,3,55
256,248,25728,5,0
256,136,26071,2,0,B|256:81,2,55
88,316,28128,6,0,B|56:264|88:212,1,110
120,168,28642,1,4
104,80,28985,6,0,B|156:60|156:60|210:60,1,110,8|0
256,160,29671,1,8
301,60,30014,2,0,B|356:60|356:60|408:80,1,110,0|8
408,192,30699,6,0,B|369:230|369:230|318:253,2,110,2|8|2
308,148,31728,2,0,B|256:116|204:148,1,110,8|0
120,220,32414,1,8
204,292,32756,2,0,B|256:324|308:292,1,110,0|8
392,220,33442,1,8
392,108,33785,1,4
296,164,34128,6,0,B|236:164,3,55,4|0|0|0
392,292,36699,5,0
440,192,37042,2,0,B|440:137,2,55
192,68,39099,6,0,B|160:120|192:172,1,110
224,216,39613,1,4
252,300,39956,6,0,B|304:328|356:300,1,110,8|0
408,200,40642,2,0,B|464:216|481:273,2,110,8|0|8
332,120,41671,5,2
256,40,42013,1,8
180,120,42356,1,2
104,200,42699,2,0,B|47:216|30:273,2,110,8|0|8
104,312,43728,2,0,B|156:340|208:312,1,110,0|8
218,198,44413,2,0,B|240:182|256:159|256:159|271:182|293:198,2,110,0|4|4
136,124,45442,5,8
236,76,45785,2,0,B|284:48|342:56,1,110,2|8
296,156,46471,2,0,B|349:141|403:164,1,110,2|8
358,264,47156,2,0,B|413:263|459:299,1,110,2|8
360,344,47842,6,0,B|306:344|306:344|270:300,1,110,4|8
236,260,48356,1,2
236,148,48699,1,2
328,84,49042,2,0,B|372:112|416:84|416:84|465:138,1,165,2|10
384,212,49899,2,0,B|336:244|312:294,1,110,0|8
199,294,50585,6,0,B|176:244|128:212,1,110,4|8
88,172,51099,1,0
180,108,51442,2,0,B|203:158|251:190,1,110,2|0
332,112,52128,2,0,B|442:112,1,110,2|0
484,216,52813,1,2
392,276,53156,6,0,B|337:276,1,55,0|4
256,348,53671,1,8
188,260,54013,1,0
188,148,54356,1,8
284,92,54699,2,0,B|312:20|432:20|460:92,1,220,4|0
372,156,55728,1,8
460,220,56071,6,0,B|431:292|311:292|283:220,1,220,4|2
216,132,57099,1,8
153,41,57442,2,0,B|96:44|56:86,2,110,2|8|2
256,76,58471,1,8
359,41,58813,6,0,B|416:44|455:86,1,110,2|8
492,128,59328,1,2
404,192,59671,1,0
316,260,60013,2,0,B|206:260,1,110,2|0
152,260,60528,1,10
108,160,60871,2,0,B|108:100|48:68,2,110,0|8|4
212,32,62071,6,0,B|256:64|256:64|300:32,1,110,4|8
312,144,62756,2,0,B|360:192|312:240,1,110,4|8
200,240,63442,2,0,B|152:192|200:144,1,110,4|8
332,52,64299,6,0,B|332:107,1,55,4|0
376,140,64642,2,0,B|376:195,1,55,4|0
312,284,65156,2,0,B|356:324,2,55,0|0|4
200,284,65842,2,0,B|156:324,2,55,0|0|4
194,178,66528,6,0,B|244:160|256:127|256:127|268:160|318:178,1,165,2|4
400,104,67385,5,8
308,40,67728,2,0,B|256:16|200:40,1,110,0|8
112,104,68413,1,0
204,164,68756,2,0,B|256:188|312:164,1,110,8|0
400,104,69442,1,8
384,212,69785,6,0,B|340:256|340:256|292:256,1,110,4|8
236,256,70299,1,2
132,288,70642,2,0,B|84:312|48:364,2,110,0|2|0
132,176,71671,2,0,B|84:152|48:100,1,110
24,56,72185,1,8
132,64,72528,6,0,B|163:61|163:61|179:91|194:61|194:61|226:64,1,110,4|8
256,172,73213,1,0
316,80,73556,2,0,B|380:92|416:148,1,110,8|0
407,247,74242,2,0,B|380:292|316:304,1,110,8|0
256,212,74928,1,8
200,116,75271,5,4
200,116,75442,1,0
116,188,75785,2,0,B|168:208|168:208|204:256,1,110
311,251,76471,2,0,B|344:208|344:208|396:188,1,110
300,134,77156,2,0,B|256:165|256:165|211:134,1,110
168,96,77671,1,0
112,192,78013,5,4
162,289,78356,2,0,B|193:339|252:341,1,110,8|0
348,284,79042,2,0,B|348:174,1,110,8|0
400,76,79728,2,0,B|348:48|296:76,1,110,8|0
256,180,80413,1,8
217,76,80756,6,0,B|164:48|112:76,1,110,4|8
72,112,81271,2,0,B|43:165|71:217,1,110,0|0
124,236,81785,1,8
180,240,81956,2,0,B|240:240|240:240|244:184|297:157,1,165,2|8
336,56,82813,2,0,B|396:56|414:120,2,110,2|8|4
228,36,83842,5,8
140,104,84185,2,0,B|140:156|140:156|108:176|108:201,1,110,0|8
108,256,84699,1,4
212,288,85042,2,0,B|256:348|300:288,1,110,0|4
376,144,85899,1,8
284,84,86242,6,0,B|229:84,1,55,12|0
200,192,86756,2,0,B|310:192,1,110,8|0
324,300,87442,2,0,B|268:348|224:312|256:260|288:312|244:348|188:300,1,165,8|0
180,192,88299,1,2
256,112,88642,1,6
332,192,88985,5,6
412,116,89328,2,0,B|460:156|459:211,1,110,8|0
392,296,90014,1,8
292,252,90356,2,0,B|182:252,1,110,0|8
104,172,91042,2,0,B|56:144|56:144|56:80,2,110,0|8|0
184,92,92071,5,12
292,120,92414,2,0,B|339:72|386:120,1,110,2|8
388,176,92928,2,0,B|342:198|359:238|359:238|325:238|308:264|308:264|291:238|257:238|257:238|274:198|228:176,1,275,2|2
136,116,94128,1,12
56,192,94471,5,2
136,268,94814,1,8
240,304,95156,1,0
352,308,95499,5,8
400,276,95671,2,0,B|440:236|440:236|450:183,1,110,4|0
388,92,96356,2,0,B|348:132|348:132|337:184,1,110,4|0
337,239,96871,1,8
280,336,97214,6,0,B|256:360|232:336,1,55,8|0
188,236,97728,2,0,B|156:192|156:192|188:148,1,110,8|0
204,40,98414,2,0,B|256:72|308:40,1,110,8|0
324,148,99099,2,0,B|356:192|356:192|324:236,1,110,8|0
296,284,99614,1,8
256,192,99956,12,0,104071
184,228,104756,6,0,B|232:264,1,55,8|8
284,261,105099,2,0,B|328:228,1,55,8|8
