osu file format v9

[General]
AudioFilename: COSMOLAGOON (Short Ver.).mp3
AudioLeadIn: 1250
PreviewTime: 66857
Countdown: 0
SampleSet: Soft
StackLeniency: 0.7
Mode: 0
LetterboxInBreaks: 0

[Editor]
DistanceSpacing: 1
BeatDivisor: 4
GridSize: 4

[Metadata]
Title:COSMOLAGOON (Short Ver.)
Artist:Shimotsuki Haruka
Creator:Darksonic
Version:Insane
Source:Trinity Universe
Tags:verdisphena opening Sony Theme Kanae Aoki Daisuke Achiwa nippon ichi software idea factory gust corporation

[Difficulty]
HPDrainRate:7
CircleSize:4
OverallDifficulty:7
ApproachRate:9
SliderMultiplier:1.6
SliderTickRate:2

[Events]
//Background and Video events
0,0,"BG.jpg"
Video,699,"Trinity Universe Opening HD.avi"
//Break Periods
//Storyboard Layer 0 (Background)
//Storyboard Layer 1 (Fail)
//Storyboard Layer 2 (Pass)
//Storyboard Layer 3 (Foreground)
//Storyboard Sound Samples
//Background Colour Transformations
3,100,163,162,255

[TimingPoints]
1214,342.857142857143,4,2,2,80,1,0
9442,-100,4,2,1,80,0,0
20414,-100,4,1,0,75,0,0
20928,-100,4,2,1,80,0,0
21271,-100,4,1,0,75,0,0
21614,-100,4,2,1,80,0,0
21956,-100,4,1,0,75,0,0
22299,-100,4,2,1,80,0,0
22642,-100,4,1,0,75,0,0
22814,-100,4,2,1,80,0,0
23156,-100,4,1,0,70,0,0
28299,-100,4,2,1,80,0,0
34128,-100,4,1,0,70,0,0
39271,-100,4,2,1,80,0,0
64299,-100,4,1,0,75,0,0
66528,-100,4,2,1,80,0,0
67042,-100,4,2,1,80,0,1
75271,-100,4,2,1,80,0,0
78014,-100,4,2,1,80,0,1
86414,-100,4,1,0,75,0,1
86756,-100,4,2,1,80,0,1
87099,-100,4,1,0,75,0,1
87442,-100,4,2,1,80,0,1
88985,-100,4,2,1,80,0,0
97385,-100,4,1,0,75,0,0
97728,-100,4,2,1,80,0,0
98071,-100,4,1,0,75,0,0
98414,-100,4,2,1,80,0,0
98756,-100,4,1,0,75,0,0
99099,-100,4,2,1,80,0,0
99442,-100,4,1,0,75,0,0
99614,-100,4,2,1,80,0,0
99956,-100,4,2,1,75,0,0
101328,-100,4,2,1,60,0,0
102699,-100,4,2,1,45,0,0
104071,-100,4,2,1,30,0,0
104414,-100,4,2,1,5,0,0
104756,-100,4,2,1,80,0,0

[Colours]
Combo1 : 255,255,128
Combo2 : 21,249,220
Combo3 : 210,210,210
Combo4 : 251,137,11

[HitObjects]
180,80,1214,2,0,B|256:128|332:80,1,160,0|2
376,148,1728,1,0
328,212,1899,2,0,B|290:190|252:211,1,80
196,272,2242,1,2
132,224,2414,6,0,B|132:136|56:92,1,160
48,184,2928,1,2
48,184,3099,2,0,B|190:102,1,160
256,64,3614,1,2
336,64,3785,1,0
428,144,3956,5,0
256,312,4299,1,2
256,312,4471,1,0
84,144,4813,1,0
428,144,5156,1,2
410,217,6013,2,2,B|332:245|256:273|176:245|100:213,1,320,0|2
184,352,7042,5,2
312,252,7385,1,0
348,180,7556,1,0
312,108,7728,1,2
276,36,7899,2,0,B|192:64|162:142,1,160
100,192,8413,1,2
162,241,8585,2,0,B|192:320|276:348,1,160
332,288,9099,1,2
400,244,9271,1,0
404,84,9442,5,12
404,84,9613,1,8
256,144,9956,2,0,B|256:184|256:184|212:192|188:216|179:264,1,160,8|0
260,264,10471,1,0
332,232,10642,2,0,B|372:156|319:80,1,160,8|0
256,36,11156,5,2
36,192,11499,1,2
256,348,11842,1,2
476,192,12185,6,0,B|400:148|324:192,1,160,4|8
256,148,12699,1,0
188,192,12871,1,0
120,148,13042,1,0
188,104,13214,1,8
388,116,13385,6,0,B|432:192|388:268,1,160,2|0
324,320,13899,1,8
256,280,14071,1,0
256,280,14156,1,0
256,280,14242,1,0
308,128,14414,1,0
164,60,14585,1,8
176,220,14756,1,8
308,127,14928,6,0,B|330:211|415:234,1,160,2|8
416,156,15442,1,0
416,156,15614,2,0,B|331:178|308:263,1,160,0|8
264,332,16128,2,0,B|104:332,1,160,2|0
52,272,16642,5,8
188,188,16814,1,0
324,272,16985,2,8,B|336:184|268:116,1,160,0|8
276,124,17499,1,8
432,84,17671,5,6
468,156,17842,1,0
432,228,18014,1,8
424,308,18185,2,0,B|364:292|352:232|352:232|312:201,1,160,2|0
256,144,18699,1,8
112,72,18871,6,0,B|72:148|102:226,1,160,6|0
251,270,19385,1,8
400,312,19556,2,0,B|440:236|410:158,1,160,6|0
296,48,20071,1,8
180,157,20242,1,8
296,268,20414,5,4
296,268,20585,1,0
52,60,20928,1,8
52,60,21271,1,0
140,368,21614,1,8
140,368,21956,1,0
300,92,22299,1,8
300,92,22642,1,0
300,92,22814,1,8
424,192,23156,5,4
336,328,23328,1,0
176,328,23499,1,0
88,192,23671,1,0
256,40,25728,5,0
100,320,26071,1,0
256,360,26242,1,0
412,320,26414,1,0
472,264,28128,5,0
472,264,28299,1,4
408,316,28471,5,0
408,316,28556,1,0
408,316,28642,2,0,B|392:224|308:200,1,160,4|8
304,280,29156,1,0
244,336,29328,2,0,B|164:336,1,80
108,280,29671,1,8
44,136,29842,6,0,B|84:112|120:140|120:140|156:112|196:136,1,160
244,196,30356,1,8
324,196,30528,1,0
376,256,30699,2,0,B|416:212|392:160|392:160|448:142,1,160,2|8
388,84,31214,5,2
388,84,31299,1,2
388,84,31385,2,0,B|296:88|236:130,1,160,2|8
124,300,31899,2,0,B|216:296|275:253,1,160,2|0
424,192,32414,1,8
275,130,32585,2,0,B|216:88|124:84,1,160,2|0
275,130,33099,1,8
424,192,33271,5,0
424,192,33356,1,8
424,192,33442,1,8
308,304,33614,1,8
168,228,33785,1,4
324,192,34128,5,0
204,88,34299,1,0
84,192,34471,1,0
204,296,34642,1,0
408,192,36699,5,0
124,44,37042,1,0
60,192,37214,1,0
124,340,37385,1,0
356,96,39099,5,0
356,96,39271,1,4
412,152,39442,5,0
412,152,39528,1,0
412,152,39613,2,0,B|428:212|428:212|356:212|356:260,1,160,4|8
284,296,40128,1,0
212,260,40299,2,0,B|124:236|124:132,1,160,0|8
44,140,40813,2,0,B|204:140,1,160
216,60,41328,2,0,B|256:52|296:60,1,80,8|0
372,152,41671,6,0,B|444:221|373:290,1,160,2|8
372,289,42185,1,0
140,232,42356,2,0,B|68:163|139:94,1,160,2|8
139,94,42871,1,0
240,160,43042,5,2
340,228,43213,1,0
232,284,43385,1,8
240,160,43556,2,0,B|264:112|348:100|348:100|348:67,1,160,2|0
448,132,44071,1,8
488,288,44242,5,0
488,288,44328,1,8
488,288,44414,1,8
384,168,44585,1,0
280,288,44756,2,0,B|248:303|216:336|216:336|184:304|152:288,1,160,4|4
36,180,45442,6,0,B|105:108|174:179,1,160,8|0
174,179,45956,1,0
105,221,46128,2,0,B|105:57,1,160,8|0
407,163,46813,2,0,B|407:327,1,160,8|0
256,308,47328,1,0
256,148,47499,1,8
388,72,47671,5,2
388,72,47756,1,2
388,72,47842,2,0,B|344:148|256:148,1,160,4|8
124,312,48356,2,0,B|167:235|255:236,1,160,2|0
255,235,48871,1,8
352,308,49042,6,0,B|416:260|416:260|480:308,1,160,2|0
416,356,49556,2,0,B|416:188,1,160,10|0
472,88,50071,1,0
416,196,50242,1,8
360,88,50413,1,0
260,212,50585,6,0,B|216:252|168:184|168:184|119:184,1,160,4|8
120,104,51099,2,0,B|120:264,1,160
188,308,51613,1,8
260,340,51785,6,0,B|348:328|402:273,1,160,2|0
348,144,52299,1,8
252,44,52471,2,0,B|164:56|109:110,1,160,2|0
116,248,52985,1,8
254,260,53156,6,0,B|324:260|364:224|364:224|406:224,1,160,2|0
407,143,53671,2,0,B|364:143|364:143|324:107|254:106,1,160,10|0
196,52,54185,1,0
137,106,54356,2,0,B|137:186,1,80,8|0
56,186,54699,2,0,B|216:186,1,160,4|8
368,240,55385,6,0,B|376:287|336:307,1,80,2|0
176,307,55728,2,0,B|136:287|144:240,1,80,2|0
236,108,56071,2,0,B|312:152|387:108,1,160,4|8
388,108,56585,1,0
408,32,56756,6,0,B|364:107|408:184,1,160,2|8
104,352,57442,2,0,B|148:277|104:200,1,160,2|8
256,144,57956,1,0
408,32,58128,2,0,B|364:107|408:184,1,160,2|8
407,183,58642,1,0
300,304,58813,6,0,B|179:198,1,160,2|8
100,204,59328,2,0,B|63:166|148:81|189:118,1,160,2|0
256,72,59842,1,8
413,202,60013,2,0,B|448:166|363:81|324:116,1,160,2|0
332,198,60528,2,0,B|212:304,1,160,10|8
136,332,61042,2,0,B|56:332,2,80,0|8|0
56,192,61556,5,4
56,192,61728,1,0
288,52,62071,2,0,B|384:80|412:152,1,160,4|0
256,192,62585,1,8
409,236,62756,2,0,B|360:248|360:248|360:304|313:342,1,160,4|0
256,192,63271,1,8
198,342,63442,2,0,B|152:304|152:248|152:248|102:236,1,160,4|0
256,192,63956,1,8
48,72,64299,5,4
176,172,64471,1,0
336,172,64642,1,0
464,72,64813,1,4
256,312,65156,5,0
176,172,65328,1,0
336,172,65499,1,4
336,172,65842,5,0
176,172,66013,1,0
256,312,66185,1,4
256,312,66528,5,2
284,312,66613,1,0
312,312,66699,1,0
340,312,66785,1,0
368,312,66871,1,0
396,312,66956,1,0
424,312,67042,6,0,B|468:244|470:160,1,160,4|8
420,80,67556,1,0
368,161,67728,2,0,B|288:161,1,80
236,80,68071,1,8
156,28,68242,6,0,B|156:68|144:140|220:156,1,160,2|0
256,248,68756,1,8
328,312,68928,2,0,B|288:352|224:352|184:312,1,160,2|0
256,248,69442,1,8
256,152,69613,1,0
184,88,69785,6,0,B|224:48|288:48|328:88,1,160,4|8
416,48,70299,2,0,B|416:128,1,80,0|0
452,216,70642,2,0,B|432:236|400:236|380:216,1,80,0|8
220,220,70985,6,0,B|163:220|118:265|118:321,1,160,2|0
214,316,71499,1,8
214,316,71671,2,0,B|98:200,1,160,2|0
124,108,72185,2,0,B|180:164,1,80,10|2
256,224,72528,6,0,B|295:231|324:193|324:193|353:231|393:224,1,160,4|8
419,132,73042,1,0
364,52,73213,2,0,B|324:36|284:52,1,80
231,132,73556,1,8
118,231,73728,6,0,B|96:284|96:284|132:344|181:316,1,160,4|0
256,176,74242,1,8
393,232,74413,2,0,B|416:284|416:284|380:344|330:316,1,160,4|0
256,176,74928,1,8
404,120,75099,1,0
256,60,75271,6,0,B|168:56|128:140,1,160,8|0
52,120,75785,2,0,B|140:116|180:200,1,160,8|0
179,279,76299,1,0
112,320,76471,2,0,B|146:374|210:374|246:320,1,160,8|0
179,279,76985,1,0
244,236,77156,2,0,B|210:182|146:182|110:236,1,160,8|0
111,233,77671,1,8
204,104,78013,6,0,B|281:70|365:106,1,160,4|8
412,184,78528,1,0
316,168,78699,2,0,B|277:151|235:169,1,80
144,184,79042,1,8
76,252,79213,6,0,B|110:306|174:306|210:252,1,160,2|0
144,184,79728,1,8
144,184,79899,2,0,B|144:344,1,160,2|0
256,228,80413,1,8
364,344,80585,1,0
472,228,80756,6,0,B|440:152|371:106,1,160,4|8
328,192,81271,2,0,B|362:214|378:252,1,80
416,340,81614,2,0,B|376:344|336:340,1,80,0|8
215,332,81956,5,2
284,264,82128,1,0
215,196,82299,1,0
144,264,82471,1,10
68,124,82642,2,0,B|97:124|99:87|99:87|120:110|141:87|141:87|144:124|173:124,1,160,2|2
236,48,83156,2,0,B|276:128|215:196,1,160,10|4
388,292,83842,5,8
308,348,84013,1,0
228,292,84185,1,0
308,236,84356,2,0,B|338:210|338:210|338:170,1,80,0|8
338,169,84699,1,4
188,40,85042,5,0
128,116,85213,1,8
188,192,85385,2,0,B|128:244|128:244|128:324,1,160,4|0
288,344,85899,1,8
340,192,86071,1,0
288,40,86242,5,12
288,40,86413,1,0
92,292,86756,1,8
92,292,87099,1,0
140,108,87442,6,0,B|212:152|296:152|372:108,1,240,8|2
468,328,88299,1,2
44,328,88642,1,6
256,88,88985,6,0,B|256:248,1,160,4|8
176,248,89499,1,0
216,316,89671,1,0
296,316,89842,1,0
336,248,90014,1,8
440,128,90185,6,0,B|392:128|392:128|364:168|292:168,1,160
256,52,90699,1,8
152,112,90871,1,0
152,112,90956,1,0
152,112,91042,1,0
60,188,91214,1,0
172,228,91385,1,8
152,112,91556,1,8
292,188,91728,6,0,B|360:248|362:327,1,160,2|12
363,327,92242,1,0
380,168,92414,1,2
224,152,92585,1,2
208,312,92756,1,10
224,152,92928,2,0,B|172:96|128:168|128:168|84:96|32:152,1,240,2|8
56,312,93614,1,2
56,312,93699,1,2
56,312,93785,2,0,B|144:328|201:266,1,160,2|12
456,312,94299,5,10
456,312,94385,1,2
456,312,94471,2,0,B|368:328|310:266,1,160,2|10
276,244,94899,1,0
244,220,94985,1,2
232,184,95071,1,0
232,144,95156,1,2
244,108,95242,1,0
276,84,95328,1,2
316,80,95414,1,0
344,108,95499,1,10
196,44,95671,6,0,B|173:128|88:151,1,160,4|0
12,172,96185,1,8
12,172,96356,2,0,B|88:127|164:172,1,160,4|0
163,171,96871,1,8
372,52,97214,5,8
372,52,97385,1,0
140,332,97728,1,8
140,332,98071,1,0
36,28,98414,6,0,B|115:65|115:157,1,160,8|0
476,356,99099,2,0,B|396:318|396:226,1,160,8|0
397,228,99614,1,8
256,192,99956,5,4
256,192,100042,12,0,104414
199,94,104756,37,8
158,248,104928,1,8
312,289,105099,1,8
353,135,105271,1,8
