osu file format v9

[General]
AudioFilename: COSMOLAGOON (Short Ver.).mp3
AudioLeadIn: 1250
PreviewTime: 66857
Countdown: 0
SampleSet: Normal
StackLeniency: 0.7
Mode: 0
LetterboxInBreaks: 0

[Editor]
DistanceSpacing: 1
BeatDivisor: 4
GridSize: 4

[Metadata]
Title:COSMOLAGOON (Short Ver.)
Artist:Shimotsuki Haruka
Creator:Darksonic
Version:Hard
Source:Trinity Universe
Tags:verdisphena opening Sony Theme Kanae Aoki Daisuke Achiwa nippon ichi software idea factory gust corporation

[Difficulty]
HPDrainRate:5
CircleSize:4
OverallDifficulty:6
ApproachRate:7
SliderMultiplier:1.4
SliderTickRate:2

[Events]
//Background and Video events
0,0,"BG.jpg"
Video,699,"Trinity Universe Opening HD.avi"
//Break Periods
//Storyboard Layer 0 (Background)
//Storyboard Layer 1 (Fail)
//Storyboard Layer 2 (Pass)
//Storyboard Layer 3 (Foreground)
//Storyboard Sound Samples
//Background Colour Transformations
3,100,163,162,255

[TimingPoints]
1214,342.857142857143,4,2,2,80,1,0
9442,-100,4,2,1,80,0,0
20414,-100,4,1,0,75,0,0
20928,-100,4,2,1,80,0,0
21271,-100,4,1,0,75,0,0
21614,-100,4,2,1,80,0,0
21956,-100,4,1,0,75,0,0
22299,-100,4,2,1,80,0,0
22642,-100,4,1,0,75,0,0
22814,-100,4,2,1,80,0,0
23156,-100,4,1,0,70,0,0
28299,-100,4,2,1,80,0,0
34128,-100,4,1,0,70,0,0
39271,-100,4,2,1,80,0,0
64299,-100,4,1,0,75,0,0
66528,-100,4,2,1,80,0,0
67042,-100,4,2,1,80,0,1
75271,-100,4,2,1,80,0,0
78014,-100,4,2,1,80,0,1
86414,-100,4,1,0,75,0,1
86756,-100,4,2,1,80,0,1
87099,-100,4,1,0,75,0,1
87442,-100,4,2,1,80,0,1
88985,-100,4,2,1,80,0,0
97385,-100,4,1,0,75,0,0
97728,-100,4,2,1,80,0,0
98071,-100,4,1,0,75,0,0
98414,-100,4,2,1,80,0,0
98756,-100,4,1,0,75,0,0
99099,-100,4,2,1,80,0,0
99442,-100,4,1,0,75,0,0
99614,-100,4,2,1,80,0,0
99956,-100,4,2,1,75,0,0
101328,-100,4,2,1,60,0,0
102699,-100,4,2,1,45,0,0
104071,-100,4,2,1,30,0,0
104414,-100,4,2,1,5,0,0
104756,-100,4,2,1,80,0,0

[Colours]
Combo1 : 255,255,128
Combo2 : 21,249,220
Combo3 : 210,210,210
Combo4 : 251,137,11

[HitObjects]
440,72,1214,2,0,B|400:132|330:155,1,140,0|2
228,252,1899,2,0,B|176:304,1,70
116,272,2242,1,2
80,212,2414,6,0,B|56:144|56:144|91:86,1,140,0|0
296,36,3099,2,0,B|320:104|320:104|284:161,1,140,2|0
228,252,3614,1,2
228,252,3785,1,0
296,332,3956,6,0,B|340:304|340:304|388:304|421:276,1,140,0|2
421,205,4471,2,0,B|387:177|339:177|339:177|295:149,2,140,0|0|2
295,149,6013,2,2,B|259:189|215:209|171:221|127:209|83:189|47:149,1,280,0|2
171,84,7042,5,2
308,60,7385,2,0,B|344:44|376:60,1,70
416,116,7728,1,2
468,68,7899,2,0,B|500:104|488:152|456:176|456:176|456:204,1,140
400,244,8413,1,2
400,243,8585,2,0,B|328:216|263:244,1,140
263,244,9099,1,2
72,328,9442,6,0,B|72:258,1,70,12|8
144,140,9956,2,0,B|144:280,1,140,8|0
196,328,10471,1,0
248,280,10642,2,0,B|248:140,1,140,8|0
352,124,11156,5,2
224,64,11499,1,2
96,124,11842,1,2
224,180,12185,6,0,B|284:224|353:229,1,140,4|8
448,128,12871,1,0
396,80,13042,1,0
328,56,13214,1,8
260,76,13385,6,0,B|196:104|196:104|156:161,1,140
96,124,13899,2,0,B|214:198,1,140,8|0
276,236,14414,1,0
301,301,14585,1,8
352,252,14756,5,0
352,252,14842,1,0
352,252,14928,2,0,B|427:240|473:189,1,140,2|8
372,92,15614,1,0
312,56,15785,1,0
252,92,15956,1,8
236,24,16128,6,0,B|184:36|180:92|180:92|136:92,1,140
92,36,16642,2,0,B|32:96|98:158,1,140,8|0
98,158,17156,1,0
98,158,17328,1,8
204,256,17671,6,0,B|256:304|256:304|308:256,1,140,6|8
306,257,18185,1,2
360,52,18528,1,2
151,51,18871,6,0,B|192:120|151:184,1,140,6|0
80,304,19556,2,0,B|39:235|80:171,1,140,6|0
124,116,20071,1,8
256,64,20414,6,0,B|284:44|284:44|320:44,1,70,4|0
381,166,20928,2,0,B|313:166|313:166|255:208,1,140,8|0
129,166,21614,2,0,B|197:166|197:166|254:208,1,140,8|0
255,347,22299,2,0,B|255:207,1,140,8|0
255,207,22814,1,8
164,100,23156,5,4
220,56,23328,1,0
292,56,23499,1,0
348,100,23671,1,0
256,280,25728,6,0,B|256:140,1,140
256,140,26242,1,0
256,140,26414,1,0
112,292,28128,6,0,B|182:292,1,70,0|4
220,232,28471,1,0
220,232,28556,1,0
220,232,28642,2,0,B|280:184|348:184,1,140,4|8
320,48,29328,5,0
256,76,29499,1,0
192,48,29671,1,8
256,76,29842,2,0,B|283:148|255:213,1,140
185,213,30356,2,0,B|329:213,1,140,8|0
360,348,31042,5,8
152,348,31385,2,0,B|96:304|96:304|96:235,1,140,2|8
96,235,31899,1,2
220,64,32242,5,0
256,124,32414,1,8
220,184,32585,2,0,B|248:252|326:265,1,140
356,336,33099,2,0,B|412:304|400:248|400:248|433:239,1,140,8|8
433,239,33614,1,8
433,239,33785,1,4
304,156,34128,5,0
256,208,34299,1,0
208,156,34471,1,0
256,104,34642,1,0
188,328,36699,6,0,B|256:296|324:328,1,140
323,327,37213,1,0
323,327,37385,1,0
222,176,39099,6,0,B|256:192|290:176,1,70,0|4
256,112,39442,2,0,B|256:56,2,35,0|0|4
160,300,39956,5,8
220,264,40128,1,0
292,264,40299,1,0
352,300,40471,1,0
292,336,40642,1,8
220,336,40813,1,0
256,198,41156,1,0
256,198,41328,2,0,B|256:128,1,70,8|0
196,80,41671,6,0,B|224:40|292:40|316:84,1,140,2|8
256,128,42185,1,0
316,172,42356,2,0,B|292:216|224:216|196:176,1,140,2|8
104,276,43042,5,2
204,312,43213,1,0
308,312,43385,1,8
408,276,43556,2,0,B|364:216|293:199,1,140,2|0
240,152,44071,1,8
188,200,44242,2,0,B|152:200,2,35,0|8|8
240,248,44585,1,0
294,199,44756,1,4
316,60,45099,6,0,B|294:38|266:26|242:26|214:38|192:60,1,140,4|8
148,116,45613,1,0
104,172,45785,6,0,B|152:228|227:227,1,140,2|8
316,116,46471,2,0,B|268:60|192:60,1,140,2|8
192,60,46985,1,0
192,60,47156,1,2
192,200,47499,1,8
224,264,47671,5,2
224,264,47756,1,2
224,264,47842,2,0,B|292:248|292:248|360:264,1,140,6|8
380,332,48356,2,0,B|436:316|432:248|432:248|460:196,1,140,2|0
447,148,48871,1,8
392,104,49042,6,0,B|324:72|256:104,1,140,2|0
122,104,49556,2,0,B|190:72|258:104,1,140,10|0
257,103,50071,1,0
257,103,50242,1,8
144,224,50585,6,0,B|147:274|147:274|175:318|220:318,1,140,4|8
291,318,51099,2,0,B|336:318|364:274|364:274|368:224,1,140
332,160,51613,1,8
304,96,51785,2,0,B|268:72|256:44|256:44|244:72|208:96,1,140,2|0
256,148,52299,1,8
256,219,52471,2,0,B|176:240|139:165,1,140,2|0
152,96,52985,1,8
219,76,53156,1,2
289,76,53328,6,0,B|323:60|357:76,1,70,4|0
392,176,53671,2,0,B|324:208|256:175,1,140,10|0
188,176,54185,1,0
136,224,54356,1,8
188,272,54528,1,0
256,292,54699,2,0,B|324:260|392:293,1,140,4|2
356,156,55385,6,0,B|328:128|280:132,1,70,2|0
156,156,55728,2,0,B|184:128|232:132,1,70,10|0
324,68,56071,2,0,B|256:38|188:68,1,140,4|8
148,200,56756,6,0,B|148:272|148:272|193:323,1,140,2|8
364,200,57442,2,0,B|364:272|364:272|320:323,1,140,2|8
256,296,57956,1,0
256,224,58128,2,0,B|256:84,1,140,2|8
256,84,58642,1,0
192,108,58813,6,0,B|256:60|320:108,1,140,2|8
320,180,59328,2,0,B|256:228|192:180,1,140,2|0
128,148,59842,1,8
72,108,60013,2,0,B|24:160|24:160|24:229,1,140,2|0
64,288,60528,2,0,B|204:288,1,140,10|8
256,156,61213,1,8
304,288,61556,6,0,B|304:218,1,70,4|0
328,80,62071,1,12
256,200,62413,1,0
184,80,62756,1,12
256,200,63099,1,0
256,60,63442,1,4
256,200,63785,1,8
72,304,64299,6,0,B|20:348,2,70,4|0|0
140,328,64813,2,0,B|204:376|268:328,1,140,4|0
328,292,65328,1,0
269,254,65499,2,0,B|205:206|141:254,1,140,4|0
80,292,66013,1,0
140,254,66185,1,4
76,128,66528,6,0,B|140:96|140:96|204:128,1,140,2|0
201,126,66956,1,0
201,126,67042,1,4
312,44,67385,6,0,B|372:80|372:80|400:104|399:142,1,140,8|0
348,192,67899,1,0
296,240,68071,1,8
300,308,68242,2,0,B|256:364|256:364|212:308,1,140,2|0
216,240,68756,1,8
164,192,68928,2,0,B|165:154|137:130|137:130|77:94,1,140,2|0
36,152,69442,1,8
84,204,69613,1,0
36,256,69785,6,0,B|64:324|129:356,1,140,4|8
200,356,70299,2,0,B|265:323|293:255,1,140,0|0
188,72,70985,6,0,B|256:44|324:72,1,140,2|0
324,284,71671,2,0,B|256:312|188:284,1,140,2|0
256,204,72185,1,8
128,144,72528,6,0,B|160:76|224:36,1,140,4|8
256,100,73042,1,0
293,39,73213,2,0,B|352:76|384:144,1,140,0|8
383,143,73728,1,4
316,268,74071,5,0
256,304,74242,1,8
196,268,74413,2,0,B|144:220|144:220|144:150,1,140,4|0
160,84,74928,5,8
256,44,75099,1,8
352,84,75271,1,12
352,84,75442,1,0
256,192,75785,5,8
256,192,76128,1,0
160,300,76471,1,8
160,300,76813,1,0
256,192,77156,1,8
220,56,77499,1,0
292,56,77671,1,8
416,120,78013,6,0,B|416:196|356:240,1,140,4|8
308,292,78528,1,0
256,340,78699,1,0
204,292,78871,1,0
155,240,79042,1,8
204,188,79213,6,0,B|240:216|256:236|256:236|272:216|308:188,1,140
256,140,79728,1,8
308,92,79899,2,0,B|272:64|256:44|256:44|240:64|204:92,1,140,0|0
136,104,80413,1,8
104,168,80585,1,0
160,208,80756,6,0,B|144:288|204:332,1,140,4|8
307,332,81271,2,0,B|367:288|352:208,1,140
256,248,81785,1,8
204,156,81956,6,0,B|256:109|256:109|308:156,1,140,2|2
307,155,82471,1,10
324,52,82642,2,0,B|256:20|188:52,1,140,2|0
188,51,83156,1,10
112,168,83499,6,0,B|176:212|199:275,1,140,4|8
256,320,84013,1,0
316,356,84185,2,0,B|392:356,1,70
448,320,84528,1,8
412,260,84699,6,0,B|368:184|368:184|315:184,1,140,4|0
256,144,85213,1,8
196,184,85385,2,0,B|144:184|144:184|100:260,1,140,4|0
156,304,85899,5,8
256,336,86071,1,0
356,304,86242,1,12
356,304,86413,1,0
440,192,86756,5,8
440,192,87099,1,0
331,104,87442,6,0,B|298:151|256:176|256:176|214:151|181:104,1,210,8|0
184,244,88299,1,2
324,244,88642,1,6
256,124,88985,6,0,B|200:76|124:85,1,140,4|8
32,192,89671,1,0
76,248,89842,1,0
144,272,90014,1,8
216,272,90185,6,0,B|236:224|256:216|256:216|276:224|296:272,1,140
295,271,90699,1,8
412,192,91042,1,0
372,132,91214,1,0
320,88,91385,1,8
252,72,91556,1,0
213,131,91728,6,0,B|149:163|121:232,1,140,2|12
256,274,92414,1,2
352,320,92585,1,2
340,216,92756,1,10
256,274,92928,2,0,B|256:217|256:217|214:175|256:133|256:133|256:77,1,210,2|8
188,60,93614,5,2
188,60,93699,1,2
188,60,93785,2,0,B|256:92|324:60,1,140,2|12
388,92,94299,2,2,B|420:120,2,35
484,192,94814,5,8
484,192,94899,1,0
484,192,94985,1,0
424,228,95156,1,0
376,280,95328,1,0
328,228,95499,1,8
268,192,95671,6,0,B|200:164|132:192,1,140,4|0
72,228,96185,1,8
132,264,96356,2,0,B|200:292|268:264,1,140,4|0
328,228,96871,1,8
292,92,97214,6,0,B|222:92,1,70,8|0
188,228,97728,1,8
188,228,98071,1,0
256,352,98414,1,8
256,352,98756,1,0
324,228,99099,1,8
256,104,99442,1,0
256,104,99614,1,8
188,228,99956,1,4
256,192,100042,12,0,104414
184,232,104756,21,8
220,292,104928,1,8
292,292,105099,1,8
328,232,105271,1,8
