osu file format v9

[General]
AudioFilename: True.mp3
AudioLeadIn: 1000
PreviewTime: 54025
Countdown: 1
SampleSet: Normal
StackLeniency: 0.7
Mode: 0
LetterboxInBreaks: 1

[Editor]
DistanceSpacing: 0.7
BeatDivisor: 4
GridSize: 8

[Metadata]
Title:True (TV Size)
Artist:Shimokawa Mikuni
Creator:RinNa
Version:Insane
Source:Dragon Drive
Tags:

[Difficulty]
HPDrainRate:6
CircleSize:5
OverallDifficulty:7
ApproachRate:7
SliderMultiplier:1.8
SliderTickRate:1

[Events]
//Background and Video events
0,0,"DragonDrive.jpg"
//Break Periods
2,24269,26327
//Storyboard Layer 0 (Background)
//Storyboard Layer 1 (Fail)
//Storyboard Layer 2 (Pass)
//Storyboard Layer 3 (Foreground)
//Storyboard Sound Samples
//Background Colour Transformations
3,100,163,162,255

[TimingPoints]
385,394.736842105263,4,1,0,100,1,0
27227,-133.333333333333,4,1,0,100,0,0
39661,-100,4,1,0,100,0,0

[HitObjects]
256,192,385,12,0,1569
128,80,1963,5,0
160,80,2062,1,0
192,80,2161,1,0
224,80,2259,1,0
256,80,2358,1,0
288,80,2457,1,0
288,288,2753,1,0
256,288,2852,1,0
224,288,2950,1,0
192,288,3049,1,0
160,288,3148,2,0,B|80:288|64:240|64:152,2,180
160,288,4134,1,0
192,208,4332,5,0
248,144,4529,1,0
248,144,4727,1,0
320,96,4924,1,0
344,80,5023,1,0
368,64,5121,1,0
456,72,5319,1,0
456,160,5516,1,0
456,192,5615,1,0
456,224,5713,1,0
456,256,5812,1,0
456,288,5911,1,0
368,320,6108,1,0
368,320,6306,1,0
368,320,6503,2,0,B|264:352|192:312|136:216,2,270
440,272,7884,5,0
464,184,8082,1,0
432,104,8279,2,0,B|488:80,4,45
368,40,8871,2,0,B|400:0,4,45
368,40,9463,2,0,B|240:192,2,180
440,96,10450,5,0
440,184,10648,1,0
376,248,10845,1,0
352,264,10944,1,0
328,280,11042,1,0
248,328,11240,2,0,B|200:360|168:312,1,90
170,314,11634,1,0
104,256,11832,1,0
104,224,11931,1,0
104,192,12029,1,0
104,160,12128,1,0
104,128,12227,2,0,B|104:72|144:40|208:48|248:112,4,180
104,128,14003,1,0
104,216,14200,5,0
104,216,14398,1,0
104,304,14595,2,0,B|104:360|168:360,1,90
248,360,14990,2,0,B|304:360|304:288,1,90
303,302,15384,1,0
272,72,15779,6,0,B|376:64|448:136,1,180
438,126,16371,2,0,B|512:224|440:328,1,180
459,295,16963,1,0
368,296,17161,1,0
336,296,17259,1,0
304,296,17358,1,0
272,296,17457,1,0
240,296,17556,2,0,B|120:296,4,90
240,296,18542,1,0
240,208,18740,5,0
240,208,18937,1,0
240,208,19134,1,0
240,120,19332,2,0,B|240:72|312:72,1,90
303,72,19727,1,0
303,72,19924,2,0,B|368:72|368:136,1,90
367,122,20319,1,0
367,122,20516,2,0,B|368:224,4,90
256,192,21503,12,0,24069
88,80,27227,6,0,B|48:80|48:136,1,67.4999979883433
48,125,27621,2,0,B|48:184|104:184,1,67.4999979883433
144,192,28016,1,0
144,192,28213,1,0
208,192,28411,2,0,B|248:192|248:240,1,67.4999979883433
247,235,28806,2,0,B|248:280|312:280,1,67.4999979883433
291,278,29200,2,0,B|344:280|344:224,1,67.4999979883433
341,244,29595,1,0
344,176,29792,5,0
344,112,29990,1,0
344,48,30187,1,0
344,48,30385,2,0,B|288:24|224:32|208:88,1,134.999995976687
219,64,30977,2,0,B|168:144,4,67.4999979883433
144,176,31963,6,0,B|96:248|144:320|240:320,1,202.49999396503
221,319,32753,1,0
256,192,32950,12,0,34529
328,56,34727,6,0,B|408:88|376:184,2,134.999995976687
352,80,35713,1,0
352,80,35911,2,0,B|256:80|256:176,1,134.999995976687
257,155,36503,1,0
257,155,36700,2,0,B|256:248|144:248,1,134.999995976687
175,245,37292,1,0
175,245,37490,1,0
175,245,37687,1,0
175,245,37884,2,0,B|80:248|40:120|80:56|144:48,2,269.999991953373
264,248,39661,5,0
296,248,39759,1,0
328,248,39858,2,0,B|400:248|424:208|424:112,1,180
423,124,40450,1,0
360,64,40648,1,0
360,64,40845,1,0
280,96,41042,1,0
248,112,41141,1,0
216,128,41240,1,0
192,144,41338,1,0
168,160,41437,1,0
88,208,41634,1,0
64,296,41832,1,0
144,328,42029,5,0
144,328,42227,1,0
232,304,42424,1,0
232,304,42621,1,0
312,272,42819,2,0,B|424:208|424:120,2,180
240,216,43806,1,0
224,192,43904,1,0
208,168,44003,1,0
192,144,44102,1,0
176,120,44200,2,0,B|120:40,4,90
256,352,45384,5,0
256,352,45582,1,0
256,32,45977,1,0
256,32,46174,1,0
336,72,46371,1,0
400,136,46569,1,0
400,168,46667,1,0
400,200,46766,1,0
344,272,46963,1,0
256,272,47161,2,0,B|256:208,2,45
168,272,47556,1,0
168,272,47753,1,0
80,272,47950,2,0,B|80:328,2,45
80,184,48345,1,0
80,184,48542,1,0
128,104,48740,5,0
128,104,48937,1,0
128,104,49134,2,0,B|208:40|312:80,1,180
376,128,49727,1,0
400,152,49825,1,0
416,176,49924,1,0
416,264,50121,1,0
336,304,50319,1,0
304,304,50417,1,0
272,304,50516,1,0
184,304,50713,2,0,B|120:304,4,45
184,304,51306,2,0,B|184:360,4,45
184,304,51898,2,0,B|240:304,4,45
184,304,52490,2,0,B|184:120|264:64|416:64|464:168|416:328,1,540
80,88,54069,5,0
80,120,54167,1,0
80,152,54266,1,0
80,184,54365,1,0
80,216,54463,1,0
80,304,54661,1,0
168,304,54858,1,0
200,304,54957,1,0
232,304,55056,1,0
264,304,55154,1,0
296,304,55253,1,0
328,304,55352,1,0
352,288,55450,1,0
376,272,55549,1,0
400,248,55648,2,0,B|464:192|464:64,2,180
328,192,56634,5,0
328,192,56832,1,0
264,136,57029,2,0,B|224:104|176:160,1,90
184,150,57424,1,0
184,216,57621,1,0
184,248,57720,1,0
192,280,57819,1,0
208,304,57917,1,0
232,320,58016,1,0
264,328,58115,1,0
296,328,58213,2,0,B|400:328|440:224,2,180
296,328,59200,2,0,B|352:232|312:144,1,180
96,96,59990,5,0
96,128,60088,1,0
96,160,60187,1,0
96,248,60384,1,0
96,248,60582,1,0
96,336,60779,2,0,B|48:336,4,45
96,336,61371,2,0,B|256:336|304:248|304:184,2,270
136,256,62753,5,0
192,184,62950,1,0
264,128,63148,1,0
264,128,63345,1,0
352,128,63542,1,0
384,128,63641,1,0
416,128,63740,1,0
464,200,63937,1,0
464,232,64036,1,0
464,264,64134,1,0
424,344,64332,1,0
392,344,64431,1,0
360,344,64529,1,0
328,344,64628,1,0
296,344,64727,2,0,B|184:344|192:216|192:208,1,180
191,223,65319,1,0
191,223,65516,2,0,B|192:112|256:80|296:80,1,180
440,160,66306,6,0,B|480:192,2,45
368,208,66700,2,0,B|392:256,2,45
280,224,67095,2,0,B|288:304|160:328|128:304,4,180
280,224,68871,1,0
280,136,69069,1,0
280,136,69266,1,0
280,48,69463,1,0
280,48,69661,1,0
192,48,69858,1,0
160,48,69957,1,0
128,48,70056,1,0
64,104,70253,5,0
64,192,70450,1,0
72,224,70549,1,0
88,248,70648,1,0
112,272,70746,1,0
144,288,70845,1,0
176,296,70944,1,0
208,296,71042,1,0
240,296,71141,1,0
272,296,71240,2,0,B|424:296|448:128,2,270
272,296,72621,1,0
208,232,72819,5,0
208,232,73016,1,0
200,144,73213,1,0
200,144,73411,1,0
256,80,73608,1,0
288,80,73707,1,0
320,80,73806,1,0
352,80,73904,1,0
384,80,74003,1,0
448,144,74200,1,0
448,176,74299,1,0
448,208,74398,1,0
448,240,74496,1,0
448,272,74595,2,0,B|448:360|328:352|280:352,1,180
216,352,75187,5,0
136,312,75384,1,0
80,240,75582,2,0,B|40:264,2,45
56,152,75977,1,0
104,72,76174,2,0,B|72:40,4,45
104,72,76766,2,0,B|304:272,1,270
294,262,77556,1,0
384,264,77753,1,0
416,264,77852,1,0
448,264,77950,1,0
448,176,78148,2,0,B|496:176,2,45
416,88,78542,1,0
416,88,78740,1,0
328,88,78937,1,0
296,88,79036,1,0
264,88,79134,1,0
232,88,79233,1,0
200,88,79332,2,0,B|104:88|104:320,1,270
192,312,80121,5,0
224,312,80220,1,0
256,312,80319,1,0
344,312,80516,1,0
344,312,80713,2,0,B|408:312|408:240,1,90
408,168,81108,1,0
408,168,81306,1,0
408,80,81503,1,0
408,80,81700,1,0
320,56,81898,1,0
320,56,82095,1,0
264,128,82292,1,0
240,152,82391,1,0
216,176,82490,1,0
192,200,82588,1,0
168,224,82687,1,0
144,248,82786,1,0
120,272,82884,1,0
96,296,82983,1,0
72,320,83082,2,0,B|256:320,1,180
252,320,83674,2,0,B|440:320,1,180
496,320,84266,5,0
24,64,84661,1,0
480,64,85056,1,0
32,320,85450,1,0
256,192,85648,12,0,86634
256,96,86832,5,0
256,128,86931,1,0
256,160,87029,1,0
256,192,87128,1,0
256,224,87227,1,0
256,192,87424,12,0,88806
