osu file format v7

[General]
AudioFilename: Full_Metal_Panic_Fumoffu_-_Sore_ga_Ai_Deshou_TV_Size.mp3
AudioLeadIn: 0
PreviewTime: 47771
Countdown: 0
SampleSet: Soft
StackLeniency: 0.7
Mode: 0
LetterboxInBreaks: 1

[Editor]
DistanceSpacing: 0.800000011920929
BeatDivisor: 4
GridSize: 8

[Metadata]
Title:Sore ga, Ai Deshou (TV Size)
Artist:Shimokawa Mikuni
Creator:Astom
Version:Hard
Source:Full Metal Panic? Fumoffu
Tags:Sousuke Chidori

[Difficulty]
HPDrainRate:5
CircleSize:4
OverallDifficulty:6
SliderMultiplier:1.5
SliderTickRate:2

[Events]
//Background and Video events
0,0,"BG.png"
//Break Periods
//Storyboard Layer 0 (Background)
//Storyboard Layer 1 (Fail)
//Storyboard Layer 2 (Pass)
//Storyboard Layer 3 (Foreground)
//Storyboard Sound Samples
//Background Colour Transformations
3,100,0,0,0

[TimingPoints]
663.392518394328,600,4,2,0,80,1,0
13038,-100,4,2,0,20,0,0
14313,-100,4,2,0,0,0,0
14613,-100,4,2,0,80,0,0
18513,-100,4,2,0,0,0,0
18813,-100,4,2,0,80,0,0
24513,-100,4,2,0,50,0,0
25263,-100,4,2,0,40,0,0
25863,-100,4,2,0,30,0,0
26163,-100,4,2,0,20,0,0
26463,-100,4,2,0,10,0,0
26613,-100,4,2,0,0,0,0
27213,-100,4,2,0,80,0,0
32013,-100,4,2,0,50,0,0
33213,-100,4,2,0,80,0,0
34113,-100,4,2,0,40,0,0
35013,-100,4,2,0,80,0,0
38013,-100,4,2,0,0,0,0
38313,-100,4,2,0,50,0,0
39813,-100,4,2,0,80,0,0
47313,-100,4,2,0,0,0,0
47613,-100,4,2,0,80,0,0
48513,-100,4,2,0,50,0,0
48663,-100,4,2,0,50,0,1
48813,-100,4,2,0,80,0,1
50013,-100,4,2,0,0,0,1
50313,-100,4,2,0,80,0,1
50913,-100,4,2,0,50,0,0
51063,-100,4,2,0,50,0,1
51213,-100,4,2,0,80,0,1
57213,-100,4,2,0,50,0,1
58113,-100,4,2,0,100,0,1
58413,-100,4,2,0,50,0,1
59613,-100,4,2,0,80,0,1
66963,-100,4,2,0,80,0,0
67863,-100,4,2,0,80,0,1
68013,-100,4,2,0,80,0,0
68613,-100,4,2,0,0,0,0
68913,-100,4,2,0,80,0,0
72513,-100,4,2,0,0,0,0
74313,-100,4,2,0,80,0,0
82113,-100,4,2,0,10,0,0
84213,-100,4,2,0,80,0,0
87213,-100,4,2,0,30,0,0
89013,-100,4,2,0,20,0,0
89163,-100,4,2,0,10,0,0
89463,-100,4,2,0,0,0,0

[Colours]
Combo1 : 236,148,15
Combo2 : 253,168,104
Combo3 : 253,240,81

[HitObjects]
256,296,11163,1,0
256,296,11313,1,0
256,296,11463,2,0,B|312:280|320:232|320:232,1,75
328,224,11913,2,0,B|358:181|350:141|326:117|326:117,1,112.5
312,96,12513,2,0,B|285:61|237:37|189:61|189:61,1,112.5
256,192,13113,12,0,14463
256,192,15063,5,2
216,232,15363,2,0,B|168:280|168:280,2,37.5
256,192,15963,1,0
304,224,16263,1,2
352,192,16563,1,0
400,224,16863,1,2
448,192,17163,1,0
400,160,17463,2,0,B|384:120|320:104|232:88|160:144|128:184|128:184,1,300,2|0
368,192,19863,5,2
328,232,20163,2,0,B|280:280|280:280,2,37.5
280,200,20763,2,0,B|184:192|184:192,2,75
272,144,21663,2,0,B|216:80|216:80,2,75,0|0|2
112,64,23163,5,0
128,88,23313,1,0
152,104,23463,1,0
200,136,23763,2,0,B|232:168|272:208|232:280|232:280,1,150
256,192,24663,12,0,27063
256,160,27363,6,0,B|288:168|312:160|312:160,4,37.5
144,128,28563,2,0,B|120:112|80:128|80:128,4,37.5
200,152,29463,1,2
256,320,30363,5,0
200,296,30663,1,2
168,248,30963,1,0
168,248,31113,1,0
128,168,31563,1,0
120,112,31863,1,2
136,56,32163,2,0,B|160:144|232:176|320:184|320:184|320:176,1,225
312,240,33363,6,0,B|144:240|144:240,1,150
192,184,34263,2,0,B|32:184|32:184,1,150
48,120,35163,5,0
104,96,35463,1,2
152,128,35763,1,0
176,184,36063,1,2
216,232,36363,1,0
264,264,36663,1,2
320,264,36963,2,0,B|352:256|392:224|424:152|440:104|320:24|320:24,1,300
256,32,38463,5,2
200,48,38763,2,0,B|144:80|128:128|144:200|240:208|240:208,1,225
296,216,39963,1,0
352,208,40263,1,2
392,168,40563,1,0
392,168,40713,1,0
440,96,41163,1,0
472,48,41463,1,2
296,88,42363,5,0
256,48,42663,1,2
216,88,42963,1,0
216,88,43113,1,0
144,192,43563,6,0,B|104:240|16:232|-16:168|8:72|56:56|112:96|112:96|120:64|120:64|160:64|160:64|176:32|208:16|256:0|312:16|344:32|360:64|360:64|400:64|400:64|408:96|408:96|456:56|504:72|536:160|496:232|408:240|384:208|360:176|360:176,1,975,0|0
256,160,48063,5,2
288,208,48363,1,0
280,264,48663,5,4
240,304,48963,1,0
240,304,49113,2,0,B|192:296|152:272|112:232|80:192|72:160|72:104|72:104,1,262.5
88,64,50463,6,0,B|56:24|56:24,2,37.5,2|0|0
144,48,51063,5,4
128,104,51363,1,0
128,104,51513,2,0,B|176:88|224:80|272:80|344:80|416:120|416:120,1,262.5
424,152,52863,6,2,B|480:152|480:152,4,37.5
424,208,53763,5,0
384,248,54063,1,2
384,304,54363,1,0
344,344,54663,1,2
304,304,54963,1,0
304,248,55263,1,2
264,208,55563,1,0
224,248,55863,1,2
224,304,56163,1,0
224,304,56313,1,2
16,296,57363,6,0,B|32:240|80:200|200:208|304:288|64:400|-40:176|-16:96|56:80|144:72|192:104|256:168|256:168,1,525
256,216,59763,5,0
344,288,60063,1,0
408,192,60363,1,2
256,8,60963,1,2
96,192,61563,1,2
256,368,62163,1,0
256,248,62463,1,0
256,128,62763,2,0,B|280:96|280:96|232:96|232:96|256:32|256:32,1,150
136,40,63963,5,0
104,88,64263,1,2
120,144,64563,1,0
168,176,64863,1,2
224,192,65163,1,2
256,112,65613,6,0,B|256:176,15,37.5,0|0|0|0|0|0|0|0|0|0|0|2|2|2|2|6
296,192,68163,6,0,B|304:248|352:304|424:264|424:264,1,150
224,280,69663,6,0,B|184:320|184:320,4,37.5
72,192,71163,1,2
72,192,71313,1,2
72,104,71763,1,0
128,120,72063,1,2
160,168,72363,1,0
256,192,72663,12,0,74163
320,152,74763,5,0
296,176,74913,1,2
264,184,75063,2,0,B|208:192|160:152|152:88|152:88,1,150,2|0
184,48,75963,1,0
184,48,76113,1,0
272,40,76563,1,0
328,64,76863,1,2
368,104,77163,1,0
400,152,77463,5,2
384,208,77763,1,0
384,208,77913,2,0,B|368:288|280:304|240:296|208:272|208:272,1,187.5
184,256,78963,5,0
144,216,79263,1,0
136,160,79563,1,2
256,192,80163,1,2
368,240,80763,6,0,B|384:176|368:112|304:96|304:96,1,150
272,80,81663,1,2
216,80,81963,1,0
256,192,82263,12,0,84063
256,88,85263,5,0
288,136,85563,1,2
288,136,85713,1,2
360,88,86163,1,0
360,88,86313,1,0
392,136,86613,1,0
424,88,86913,1,0
464,168,87363,1,0
360,272,88113,5,2
360,272,88263,2,0,B|312:224|312:224,2,37.5,0|2|0
360,272,88713,2,0,B|400:312|400:312,4,37.5
