osu file format v12

[General]
AudioFilename: fmped.mp3
AudioLeadIn: 1500
PreviewTime: 38609
Countdown: 0
SampleSet: Soft
StackLeniency: 0.7
Mode: 0
LetterboxInBreaks: 0
WidescreenStoryboard: 0

[Editor]
Bookmarks: 8079
DistanceSpacing: 1.6
BeatDivisor: 4
GridSize: 4

[Metadata]
Title:Mou Ichido Kimi ni Aitai (TV Size)
TitleUnicode:もう一度君に会いたい (TV Size)
Artist:Shimokawa Mikuni
ArtistUnicode:下川 みくに
Creator:suzutsukikanade
Version:Hard
Source:Full Metal Panic! The Second Raid
Tags:fmp tsr kaname chidori sagara sousuke mecha tessa teletha testarossa
BeatmapID:327087
BeatmapSetID:129448

[Difficulty]
HPDrainRate:5
CircleSize:4
OverallDifficulty:7
ApproachRate:6
SliderMultiplier:1.4
SliderTickRate:2

[Events]
//Background and Video events
0,0,"Full.Metal.Panic!.full.345191.jpg",0,0
Video,0,"Full Metal Panic The Second Raid end.flv"
//Break Periods
//Storyboard Layer 0 (Background)
//Storyboard Layer 1 (Fail)
//Storyboard Layer 2 (Pass)
//Storyboard Layer 3 (Foreground)
//Storyboard Sound Samples
//Background Colour Transformations
3,100,163,162,255

[TimingPoints]
392,750,4,2,1,45,1,0
12392,-100,4,2,2,45,0,0
29642,-100,4,2,1,45,0,0
32642,-100,4,2,2,45,0,0
34142,-100,4,2,1,45,0,0
37892,-100,4,2,2,5,0,0
39392,-80,4,2,1,75,0,1
51017,-80,4,2,1,75,0,0
51392,-80,4,2,1,75,0,1
72392,-80,4,2,1,75,0,0
72579,-100,4,2,1,5,0,0
75392,-100,4,2,1,75,0,1
75767,-100,4,2,1,75,0,0
82892,-100,4,2,1,25,0,0
85892,-100,4,2,1,15,0,0
88142,-100,4,2,1,5,0,0

[Colours]
Combo1 : 255,128,64
Combo2 : 255,255,128
Combo3 : 255,200,117
Combo4 : 203,164,255
Combo5 : 159,207,255

[HitObjects]
104,208,392,2,0,P|148:200|192:224,1,70,4|0,0:0|0:0,0:0:0:0:
268,180,1142,2,0,L|288:72,1,105,8|0,0:0|0:0,0:0:0:0:
316,56,1892,2,0,P|348:52|408:56,1,70,2|0,0:0|3:0,0:0:0:0:
464,132,2642,2,0,L|440:220,1,70,8|0,0:0|0:0,0:0:0:0:
344,248,3392,6,0,P|312:236|260:240,1,70,0|0,3:0|0:0,0:0:0:0:
168,252,4142,2,0,L|156:164,1,70,8|0,0:0|0:0,0:0:0:0:
152,148,4704,1,0,0:0:0:0:
172,120,4892,6,0,P|200:112|224:116,1,35,0|8,3:0|0:0,0:0:0:0:
276,120,5267,2,0,P|324:124|364:116,2,70,0|8|0,3:0|0:0|0:0,0:0:0:0:
160,40,6392,6,0,P|128:84|124:116,1,70,0|0,3:0|0:0,0:0:0:0:
20,140,7142,2,0,P|28:200|72:232,1,105,8|0,0:0|0:0,0:0:0:0:
92,236,7892,2,0,P|144:220|176:224,1,70,2|0,0:0|3:0,0:0:0:0:
268,252,8642,2,0,L|304:228,1,35,8|0,0:0|0:0,0:0:0:0:
368,236,9017,2,0,L|392:192,1,35
452,184,9392,6,0,P|460:144|436:100,1,70,2|0,0:0|0:0,0:0:0:0:
320,72,10142,2,0,P|360:72|404:52,2,70,8|0|0,0:0|0:0|3:0,0:0:0:0:
288,64,11079,5,8,0:0:0:0:
256,52,11267,2,0,L|208:36,1,35,0|0,3:0|0:0,0:0:0:0:
156,64,11642,2,0,L|56:84,1,70,8|0,0:0|0:0,0:0:0:0:
160,200,12392,6,0,P|180:232|184:280,1,70,2|0,0:0|0:0,0:0:0:0:
272,332,13142,1,8,0:0:0:0:
372,284,13517,1,0,0:0:0:0:
476,328,13892,2,0,P|484:292|476:244,1,70,2|0,0:0|0:0,0:0:0:0:
436,156,14642,1,8,0:0:0:0:
336,204,15017,1,0,3:0:0:0:
240,148,15392,6,0,P|196:116|96:144,1,140,2|8,0:0|0:0,0:0:0:0:
28,200,16517,1,0,0:0:0:0:
36,164,16704,1,0,0:0:0:0:
32,128,16892,6,0,L|16:88,1,35,0|8,3:0|0:0,0:0:0:0:
60,40,17267,2,0,P|104:36|156:44,1,70,0|8,0:0|0:2,0:0:0:0:
236,68,18017,1,0,3:0:0:0:
300,160,18392,6,0,L|280:240,1,70,2|0,0:0|0:0,0:0:0:0:
392,304,19142,2,0,L|372:228,1,70,8|0,0:0|0:0,0:0:0:0:
300,160,19892,2,0,P|260:160|220:188,2,70,2|0|8,0:0|0:0|0:0,0:0:0:0:
408,184,21017,1,0,3:0:0:0:
500,120,21392,6,0,B|516:184|516:184|500:232|516:264,1,140,2|8,0:0|0:0,0:0:0:0:
432,336,22517,1,0,0:0:0:0:
400,328,22704,1,0,0:0:0:0:
368,320,22892,6,0,L|316:304,1,35,2|0,0:0|0:0,0:0:0:0:
280,264,23267,2,0,P|283:232|309:191,1,70,2|8,0:0|0:0,0:0:0:0:
400,116,24017,1,0,3:0:0:0:
260,96,24392,6,0,L|168:80,1,70,4|2,3:0|0:0,0:0:0:0:
52,112,25142,2,0,L|128:128,1,70,8|2,0:0|0:0,0:0:0:0:
232,216,25892,5,0,3:0:0:0:
264,232,26079,1,2,0:0:0:0:
296,216,26267,2,0,P|332:212|380:228,1,70,0|8,0:0|0:0,0:0:0:0:
472,256,27017,1,0,3:0:0:0:
424,156,27392,6,0,P|420:120|428:76,1,70,4|2,3:0|0:0,0:0:0:0:
328,28,28142,2,0,P|288:32|256:56,1,70,8|0,0:0|3:0,0:0:0:0:
164,96,28892,6,0,L|64:84,1,70,2|0,0:0|0:0,0:0:0:0:
168,180,29642,2,0,L|236:152,1,70,8|2,0:0|0:0,0:0:0:0:
268,140,30204,1,0,0:0:0:0:
300,128,30392,6,0,P|336:128|384:160,1,70,2|0,0:0|0:0,0:0:0:0:
460,200,31142,1,10,0:0:0:0:
460,200,31517,2,0,L|444:120,1,70,0|2,0:0|0:0,0:0:0:0:
420,24,32267,2,0,L|380:84,1,70,0|8,0:0|0:0,0:0:0:0:
276,116,33017,1,0,3:0:0:0:
168,84,33392,6,0,P|128:88|80:108,1,70,2|0,0:0|0:0,0:0:0:0:
40,192,34142,2,0,P|80:191|132:218,1,70,8|0,0:0|0:0,0:0:0:0:
184,240,34704,1,2,0:0:0:0:
184,240,34892,6,8,L|228:244,1,35,0|8,0:0|0:0,0:0:0:0:
288,252,35267,2,0,P|289:287|260:333,1,70,0|8,3:0|0:0,0:0:0:0:
308,316,35829,1,8,0:0:0:0:
341,314,36017,1,0,0:0:0:0:
376,312,36204,1,0,0:0:0:0:
411,309,36392,5,4,0:0:0:0:
256,192,36579,12,0,37892,0:0:0:0:
100,112,39392,6,0,P|144:112|200:136,1,87.5,4|2,0:0|0:0,0:0:0:0:
284,164,40142,2,0,P|344:172|396:152,2,87.5,8|2|0,0:0|0:0|0:0,0:0:0:0:
284,164,41079,1,8,0:0:0:0:
284,164,41267,2,0,P|264:205|265:267,1,87.5,0|8,0:0|0:0,0:0:0:0:
180,312,42017,1,0,0:0:0:0:
92,256,42392,6,0,P|52:256|8:280,1,87.5,2|0,0:0|0:0,0:0:0:0:
80,168,43142,2,0,P|124:168|176:208,1,87.5,8|2,0:0|0:0,0:0:0:0:
248,248,43892,1,0,3:0:0:0:
280,236,44079,1,8,0:0:0:0:
312,224,44267,2,0,P|324:180|272:124,1,87.5,0|8,3:0|0:0,0:0:0:0:
248,56,45017,1,0,0:0:0:0:
308,144,45392,6,0,P|348:143|413:114,1,87.5,2|0,0:0|0:0,0:0:0:0:
476,68,46142,1,8,0:0:0:0:
392,128,46517,2,0,L|380:224,1,87.5,2|0,0:0|3:0,0:0:0:0:
368,320,47267,1,2,0:0:0:0:
272,276,47642,2,0,P|228:276|184:300,1,87.5,8|0,0:0|0:0,0:0:0:0:
160,312,48204,1,0,0:0:0:0:
160,312,48392,6,0,P|168:268|120:220,1,87.5,2|0,0:0|0:0,0:0:0:0:
88,148,49142,1,8,0:0:0:0:
180,152,49517,2,0,L|276:140,1,87.5,2|0,0:0|0:0,0:0:0:0:
300,136,50079,1,8,0:0:0:0:
300,136,50267,2,0,P|320:96|364:72,1,87.5,0|8,0:0|0:0,0:0:0:0:
388,172,51017,1,0,0:0:0:0:
292,216,51392,6,0,P|228:172|248:80,1,175,4|8,0:0|0:0,0:0:0:0:
324,20,52517,1,0,0:0:0:0:
420,68,52892,2,0,L|472:52,1,43.75,0|8,3:0|0:0,0:0:0:0:
480,132,53267,2,0,P|412:156|376:144,1,87.5,0|8,0:0|0:0,0:0:0:0:
304,108,54017,1,0,0:0:0:0:
232,32,54392,6,0,L|204:140,1,87.5,2|0,0:0|0:0,0:0:0:0:
116,164,55142,2,0,P|68:164|20:132,2,87.5,8|2|0,0:0|0:0|3:0,0:0:0:0:
149,153,56079,1,8,0:0:0:0:
182,164,56267,2,0,P|202:200|202:256,1,87.5,0|8,3:0|0:0,0:0:0:0:
144,332,57017,1,0,0:0:0:0:
248,324,57392,6,0,L|336:316,1,87.5,2|0,0:0|0:0,0:0:0:0:
512,240,58142,2,0,L|416:248,1,87.5,8|0,0:0|0:0,0:0:0:0:
336,192,58892,2,0,P|320:152|348:100,1,87.5,2|0,0:0|0:0,0:0:0:0:
396,28,59642,1,8,0:0:0:0:
292,44,60017,5,0,0:0:0:0:
257,41,60204,1,0,0:0:0:0:
222,39,60392,2,0,L|108:28,1,87.5,2|0,0:0|0:0,0:0:0:0:
44,84,61142,1,8,0:0:0:0:
100,168,61517,2,0,L|104:244,1,43.75,2|0,0:0|0:0,0:0:0:0:
124,240,61892,6,0,L|116:296,1,43.75,0|8,3:0|0:0,0:0:0:0:
140,312,62267,2,0,P|184:328|232:316,1,87.5,0|8,0:0|0:0,0:0:0:0:
320,280,63017,1,2,0:0:0:0:
320,280,63204,1,8,0:0:0:0:
320,280,63392,6,0,P|360:272|412:284,1,87.5,4|0,0:0|0:0,0:0:0:0:
496,224,64142,2,0,P|504:168|472:128,1,87.5,8|0,0:0|0:0,0:0:0:0:
420,64,64892,5,2,0:0:0:0:
320,40,65267,1,0,3:0:0:0:
240,108,65642,2,0,P|204:128|144:128,1,87.5,8|0,0:0|0:0,0:0:0:0:
72,184,66392,6,0,B|48:232|64:312|64:312|100:280,1,175,2|8,0:0|0:0,0:0:0:0:
180,220,67517,1,0,3:0:0:0:
272,264,67892,6,0,L|320:268,1,43.75,2|8,0:0|0:0,0:0:0:0:
360,300,68267,2,0,P|404:292|464:312,1,87.5,0|8,3:0|0:0,0:0:0:0:
508,216,69017,1,0,0:0:0:0:
456,124,69392,6,0,B|396:116|360:152|360:152|300:108,1,175,2|8,0:0|0:0,0:0:0:0:
220,56,70517,1,2,0:0:0:0:
220,56,70704,1,0,0:0:0:0:
220,56,70892,2,0,L|108:48,1,87.5,0|0,3:0|0:0,0:0:0:0:
28,44,71642,5,4,0:0:0:0:
28,44,72017,1,0,0:0:0:0:
144,124,72392,5,4,0:0:0:0:
256,192,72579,12,4,75392,0:0:0:0:
260,112,75767,6,0,P|296:96|344:96,2,70,0|8|0,0:0|0:0|0:0,0:0:0:0:
172,180,76892,1,0,3:0:0:0:
68,136,77267,2,0,L|48:48,1,70,0|8,0:0|0:0,0:0:0:0:
0,208,78017,1,0,0:0:0:0:
64,300,78392,6,0,P|116:304|152:328,1,70
232,260,79142,2,0,P|264:244|304:244,1,70,8|2,0:0|0:0,0:0:0:0:
332,248,79704,1,0,0:0:0:0:
368,256,79892,6,0,L|424:244,2,35,2|8|0,0:0|0:0|0:0,0:0:0:0:
280,188,80642,1,10,0:0:0:0:
344,96,81017,1,0,0:0:0:0:
256,192,82892,12,0,88142,0:0:0:0:
