osu file format v9

[General]
AudioFilename: Full_Metal_Panic_2_-_Mou_Ichido_Kimi_Ni_Aitai_TV_Size.mp3
AudioLeadIn: 1000
PreviewTime: 38815
Countdown: 0
SampleSet: Soft
StackLeniency: 0.5
Mode: 0
LetterboxInBreaks: 1

[Editor]
Bookmarks: 24451,51169,74701
DistanceSpacing: 0.8
BeatDivisor: 4
GridSize: 8

[Metadata]
Title:Mou Ichido Kimi ni Aitai (TV Size)
Artist:Shimokawa Mikuni
Creator:CXu
Version:Normal
Source:Full Metal Panic! The Second Raid
Tags:[Shalon] Teresa Kubzter ccbp cc ED ending Kaname Chidori Sagara Sousuke Testarossa Teletha Tessa FMP

[Difficulty]
HPDrainRate:3
CircleSize:5
OverallDifficulty:3
ApproachRate:3
SliderMultiplier:1.4
SliderTickRate:2

[Events]
//Background and Video events
Video,-961,"FMP ED.avi"
0,0,"FMP bg.jpg"
//Break Periods
//Storyboard Layer 0 (Background)
//Storyboard Layer 1 (Fail)
//Storyboard Layer 2 (Pass)
//Storyboard Layer 3 (Foreground)
//Storyboard Sound Samples
//Background Colour Transformations
3,100,163,162,255

[TimingPoints]
936,750,4,2,0,50,1,0
13498,-100,4,2,0,40,0,0
13873,-100,4,2,0,50,0,0
17998,-100,4,2,0,40,0,0
18373,-100,4,2,0,50,0,0
19498,-100,4,2,0,40,0,0
19873,-100,4,2,0,50,0,0
23998,-100,4,2,0,40,0,0
24373,-100,4,2,0,50,0,0
25498,-100,4,2,0,40,0,0
25873,-100,4,2,0,50,0,0
28498,-100,4,2,0,40,0,0
28873,-100,4,2,0,50,0,0
29998,-100,4,2,0,40,0,0
30373,-100,4,2,0,50,0,0
31498,-100,4,2,0,40,0,0
31873,-100,4,2,0,50,0,0
34502,-100,4,2,1,40,0,0
34877,-100,4,2,0,50,0,0
37690,-100,4,2,0,20,0,0
38272,-100,4,2,0,0,0,0
38815,-100,4,2,0,20,0,0
39377,-100,4,2,0,40,0,0
39772,-100,4,2,0,60,0,0
39940,-100,4,2,0,60,0,1
40498,-100,4,2,0,50,0,1
40873,-100,4,2,0,60,0,1
41998,-100,4,2,0,50,0,1
42373,-100,4,2,0,60,0,1
44998,-100,4,2,0,50,0,1
45373,-100,4,2,0,60,0,1
46498,-100,4,2,0,50,0,1
46873,-100,4,2,0,60,0,1
47998,-100,4,2,0,50,0,1
48373,-100,4,2,0,60,0,1
49498,-100,4,2,0,50,0,1
49873,-100,4,2,0,60,0,1
52498,-100,4,2,0,50,0,1
52873,-100,4,2,0,60,0,1
53998,-100,4,2,0,50,0,1
54373,-100,4,2,0,60,0,1
55498,-100,4,2,0,50,0,1
55779,-100,4,2,0,60,0,1
56998,-100,4,2,0,50,0,1
57373,-100,4,2,0,60,0,1
58498,-100,4,2,0,50,0,1
58873,-100,4,2,0,60,0,1
59998,-100,4,2,0,50,0,1
60373,-100,4,2,0,60,0,1
61498,-100,4,2,0,50,0,1
61873,-100,4,2,0,60,0,1
63936,-100,4,2,0,60,0,0
72748,-100,4,2,0,30,0,0
75561,-100,4,2,0,40,0,0

[Colours]
Combo1 : 255,203,125
Combo2 : 119,234,113
Combo3 : 125,151,238
Combo4 : 231,126,126

[HitObjects]
312,280,12936,1,2
368,272,13311,1,0
416,248,13686,1,8
440,200,14061,1,2
440,144,14436,1,0
416,96,14811,2,0,B|360:48|256:56,1,140
232,56,15936,2,0,B|136:104|120:256|216:328,1,280,2|0
297,298,18186,1,8
256,56,18936,5,2
200,64,19311,1,0
152,88,19686,1,8
112,128,20061,1,2
96,184,20436,1,0
152,184,20811,2,0,B|189:242|120:322,1,140
128,312,21936,2,0,B|296:336|408:208,1,280,2|0
328,136,24186,1,8
194,64,24936,6,0,B|138:49|92:127|158:165,1,140,2|8
186,120,26061,1,2
186,120,26436,1,0
186,120,26811,2,0,B|234:184|156:255,1,140,2|0
166,245,27936,2,0,B|118:309|198:381,1,140,0|8
240,360,29061,1,0
296,352,29436,1,2
296,352,30186,1,8
352,336,30561,5,0
352,336,30936,2,0,B|280:328|232:224,1,140,0|8
192,256,32061,1,2
144,280,32436,1,0
88,280,32811,1,0
40,248,33186,1,2
24,192,33561,1,0
40,136,33936,2,0,B|208:24|464:88,1,420,2|2
400,120,36561,5,0
400,120,36936,2,0,B|304:112|200:200,1,210,4|0
168,232,38436,1,0
336,312,39186,5,0
384,288,39561,1,0
432,256,39936,2,0,B|464:208|440:104,1,140,4|8
400,80,41061,2,0,B|344:56|296:80,2,70,0|2|0
360,128,42186,1,8
304,136,42561,1,0
256,168,42936,1,2
208,200,43311,2,0,B|160:248|96:240|64:192,1,140
48,168,44436,1,2
48,168,44811,1,0
136,168,45186,6,0,B|96:136|104:72,1,70,8|0
120,56,45936,2,0,B|160:88|152:152,1,70,4|0
184,160,46686,2,0,B|217:120|197:59,1,70,8|0
176,48,47436,1,0
224,24,47811,1,2
280,32,48186,2,0,B|328:40|320:112,1,70,8|0
320,81,48748,1,2
320,81,48936,1,0
264,88,49311,1,0
264,88,49686,2,0,B|288:160|376:168,1,140,8|0
369,167,50811,1,0
360,88,51186,6,0,B|441:95|465:167,1,140,2|4
472,224,52311,1,0
456,280,52686,1,8
408,312,53061,1,2
352,312,53436,2,0,B|296:288|280:336|192:304,1,140,0|8
248,256,54561,1,2
248,256,54936,2,0,B|296:200|240:120,1,140,0|8
245,126,56061,1,0
192,112,56436,2,0,B|144:128|96:104,1,70
48,56,57186,6,0,B|96:40|136:64,1,70,8|0
176,56,57936,2,0,B|224:72|264:48,1,70,4|0
304,56,58686,2,0,B|352:40|392:64,2,70,8|2|0
264,96,59811,1,0
248,152,60186,1,8
272,208,60561,1,2
272,208,60748,1,2
272,208,60936,1,0
320,240,61311,1,2
376,240,61686,2,0,B|472:216|464:120,1,140,8|0
160,136,63561,5,2
160,136,63936,2,0,B|152:200|64:232,1,140,4|0
88,280,65061,1,0
144,264,65436,1,2
128,320,65811,1,0
88,280,66186,1,2
104,224,66561,2,0,B|128:144|200:104,1,140
192,56,67686,5,2
136,72,68061,1,0
96,112,68436,2,0,B|66:145|50:194,1,70,2|0
56,232,69186,1,2
56,232,69561,2,0,B|72:304|176:312,1,140
160,310,70686,1,2
184,256,71061,5,0
184,232,71248,1,0
184,208,71436,1,2
256,120,71811,1,2
328,208,72186,1,2
256,192,72936,12,2,75186
256,192,75936,5,4
