osu file format v7

[General]
AudioFilename: FMP.mp3
AudioLeadIn: 1500
PreviewTime: 17927
Countdown: 0
SampleSet: Soft
StackLeniency: 0.4
Mode: 0
LetterboxInBreaks: 1

[Editor]
Bookmarks: 43445,58016
DistanceSpacing: 0.899999976158142
BeatDivisor: 4
GridSize: 8

[Metadata]
Title:Minami Kaze (TV Size)
Artist:Shimokawa Mikuni
Creator:tmokb93
Version:Full Cesc Panic!
Source:Full Metal Panic! The Second Raid
Tags:Minamikaze cesc

[Difficulty]
HPDrainRate:6
CircleSize:5
OverallDifficulty:6
SliderMultiplier:1.4
SliderTickRate:2

[Events]
//Background and Video events
0,0,"Tessa.jpg"
Video,0,"Minamikaze.avi"
//Break Periods
//Storyboard Layer 0 (Background)
//Storyboard Layer 1 (Fail)
//Storyboard Layer 2 (Pass)
//Storyboard Layer 3 (Foreground)
//Storyboard Sound Samples
//Background Colour Transformations
3,100,0,128,255

[TimingPoints]
580,428.571428571429,4,2,0,90,1,0
677,-100,4,2,0,0,0,0
3891,-100,4,2,0,90,0,0
4748,-100,4,1,0,40,0,0
5605,-100,4,2,0,90,0,0
6677,-100,4,1,0,40,0,0
7373,-100,4,2,0,90,0,0
11820,-100,4,1,0,40,0,0
12248,-100,4,2,0,90,0,0
13534,-100,4,1,0,40,0,0
13962,-100,4,2,0,90,0,0
17605,-100,4,2,0,40,0,0
17820,-100,4,2,0,90,0,0
19962,-100,4,1,0,40,0,0
21462,-100,4,2,0,90,0,0
30677,-100,4,1,0,40,0,0
31320,-100,4,1,0,60,0,0
31534,-100,4,2,0,90,0,0
33034,-100,4,1,0,40,0,0
33248,-100,4,2,0,90,0,0
34766,-100,4,1,0,40,0,0
34980,-100,4,2,0,90,0,0
37338,-200,4,2,0,100,0,0
38195,-100,4,2,0,90,0,0
40115,-200,4,2,0,0,0,0
40222,-100,4,2,0,90,0,0
43802,-100,4,1,0,60,0,0
45141,-100,4,2,0,60,0,1
45248,-100,4,1,0,60,0,1
48462,-100,4,2,0,60,0,1
48677,-100,4,1,0,60,0,1
57034,-100,4,2,0,80,0,0
57248,-100,4,1,0,60,0,0
58855,-100,4,2,0,60,0,1
59284,-100,4,1,0,60,0,1
62177,-100,4,2,0,60,0,1
62391,-100,4,1,0,60,0,1
65605,-100,4,2,0,90,0,1
65820,-100,4,1,0,60,0,1
67320,-100,4,2,0,90,0,1
67534,-100,4,1,0,60,0,1
69034,-100,4,2,0,90,0,1
69248,-100,4,1,0,60,0,1
69891,-100,4,1,0,60,0,0
79427,-100,4,1,0,60,0,1
84677,-100,4,1,0,0,0,1

[Colours]
Combo1 : 176,176,176
Combo2 : 40,123,165
Combo3 : 255,128,192

[HitObjects]
256,192,579,12,0,3151
256,128,4008,6,0,B|328:128|352:120|344:96|344:96|320:104|352:208|352:208,1,210,2|0
319,249,4865,2,0,B|239:289|239:289,1,70,0|0
256,280,5294,2,0,B|256:281|183:249,1,70,0|0
167,194,5722,2,0,B|163:207|195:103|171:95|171:95|163:119|187:127|259:127,1,210,2|0
360,192,6794,5,0
360,192,7008,1,0
360,128,7222,1,0
360,128,7329,1,0
360,128,7437,2,0,B|408:128|456:168|456:216|408:256|360:256|360:256,1,210,2|0
152,128,8722,2,0,B|104:128|56:168|56:216|104:256|152:256|152:256,1,210,2|0
360,192,10008,2,0,B|304:168|256:192|208:216|144:192|144:192,1,210
152,256,10865,6,0,B|143:253|207:277|255:253|303:229|359:253,1,210,2|0
464,192,11937,1,0
464,192,12151,1,0
360,128,12579,2,0,B|305:104|257:128|209:152|145:128|154:131,1,210,2|0
48,192,13651,1,0
48,192,13865,1,0
256,192,14294,5,2
352,248,14508,1,2
368,136,14722,1,2
464,192,14937,1,2
256,192,15579,5,2
160,248,15794,1,2
144,136,16008,1,2
48,192,16222,1,2
256,192,16651,12,4,17722
256,192,18151,5,0
208,152,18365,1,0
144,144,18580,1,0
80,152,18794,1,0
40,200,19008,1,0
40,264,19222,1,0
80,312,19437,1,0
144,328,19651,1,0
208,312,19865,1,0
256,256,20080,5,0
256,256,20187,1,0
256,256,20294,1,0
256,192,20508,1,0
256,192,20615,1,0
256,192,20722,1,0
256,128,20937,1,0
256,128,21044,1,0
256,128,21151,1,0
304,72,21365,1,0
368,56,21580,5,0
432,72,21794,1,0
472,120,22008,1,0
472,184,22222,1,0
432,232,22437,1,0
368,240,22651,1,0
304,232,22865,1,0
256,192,23080,2,0,B|192:136|128:192|128:192,3,140,0|2|2|2
192,248,25008,6,0,B|256:272|264:296|256:320|256:320|248:296|256:272|320:248|320:248,1,210
256,192,25865,2,0,B|320:136|384:192|384:192,3,140,0|0|0|0
328,88,27580,2,0,B|288:80|256:96|256:96|224:80|184:88|184:88,1,140
72,136,28437,5,0
40,192,28651,1,0
72,248,28865,1,0
184,192,29294,2,0,B|240:136|240:136,1,70
184,192,29722,2,0,B|240:248|240:248,1,70
272,192,30151,1,2
304,192,30258,1,2
336,192,30365,2,0,B|368:152|400:192|432:232|464:192|464:192,1,140
462,193,31008,5,0
462,193,31222,5,0
464,192,31437,5,4
416,80,31865,1,0
352,88,32080,1,0
288,72,32294,1,0
256,16,32508,1,0
224,72,32722,1,0
160,88,32937,1,0
96,80,33151,2,0,C|56:136|96:192|96:192,3,140,4|0|0|0
160,192,34651,1,0
224,192,34865,2,0,C|264:248|224:304,2,140,4|0|0
200,72,36151,6,0,C|168:32|168:32,2,35,0|0|2
256,40,36580,2,0,C|256:0|256:0,2,35,0|0|2
312,72,37008,2,0,C|344:32|344:32,2,35,0|0|2
256,112,37437,6,0,B|184:136|256:160|328:184|256:208|256:208,1,140,2|0
192,216,38508,1,0
144,256,38722,1,0
152,320,38937,1,0
208,352,39151,1,0
256,312,39365,1,0
304,352,39580,2,0,B|376:328|384:248|320:216|320:216,2,175,0|0|0
160,128,41080,5,0
160,128,41294,1,0
224,128,41508,1,0
256,128,41615,1,0
288,128,41722,1,0
352,128,41937,1,0
352,128,42151,2,0,B|400:128|448:168|448:216|400:256|352:256|352:256,1,210,2|0
352,192,43008,1,0
352,192,43437,5,0
320,192,43544,1,0
288,192,43651,1,0
256,192,43758,1,0
224,192,43865,1,0
200,176,43972,1,0
184,152,44079,1,0
184,120,44187,1,0
208,96,44294,1,4
272,80,44508,5,0
336,88,44722,1,0
376,136,44937,1,0
352,192,45151,5,4
320,248,45365,1,0
352,304,45579,1,0
288,304,45794,2,0,B|256:328|232:352|256:392|256:392|280:360|256:328|224:304|224:304,1,210
184,248,46651,1,0
160,304,46865,1,0
120,256,47079,2,0,B|64:192|120:128|120:128,2,140
160,304,48151,5,0
224,312,48365,1,0
288,312,48579,1,4
352,304,48794,1,0
352,304,48901,1,0
352,304,49008,1,0
368,240,49222,1,0
368,240,49329,1,0
368,240,49437,1,0
320,192,49651,1,0
320,192,49758,1,0
320,192,49865,6,0,B|384:136|448:192|448:192,2,140
256,168,50937,1,0
192,192,51151,2,0,B|128:136|64:192|64:192,2,140,4|0|0
232,240,52222,1,0
280,280,52437,1,0
328,320,52651,6,0,B|392:376|456:320|456:320,1,140,4|0
504,280,53294,1,0
456,240,53508,2,0,B|392:184|328:240,1,140
280,280,54151,1,0
232,320,54365,6,0,B|167:375|103:319|104:320,1,140,4|0
56,280,55008,1,0
104,240,55222,2,0,B|103:240|167:184|231:240,1,140
272,192,55865,2,0,B|240:160|184:136|144:152|128:160|128:160,1,140
80,176,56508,1,0
80,176,56722,1,0
160,80,57151,5,2
224,88,57365,1,0
256,32,57579,1,0
288,88,57794,1,0
352,80,58008,1,0
352,80,58115,1,0
352,80,58222,1,0
352,80,58329,1,0
352,80,58437,1,0
352,80,58544,1,0
352,80,58651,1,0
352,80,58758,1,0
352,80,58865,6,0,B|408:144|352:208|352:208,1,140,4|0
368,272,59508,1,0
304,256,59722,2,0,B|256:280|240:304|256:336|256:336|272:304|256:280|208:256|208:256,1,210
144,272,60579,1,0
159,207,60794,2,0,B|160:208|88:136|184:80,1,140
200,152,61437,2,0,B|199:153|256:72|320:152,1,140
352,208,62079,5,0
368,272,62294,1,4
352,208,62508,1,0
320,152,62722,2,0,B|352:120|384:88|384:88,2,70
256,168,63365,2,0,B|256:224|256:256,2,70
192,152,64008,2,0,B|160:120|136:96|136:96,2,70
64,32,64865,5,4
448,32,65294,5,4
360,128,65722,6,0,B|304:192|360:256|360:256,1,140,2|0
392,312,66365,1,0
328,312,66579,1,0
288,264,66794,1,0
256,208,67008,2,0,B|256:152|256:56|256:56,2,140,0|2|0
224,264,68079,1,0
184,312,68294,1,0
120,312,68508,1,0
152,255,68722,2,0,B|152:256|208:192|152:128,1,140,0|2
256,56,69579,1,0
256,56,69794,1,0
256,248,70437,6,0,B|304:280|352:248|352:248,1,70
256,248,70865,2,0,B|208:280|160:248|160:248,1,70
152,312,71294,2,0,B|200:344|256:320|256:320|312:344|360:312|360:312,1,210
408,280,72151,1,0
448,232,72365,1,0
384,216,72579,1,4
256,192,73008,1,0
128,216,73437,1,0
64,232,73651,1,0
104,280,73865,2,0,B|168:288|208:256|192:200|192:200,1,140,4|0
256,192,74508,1,0
319,203,74722,2,0,B|320:200|304:256|344:288|408:280,1,140,0|4
256,192,75579,12,4,79437
152,104,80079,6,0,B|112:104|72:104|72:104|72:168|72:168|136:168|136:168|72:168|72:168|72:256|72:256,1,350
136,256,81365,1,0
136,256,81579,1,0
208,248,81794,2,0,B|208:128|208:128|256:160|256:160|304:128|304:128|304:248|304:248,1,350
376,256,83079,1,0
376,256,83294,1,0
440,240,83508,2,0,B|440:112|440:112|504:112|536:144|504:176|440:176|440:176,1,280
256,192,84794,12,0,88008
