osu file format v10

[General]
AudioFilename: Karenai Hana (TV Size).mp3
AudioLeadIn: 0
PreviewTime: 54359
Countdown: 0
SampleSet: Soft
StackLeniency: 0.7
Mode: 0
LetterboxInBreaks: 0

[Editor]
Bookmarks: 15396
DistanceSpacing: 1.5
BeatDivisor: 4
GridSize: 4

[Metadata]
Title:Karenai Hana (TV Size)
TitleUnicode:枯れない花 (TV Size)
Artist:Shimokawa Mikuni
ArtistUnicode:下川みくに
Creator:pimpG
Version:Panic!
Source:Full Metal Panic!
Tags:sagara sousuke chidori kaname tessa teletha testarossa fmp gauron kashim Gatoh Shouji mecha
BeatmapID:185202
BeatmapSetID:62403

[Difficulty]
HPDrainRate:6
CircleSize:4
OverallDifficulty:6
ApproachRate:7
SliderMultiplier:1.92
SliderTickRate:2

[Events]
//Background and Video events
0,0,"wallpaper13.jpg"
//Break Periods
//Storyboard Layer 0 (Background)
//Storyboard Layer 1 (Fail)
//Storyboard Layer 2 (Pass)
//Storyboard Layer 3 (Foreground)
//Storyboard Sound Samples
//Background Colour Transformations
3,100,0,0,0

[TimingPoints]
761,731.707317073171,4,2,0,15,1,0
17224,-100,4,2,0,20,0,0
17590,-100,4,2,0,30,0,0
17956,-100,4,2,0,40,0,0
18321,-100,4,2,1,50,0,0
41736,-100,4,2,1,50,0,1
43200,-100,4,2,2,50,0,1
43565,-100,4,2,1,50,0,1
51431,-100,4,2,1,15,0,1
53443,-100,4,1,0,30,0,0
54541,-100,4,2,1,50,0,0
56370,-100,4,2,1,50,0,1
57834,-100,4,2,2,50,0,1
58200,-100,4,2,1,50,0,1
79785,-100,4,2,1,5,0,0
84212,731.707317073171,4,2,1,5,1,0

[Colours]
Combo1 : 128,128,128
Combo2 : 0,173,187
Combo3 : 226,65,94
Combo4 : 105,71,71

[HitObjects]
256,192,15395,12,0,16858,0:0:0
168,112,17224,5,0,0:0:0
240,48,17590,1,0,0:0:0
336,56,17956,1,2,0:0:0
376,144,18321,6,0,B|440:164|490:105,2,96,0|0|2,0:0|0:0|0:0,0:0:0
288,104,19419,2,0,B|192:84|208:196|80:132,1,192
110,145,20334,1,0,0:0:0
110,145,20517,1,2,0:0:0
125,337,21248,5,0,0:0:0
216,368,21614,1,0,0:0:0
296,313,21980,1,2,0:0:0
384,352,22346,2,0,B|496:336|512:224,1,192
488,136,23443,1,2,0:0:0
416,72,23809,5,0,0:0:0
368,64,23992,1,0,0:0:0
320,72,24175,2,0,B|232:64|252:184|148:152,1,192,0|2,0:0|0:0,0:0:0
72,116,25273,1,0,0:0:0
56,212,25639,2,0,B|104:308|216:292,1,192,0|2,0:0|0:0,0:0:0
284,224,26736,1,0,0:0:0
364,280,27102,6,0,B|400:312|400:312|408:360,2,96,0|0|2,0:0|0:0|0:0,0:0:0
296,348,28200,1,0,0:0:0
256,192,29297,6,0,B|256:240,2,48
196,116,30029,6,0,B|160:148|160:148|160:200,2,96,4|0|2,0:0|0:0|0:0,0:0:0
316,116,31126,1,0,0:0:0
316,116,31309,1,2,0:0:0
316,116,31492,2,0,B|352:148,2,48,0|2|0,0:0|0:0|0:0,0:0:0
256,40,32224,1,2,0:0:0
160,40,32590,5,0,0:0:0
160,40,32773,1,0,0:0:0
160,40,32956,2,0,B|72:40|108:148|16:148,1,192,0|2,0:0|0:0,0:0:0
17,147,34053,1,0,0:0:0
94,205,34419,1,0,0:0:0
138,225,34602,1,2,0:0:0
182,205,34785,1,0,0:0:0
256,144,35151,1,2,0:0:0
316,68,35517,5,0,0:3:0
360,48,35700,1,0,0:0:0
404,68,35882,2,0,B|448:96|440:180|384:192,1,144
395,188,36614,1,2,0:0:0
348,272,36980,1,0,0:0:0
404,350,37346,2,0,B|260:350,1,144
260,350,38078,1,2,0:0:0
164,350,38443,1,0,0:0:0
212,267,38809,5,0,0:0:0
256,131,39175,1,0,0:0:0
300,267,39541,1,2,0:0:0
184,183,39907,1,0,0:0:0
328,183,40273,1,0,0:0:0
256,208,40639,5,8,0:0:0
256,208,41004,1,8,0:0:0
104,136,41370,5,0,0:0:0
100,112,41553,1,0,0:0:0
108,88,41736,2,0,B|132:32|200:40,1,96,4|0,0:0|0:0,0:0:0
284,96,42468,1,8,0:0:0
216,188,42834,1,0,0:0:0
216,188,43017,2,0,B|288:236|356:188,1,144,0|0,0:0|0:0,0:0:0
416,96,43931,1,8,0:0:0
475,195,44297,5,0,0:0:0
471,219,44480,1,0,0:0:0
459,239,44663,2,0,B|431:283|371:275,1,96
331,383,45395,2,0,B|287:355|295:295,1,96,8|0,0:0|0:0,0:0:0
187,255,46126,2,0,B|215:211|275:219,1,96
294,220,46675,1,0,0:0:0
316,229,46858,1,8,0:0:0
172,352,47224,5,0,0:0:0
112,336,47407,1,0,0:0:0
78,284,47590,2,0,B|47:240|78:188,2,96,4|0|8,0:0|0:0|0:0,0:0:0
200,192,48687,1,0,0:0:0
256,220,48870,1,8,0:0:0
312,192,49053,2,0,B|376:192,2,48,0|8|0,0:0|0:0|0:0,0:0:0
256,292,49785,1,8,0:0:0
256,148,50151,1,0,0:0:0
256,128,50334,1,0,0:0:0
256,108,50517,6,0,B|256:12,1,96
256,12,51248,1,8,0:0:0
256,192,51431,12,4,53443,0:0:0
171,142,54541,5,0,0:0:0
339,238,54907,1,4,0:0:0
256,94,55273,1,0,0:0:0
256,288,55639,1,4,0:0:0
339,142,56004,1,0,0:0:0
171,240,56370,5,4,0:0:0
339,238,56736,1,0,0:0:0
171,142,57102,1,8,0:0:0
256,288,57468,5,0,0:0:0
256,288,57651,2,0,B|185:337|124:288,1,144
16,192,58565,1,8,0:0:0
44,52,58931,1,0,0:0:0
106,60,59114,1,0,0:0:0
140,112,59297,2,0,B|171:156|140:208,2,96,0|0|8,0:0|0:0|0:0,0:0:0
308,48,60395,6,0,B|308:108,1,48,0|8,0:0|0:0,0:0:0
420,152,60943,2,0,B|376:188,1,48,8|0,0:0|0:0,0:3:0
352,304,61492,2,0,B|292:324|269:269,1,96,12|0,0:0|0:0,0:0:0
168,344,62224,6,0,B|80:268|152:160,1,192,4|8,0:0|0:0,0:0:0
240,92,63321,1,0,0:0:0
284,72,63504,1,0,0:0:0
332,80,63687,2,0,B|372:100|368:148,2,48,0|8|0,0:0|0:0|0:0,0:0:0
220,136,64419,2,0,B|202:193|258:218,1,96,8|0,0:0|0:0,0:0:0
380,288,65151,2,0,B|401:235|348:208,2,96,0|0|8,0:0|0:0|0:0,0:3:0
256,364,66248,1,0,0:0:0
112,348,66614,5,4,0:0:0
72,288,66797,1,8,0:0:0
80,216,66980,1,8,0:0:0
8,92,67346,1,4,0:0:0
76,68,67529,1,8,0:0:0
144,92,67712,1,0,0:0:0
224,212,68078,1,4,0:0:0
368,220,68443,5,0,0:0:0
392,216,68626,1,0,0:0:0
412,203,68809,2,0,B|452:168|440:112,1,96,8|0,0:0|0:0,0:0:0
352,28,69541,2,0,B|344:56|316:64,2,48,0|8|0,0:0|0:0|0:0,0:0:0
256,108,70273,1,8,0:0:0
160,28,70639,2,0,B|168:56|196:64,2,48,0|8|4,0:0|0:0|0:0,0:0:0
144,220,71370,5,0,0:0:0
120,216,71553,1,0,0:0:0
100,203,71736,2,0,B|60:168|72:112,1,96,8|0,0:0|0:0,0:0:0
196,44,72468,1,4,0:0:0
256,28,72651,1,8,0:0:0
316,44,72834,1,0,0:0:0
440,116,73200,2,0,B|464:232|348:256,1,192,12|4,0:0|0:0,0:0:0
144,116,74663,5,8,0:0:0
84,224,75029,1,0,0:0:0
196,276,75395,1,4,0:0:0
256,168,75760,2,0,B|256:60,2,96,0|12|0,0:0|0:0|0:0,0:0:0
316,276,76858,1,4,0:0:0
428,224,77224,1,8,0:0:0
368,116,77590,1,8,0:0:0
256,56,77956,5,0,0:0:0
116,84,78321,2,0,B|16:140|64:264,1,192,4|0,0:0|0:0,0:0:0
164,344,79419,1,0,0:0:0
256,192,79785,12,4,84212,0:0:0
