osu file format v14

[General]
AudioFilename: Beautiful Sky (Ling).mp3
AudioLeadIn: 0
PreviewTime: 58679
Countdown: 0
SampleSet: Soft
StackLeniency: 0.3
Mode: 0
LetterboxInBreaks: 0
WidescreenStoryboard: 0

[Editor]
Bookmarks: 82596
DistanceSpacing: 1
BeatDivisor: 4
GridSize: 4
TimelineZoom: 1.4

[Metadata]
Title:BEAUTIFUL SKY Rin Solo Ver.
TitleUnicode:BEAUTIFUL SKY 鈴ソロVer.
Artist:Shimoda Asami
ArtistUnicode:下田麻美
Creator:Momochikun
Version:Normal
Source:IS〈インフィニット・ストラトス〉2
Tags:Infinite Stratos ending alacat tv size huang lingyin 凰 鈴音
BeatmapID:565145
BeatmapSetID:245251

[Difficulty]
HPDrainRate:3.5
CircleSize:3.7
OverallDifficulty:3.5
ApproachRate:5
SliderMultiplier:1.12
SliderTickRate:1

[Events]
//Background and Video events
0,0,"Ling BG.jpg",0,0
//Break Periods
//Storyboard Layer 0 (Background)
//Storyboard Layer 1 (Fail)
//Storyboard Layer 2 (Pass)
//Storyboard Layer 3 (Foreground)
//Storyboard Sound Samples

[TimingPoints]
1930,333.333333333333,4,2,1,80,1,0
2763,-100,4,2,1,65,0,0
3096,-100,4,2,1,70,0,0
7096,-100,4,2,1,75,0,0
7929,-100,4,2,1,65,0,0
8596,-100,4,2,1,80,0,0
13763,-100,4,2,1,90,0,1
13846,-100,4,2,1,80,0,0
23596,-100,4,2,1,65,0,0
24596,-100,4,2,1,80,0,0
24929,-100,4,2,1,55,0,0
25929,-100,4,2,1,65,0,0
35263,-100,4,2,1,70,0,0
36096,-100,4,2,1,65,0,0
36596,-100,4,2,1,80,0,0
46429,-100,4,2,1,85,0,0
46929,-100,4,2,1,60,0,0
47013,-100,4,2,1,85,0,0
47263,-100,4,2,1,65,0,0
52596,-100,4,2,1,80,0,0
56929,-100,4,2,1,60,0,0
59263,-100,4,2,1,95,0,1
69429,-100,4,2,1,80,0,0
69929,-100,4,2,1,95,0,1
79096,-100,4,2,1,80,0,0
80429,-100,4,2,1,95,0,1
80513,-100,4,2,1,85,0,0
87429,-100,4,2,1,70,0,0
88263,-100,4,2,1,75,0,0
88429,-100,4,2,1,80,0,1
88513,-100,4,2,1,5,0,0

[Colours]
Combo1 : 255,85,85
Combo2 : 190,124,124
Combo3 : 255,255,128
Combo4 : 128,255,255
Combo5 : 255,132,193

[HitObjects]
341,115,1929,6,0,P|347:164|362:242,1,112,4|0,1:3|1:3,0:0:0:0:
395,267,2429,2,0,P|333:252|286:249,1,112,8|4,0:2|0:0,0:0:0:0:
239,281,2929,22,0,P|177:296|130:299,1,112,2|4,0:0|0:0,0:0:0:0:
39,93,3929,1,2,0:0:0:0:
198,39,4429,2,0,P|253:43|307:56,1,112,4|0,1:2|1:0,0:0:0:0:
354,89,4929,1,2,0:0:0:0:
275,168,5263,1,0,0:0:0:0:
275,168,5429,2,0,P|256:218|246:292,1,112,4|0,1:2|1:0,0:0:0:0:
214,321,5929,6,0,P|137:302|91:288,2,112,4|8|0,1:2|0:0|1:0,0:0:0:0:
316,366,6929,1,0,1:0:0:0:
316,366,7096,2,0,P|393:347|479:313,1,168,4|0,0:0|0:0,0:0:0:0:
490,203,7929,1,0,1:0:0:0:
501,91,8263,1,4,1:2:0:0:
390,109,8596,6,0,B|306:121|306:121|267:115,1,112,4|8,1:2|0:0,0:0:0:0:
176,71,9263,2,0,P|150:121|151:182,1,112,0|8,1:0|0:0,0:0:0:0:
185,218,9763,2,0,B|120:239|120:239|72:229|13:247,1,168,4|8,0:0|0:0,0:0:0:0:
60,350,10596,1,0,1:0:0:0:
171,341,10929,5,8,0:0:0:0:
171,341,11096,2,0,B|286:302|286:302|330:268,1,168,4|8,0:0|0:0,0:0:0:0:
371,172,11929,1,0,1:0:0:0:
463,108,12263,2,0,L|477:45,1,56,8|4,0:0|0:0,0:0:0:0:
85,12,13596,5,8,1:2:0:0:
85,12,13763,2,0,B|103:127|103:127|88:185,1,168,6|8,1:0|0:1,0:0:0:0:
18,262,14596,2,0,P|68:286|131:278,1,112,0|10,1:0|0:1,0:0:0:0:
176,265,15096,2,0,P|226:240|281:241,1,112,4|0,0:0|1:0,0:0:0:0:
327,274,15596,1,8,0:0:0:0:
368,170,15929,6,0,B|383:82|383:82|348:68|328:28,2,168,2|4|10,1:0|0:0|0:1,0:0:0:0:
327,274,17263,1,2,1:0:0:0:
389,366,17596,1,8,0:1:0:0:
389,366,17763,2,0,P|448:357|508:337,1,112,4|0,0:0|1:0,0:0:0:0:
492,285,18263,2,0,L|476:166,1,112,8|2,0:0|1:0,0:0:0:0:
380,115,18929,5,8,0:0:0:0:
380,115,19096,2,0,B|319:123|319:123|288:116|288:116|212:125,1,168,4|10,0:0|0:1,0:0:0:0:
111,170,19929,2,0,P|91:125|92:62,1,112,2|10,1:0|0:1,0:0:0:0:
129,21,20429,2,0,L|246:9,1,112,4|2,0:0|1:0,0:0:0:0:
293,26,20929,1,10,0:1:0:0:
383,92,21263,6,0,B|442:125|442:125|457:174|518:210,2,168,2|4|8,1:0|0:0|0:0,0:0:0:0:
293,26,22596,1,2,1:0:0:0:
220,111,22929,2,0,L|166:99,1,56,8|4,0:0|0:0,0:0:0:0:
84,176,23429,2,0,L|138:188,1,56,0|8,1:2|0:0,0:0:0:0:
244,226,23929,1,8,0:0:0:0:
349,263,24263,1,2,0:0:0:0:
387,157,24596,5,4,0:0:0:0:
388,178,25929,6,0,P|399:272|404:302,1,112,4|0,0:0|1:0,0:0:0:0:
317,362,26596,1,0,1:0:0:0:
207,340,26929,1,0,1:0:0:0:
103,296,27263,2,0,P|49:309|-8:318,2,112,0|0|0,1:2|1:0|1:0,0:0:0:0:
207,340,28263,1,0,1:0:0:0:
249,236,28596,6,0,P|257:192|259:116,1,112,0|0,1:2|1:0,0:0:0:0:
359,73,29263,2,0,P|351:117|349:193,1,112,0|0,1:0|1:0,0:0:0:0:
386,224,29763,1,2,0:0:0:0:
386,224,29929,2,0,P|448:215|513:202,1,112,0|0,1:0|1:0,0:0:0:0:
459,311,30596,2,0,P|397:320|332:333,1,112,0|0,1:0|1:0,0:0:0:0:
239,355,31263,6,0,P|177:346|112:333,2,112,0|0|0,1:2|1:0|1:0,0:0:0:0:
300,261,32263,2,0,P|308:217|312:200,1,56,0|2,1:0|0:0,0:0:0:0:
349,165,32596,2,0,P|334:119|330:51,1,112,0|0,1:0|1:0,0:0:0:0:
438,30,33263,2,0,P|453:76|457:144,1,112,0|0,1:0|1:0,0:0:0:0:
423,183,33763,5,2,0:0:0:0:
423,183,33929,2,0,P|471:215|513:250,1,112,0|0,1:0|1:0,0:0:0:0:
450,343,34596,1,0,1:0:0:0:
343,376,34929,2,0,L|281:367,1,56,0|0,1:0|1:0,0:0:0:0:
246,329,35263,2,0,L|184:320,2,56,4|0|8,0:0|1:0|0:0,0:0:0:0:
289,293,35763,2,0,P|305:237|303:184,1,112,4|4,0:0|0:0,0:0:0:0:
243,88,36429,5,0,1:0:0:0:
243,88,36596,2,0,P|139:67|116:63,2,112,4|8|0,1:2|0:0|1:2,0:0:0:0:
349,52,37596,1,10,0:0:0:0:
349,52,37763,2,0,P|453:31|476:27,1,112,0|0,0:0|0:0,0:0:0:0:
507,58,38263,1,8,0:0:0:0:
417,124,38596,2,0,P|406:179|394:233,1,112,0|8,1:0|0:0,0:0:0:0:
289,272,39263,6,0,P|277:217|266:162,2,112,0|8|2,1:0|0:0|1:2,0:0:0:0:
210,352,40263,1,8,0:0:0:0:
210,352,40429,2,0,P|152:367|84:364,1,112,0|0,0:0|0:0,0:0:0:0:
49,343,40929,1,8,0:0:0:0:
49,343,41096,2,0,L|29:203,1,112,2|0,0:0|0:0,0:0:0:0:
45,177,41596,1,8,0:0:0:0:
146,129,41929,6,0,P|204:144|272:141,1,112,2|8,1:2|0:0,0:0:0:0:
357,95,42596,2,0,B|413:61|413:61|461:70|516:33,2,168,0|2|8,1:0|0:0|0:0,0:0:0:0:
255,143,43929,1,0,1:0:0:0:
350,203,44263,5,8,0:0:0:0:
350,203,44429,2,0,P|378:299|387:330,1,112,4|0,0:0|1:0,0:0:0:0:
408,359,44929,2,0,P|312:331|281:322,1,112,8|0,0:0|1:2,0:0:0:0:
207,265,45596,1,8,0:0:0:0:
207,265,45763,2,0,L|153:249|99:233,1,112,4|0,0:0|1:0,0:0:0:0:
54,199,46263,2,0,P|42:160|55:83,1,112,8|10,0:0|0:0,0:0:0:0:
148,34,46929,1,4,0:0:0:0:
257,60,47263,5,4,0:0:0:0:
369,184,47763,2,0,L|359:246,1,56,0|8,1:0|0:0,0:0:0:0:
347,294,48096,2,0,P|284:277|228:265,2,112,0|4|4,0:0|0:0|0:0,0:0:0:0:
455,320,49096,1,0,1:0:0:0:
455,320,49263,2,0,P|472:257|484:201,1,112,4|4,0:0|0:0,0:0:0:0:
459,101,49929,5,4,0:0:0:0:
299,49,50429,2,0,P|272:55|244:60,1,56,0|8,1:0|0:0,0:0:0:0:
190,77,50763,2,0,P|137:70|77:57,2,112,0|4|4,0:0|0:0|0:0,0:0:0:0:
231,181,51763,1,0,1:0:0:0:
231,181,51929,2,0,L|243:300,1,112,4|4,0:0|0:0,0:0:0:0:
333,226,52596,6,0,L|345:345,2,112,4|0|0,1:0|1:0|1:0,0:0:0:0:
396,133,53596,2,0,L|400:77,1,56,12|0,1:0|0:0,0:0:0:0:
387,22,53929,2,0,P|332:37|264:41,1,112,4|0,0:0|1:0,0:0:0:0:
187,108,54596,2,0,P|132:93|64:89,1,112,0|12,1:0|1:0,0:0:0:0:
51,197,55263,38,0,P|106:212|174:216,1,112,4|8,0:0|0:0,0:0:0:0:
271,199,55929,2,0,L|327:186,2,56,0|0|8,1:0|0:0|0:0,0:0:0:0:
264,254,56429,2,0,P|258:309|251:370,1,112,6|0,1:0|1:0,0:0:0:0:
307,370,56929,2,0,P|374:363|419:353,1,112,10|10,0:1|0:1,0:0:0:0:
501,279,57596,5,10,0:1:0:0:
501,279,57763,2,0,P|494:223|488:167,2,112,4|4|4,0:0|0:0|0:0,0:0:0:0:
390,260,58763,22,0,L|398:196,2,56,0|2|0,0:0|0:3|0:0,0:0:0:0:
359,307,59263,2,0,P|313:326|248:327,1,112,4|8,0:0|0:0,0:0:0:0:
184,237,59929,2,0,P|230:218|295:217,1,112,2|8,1:2|0:0,0:0:0:0:
327,173,60429,2,0,L|309:58,1,112,2|2,0:0|0:0,0:0:0:0:
299,7,60929,1,8,0:0:0:0:
410,21,61263,2,0,L|427:131,1,112,2|8,1:2|0:0,0:0:0:0:
415,186,61763,1,0,0:0:0:0:
404,241,61929,6,0,P|351:263|290:263,1,112,2|10,1:2|0:0,0:0:0:0:
200,207,62596,2,0,P|148:185|93:183,1,112,2|8,1:2|0:0,0:0:0:0:
41,206,63096,2,0,P|62:154|64:99,1,112,2|2,0:0|0:0,0:0:0:0:
42,47,63596,1,8,0:0:0:0:
152,31,63929,1,2,0:0:0:0:
263,19,64263,2,0,L|326:29,1,56,12|0,0:0|0:0,0:0:0:0:
370,47,64596,6,0,L|486:33,2,112,4|8|0,0:0|0:0|1:0,0:0:0:0:
284,115,65596,2,0,P|275:153|273:177,1,56,8|0,0:0|0:0,0:0:0:0:
280,225,65929,1,2,1:2:0:0:
378,278,66263,1,10,0:0:0:0:
453,195,66596,1,2,1:2:0:0:
394,99,66929,1,10,0:0:0:0:
284,115,67263,6,0,L|161:95,1,112,4|8,0:0|0:0,0:0:0:0:
90,172,67929,2,0,L|200:189,1,112,0|8,1:0|0:0,0:0:0:0:
297,245,68596,2,0,P|297:300|274:351,1,112,6|8,1:0|0:0,0:0:0:0:
223,376,69096,1,6,1:0:0:0:
130,318,69429,21,0,1:0:0:0:
130,318,69596,2,0,P|93:305|71:301,1,56,2|0,0:3|0:0,0:0:0:0:
29,271,69929,2,0,P|13:167|12:150,1,112,4|8,0:0|0:0,0:0:0:0:
117,199,70596,2,0,P|127:144|133:88,1,112,2|8,1:2|0:0,0:0:0:0:
101,42,71096,2,0,L|223:60,1,112,2|2,0:0|0:0,0:0:0:0:
266,70,71596,1,8,0:0:0:0:
341,152,71929,2,0,L|451:135,1,112,2|8,1:2|0:0,0:0:0:0:
505,118,72429,5,0,0:0:0:0:
505,118,72596,2,0,P|491:185|484:229,1,112,2|10,1:2|0:0,0:0:0:0:
396,298,73263,2,0,P|329:284|285:277,1,112,2|8,1:2|0:0,0:0:0:0:
234,255,73763,2,0,L|101:268,1,112,2|2,0:0|0:0,0:0:0:0:
71,288,74263,1,8,0:0:0:0:
76,176,74596,2,0,L|187:165,1,112,2|12,1:2|0:0,0:0:0:0:
293,129,75263,6,0,P|307:84|307:18,1,112,4|8,0:0|0:0,0:0:0:0:
413,56,75929,2,0,P|411:111|427:165,1,112,0|8,1:0|0:0,0:0:0:0:
457,212,76429,2,0,B|408:253|346:247|346:247|331:300,1,168,4|8,0:0|0:0,0:0:0:0:
231,341,77263,1,0,1:0:0:0:
178,244,77596,5,8,0:0:0:0:
178,244,77763,2,0,P|121:253|48:263,1,112,4|0,0:0|3:0,0:0:0:0:
21,293,78263,2,0,P|34:238|38:179,1,112,8|8,0:0|3:1,0:0:0:0:
120,107,78929,1,8,1:0:0:0:
120,107,79096,2,0,P|175:120|234:124,1,112,4|2,0:0|0:0,0:0:0:0:
282,104,79596,1,8,0:0:0:0:
381,52,79929,1,2,0:0:0:0:
371,163,80263,5,8,1:2:0:0:
371,163,80429,2,0,L|419:272,1,112,6|0,1:0|1:0,0:0:0:0:
440,316,80929,1,8,0:1:0:0:
342,371,81263,2,0,B|282:361|259:308|259:308|228:325|187:316,2,168,2|4|8,1:0|0:0|0:0,0:0:0:0:
440,316,82596,1,2,1:0:0:0:
470,208,82929,5,8,0:1:0:0:
470,208,83096,2,0,B|479:151|479:151|458:87|388:88,1,168,4|10,0:0|0:1,0:0:0:0:
292,124,83929,2,0,P|241:121|183:93,1,112,2|8,1:0|0:0,0:0:0:0:
146,55,84429,2,0,B|168:171|168:171|152:192|147:224,1,168,4|8,0:0|1:0,0:0:0:0:
92,313,85263,1,2,1:0:0:0:
201,336,85596,5,10,0:1:0:0:
201,336,85763,2,0,B|268:320|268:320|307:326|307:326|375:309,1,168,4|10,0:0|0:1,0:0:0:0:
408,208,86596,2,0,L|346:225,1,56,10|8,0:1|1:1,0:0:0:0:
256,167,87096,1,4,0:0:0:0:
336,89,87429,2,0,L|390:74,2,56,2|0|0,0:1|1:2|0:2,0:0:0:0:
281,75,87929,2,0,L|226:60,2,56,2|0|2,1:1|1:2|0:3,0:0:0:0:
256,192,88429,12,0,89929,0:0:0:0:
