osu file format v14

[General]
AudioFilename: Beautiful Sky (Ling).mp3
AudioLeadIn: 0
PreviewTime: 58679
Countdown: 0
SampleSet: Soft
StackLeniency: 0.3
Mode: 0
LetterboxInBreaks: 0
WidescreenStoryboard: 0

[Editor]
DistanceSpacing: 0.5
BeatDivisor: 4
GridSize: 4
TimelineZoom: 1.7

[Metadata]
Title:BEAUTIFUL SKY Rin Solo Ver.
TitleUnicode:BEAUTIFUL SKY 鈴ソロVer.
Artist:Shimoda Asami
ArtistUnicode:下田麻美
Creator:Momochikun
Version:Insane
Source:IS〈インフィニット・ストラトス〉2
Tags:Infinite Stratos ending alacat tv size huang lingyin 凰 鈴音
BeatmapID:565144
BeatmapSetID:245251

[Difficulty]
HPDrainRate:7
CircleSize:4.1
OverallDifficulty:7
ApproachRate:9
SliderMultiplier:1.55
SliderTickRate:1

[Events]
//Background and Video events
0,0,"Ling BG.jpg",0,0
//Break Periods
//Storyboard Layer 0 (Background)
//Storyboard Layer 1 (Fail)
//Storyboard Layer 2 (Pass)
//Storyboard Layer 3 (Foreground)
//Storyboard Sound Samples

[TimingPoints]
1930,333.333333333333,4,2,1,80,1,0
2763,-111.111111111111,4,2,1,65,0,0
3096,-111.111111111111,4,2,1,70,0,0
7096,-100,4,2,1,75,0,0
7929,-100,4,2,1,65,0,0
8596,-100,4,2,1,80,0,0
13763,-100,4,2,1,90,0,1
13846,-100,4,2,1,80,0,0
23596,-100,4,2,1,65,0,0
24596,-111.111111111111,4,2,1,80,0,0
24929,-111.111111111111,4,2,1,55,0,0
25929,-111.111111111111,4,2,1,65,0,0
35263,-111.111111111111,4,2,1,70,0,0
36096,-133.333333333333,4,2,1,65,0,0
36596,-100,4,2,1,80,0,0
38429,-105.263157894737,4,2,1,80,0,0
38763,-100,4,2,1,80,0,0
46429,-100,4,2,1,85,0,0
46929,-100,4,2,1,60,0,0
47013,-100,4,2,1,85,0,0
47263,-117.647058823529,4,2,1,65,0,0
52596,-100,4,2,1,80,0,0
56929,-100,4,2,1,60,0,0
59263,-100,4,2,1,95,0,1
60429,-111.111111111111,4,2,1,95,0,1
60763,-100,4,2,1,95,0,1
69429,-100,4,2,1,80,0,0
69929,-100,4,2,1,95,0,1
71096,-111.111111111111,4,2,1,95,0,1
71429,-100,4,2,1,95,0,1
79096,-111.111111111111,4,2,1,80,0,0
80429,-100,4,2,1,95,0,1
80513,-100,4,2,1,85,0,0
87429,-100,4,2,1,70,0,0
88263,-100,4,2,1,75,0,0
88429,-100,4,2,1,80,0,1
88513,-100,4,2,1,5,0,0

[Colours]
Combo1 : 255,85,85
Combo2 : 190,124,124
Combo3 : 255,255,128
Combo4 : 128,255,255
Combo5 : 255,132,193

[HitObjects]
355,353,1929,69,4,1:3:0:0:
360,331,2013,1,0,1:0:0:0:
365,309,2096,1,0,1:0:0:0:
370,287,2179,1,0,1:0:0:0:
376,265,2263,1,8,0:2:0:0:
170,189,2429,1,8,0:2:0:0:
272,307,2596,1,0,1:0:0:0:
337,130,2763,5,4,0:0:0:0:
150,35,2929,2,0,L|160:114,1,69.749997871399,2|0,0:0|0:0,0:0:0:0:
183,268,3263,1,4,0:0:0:0:
183,268,3929,1,2,0:0:0:0:
183,268,4429,6,0,P|128:255|50:223,1,139.499995742798,4|0,1:2|1:0,0:0:0:0:
257,144,4929,2,0,P|293:135|328:123,1,69.749997871399,2|0,0:0|0:0,0:0:0:0:
267,30,5263,1,0,0:0:0:0:
311,208,5429,2,0,P|322:270|338:348,1,139.499995742798,4|0,1:2|1:0,0:0:0:0:
416,315,5846,5,0,1:0:0:0:
416,315,5929,2,0,P|421:277|427:242,1,69.749997871399,4|0,1:2|1:0,0:0:0:0:
422,99,6263,1,8,0:0:0:0:
484,168,6429,1,0,1:0:0:0:
489,188,6513,1,8,0:2:0:0:
494,208,6596,1,0,1:0:0:0:
336,153,6763,1,0,1:0:0:0:
437,13,6929,1,0,1:0:0:0:
332,234,7096,22,0,P|274:205|262:121,1,155,4|4,0:0|1:2,0:0:0:0:
354,0,7596,2,0,L|344:87,1,77.5,0|0,0:0|1:0,0:0:0:0:
332,234,7929,1,0,1:0:0:0:
330,257,8013,1,0,1:0:0:0:
328,280,8096,2,0,L|324:336,1,38.75,0|0,1:0|1:0,1:0:0:0:
201,359,8263,2,0,L|198:320,1,38.75,4|0,1:2|1:0,0:0:0:0:
196,297,8429,1,0,1:0:0:0:
194,274,8513,1,0,0:0:0:0:
194,250,8596,6,0,L|205:166,1,77.5,4|0,1:2|0:0,0:0:0:0:
353,62,8929,2,0,L|342:138,1,77.5,8|0,0:0|0:0,0:0:0:0:
264,16,9263,1,0,1:0:0:0:
439,106,9429,1,0,1:0:0:0:
274,196,9596,1,8,0:0:0:0:
439,106,9763,6,0,P|481:98|515:93,1,77.5,4|0,0:0|0:0,0:0:0:0:
353,62,10096,1,0,1:0:0:0:
443,227,10263,2,0,P|404:221|366:213,1,77.5,8|0,0:0|0:0,0:0:0:0:
255,97,10596,1,0,1:0:0:0:
353,62,10763,1,0,1:0:0:0:
274,196,10929,1,8,0:0:0:0:
166,38,11096,38,0,P|129:95|119:190,1,155,4|0,0:0|0:0,0:0:0:0:
124,202,11513,1,0,3:0:0:0:
133,222,11596,1,8,0:0:0:0:
329,369,11763,1,0,1:0:0:0:
311,356,11846,1,0,3:0:0:0:
295,340,11929,1,0,0:0:0:0:
409,185,12096,1,0,1:0:0:0:
430,190,12179,1,0,3:0:0:0:
452,193,12263,1,8,0:0:0:0:
231,99,12429,22,0,B|159:109|159:109|124:90|60:103,1,155,4|2,0:0|0:0,0:0:0:0:
48,197,12929,1,8,0:0:0:0:
186,212,13096,2,0,P|181:254|174:297,1,77.5,0|2,0:0|0:0,0:0:0:0:
87,333,13429,1,0,0:0:0:0:
21,110,13596,1,8,1:2:0:0:
298,163,13763,6,2,P|345:153|464:127,1,155,6|0,1:0|1:0,1:0:0:0:
318,48,14263,2,0,L|280:56|242:64,1,77.5,8|0,0:1|0:0,0:0:0:0:
140,137,14596,1,0,1:0:0:0:
31,82,14763,1,2,1:0:0:0:
160,16,14929,1,10,0:1:0:0:
50,173,15096,1,4,0:0:0:0:
50,173,15429,5,0,1:0:0:0:
131,237,15596,2,0,L|145:323,1,77.5,8|0,0:0|0:0,0:0:0:0:
50,173,15929,1,2,1:0:0:0:
251,182,16096,2,0,L|242:268,1,77.5,2|8,1:0|0:0,0:0:0:0:
73,312,16429,22,0,P|125:358|215:337,1,155,4|2,0:0|1:0,0:0:0:0:
251,182,16929,1,10,0:1:0:0:
131,237,17096,1,0,0:0:0:0:
283,294,17263,1,2,1:0:0:0:
167,150,17429,2,2,P|158:111|148:61,1,77.5,2|8,1:0|0:1,0:1:0:0:
251,182,17763,22,0,B|296:214|362:198|362:198|329:232|354:259,1,155,4|0,0:0|1:0,0:0:0:0:
348,246,18179,1,0,3:0:0:0:
354,259,18263,1,8,0:0:0:0:
436,136,18429,2,0,L|442:97,1,38.75,0|0,1:0|1:0,0:0:0:0:
500,23,18596,1,2,1:0:0:0:
366,50,18763,1,2,1:0:0:0:
494,204,18929,1,8,0:0:0:0:
304,98,19096,6,0,P|260:93|225:84,1,77.5,4|0,0:0|0:0,0:0:0:0:
190,6,19429,1,0,1:0:0:0:
389,219,19596,2,2,P|335:196|237:178,1,155,10|2,0:1|1:0,0:1:0:0:
110,200,20096,1,0,1:0:0:0:
196,280,20263,1,10,0:1:0:0:
154,71,20429,38,0,L|170:158,1,77.5,4|0,0:0|0:0,0:0:0:0:
196,280,20763,1,2,1:0:0:0:
16,255,20929,2,0,L|30:178,1,77.5,8|0,0:1|0:0,0:0:0:0:
36,156,21179,1,0,3:0:0:0:
42,133,21263,1,2,1:0:0:0:
154,71,21429,1,2,1:0:0:0:
110,200,21596,1,8,0:0:0:0:
288,96,21763,6,0,B|346:80|346:80|372:87|372:87|449:66,1,155,4|0,0:0|1:0,0:0:0:0:
391,205,22263,2,0,L|312:231,1,77.5,8|0,0:0|0:1,0:0:0:0:
295,238,22513,1,0,1:0:0:0:
273,246,22596,1,2,1:0:0:0:
451,295,22763,1,2,1:0:0:0:
480,129,22929,1,8,1:0:0:0:
249,254,23096,22,0,B|136:297|136:297|101:333,1,155,4|0,0:0|1:2,0:0:0:0:
231,371,23596,1,8,0:0:0:0:
267,126,23763,1,0,1:0:0:0:
157,250,23929,1,8,0:0:0:0:
363,347,24096,1,0,1:0:0:0:
330,206,24263,1,2,0:0:0:0:
341,185,24346,1,0,0:0:0:0:
352,164,24429,1,0,1:0:0:0:
363,143,24513,1,0,1:0:0:0:
374,122,24596,1,4,0:0:0:0:
374,122,24929,6,0,P|385:85|385:52,1,69.749997871399,2|0,0:0|0:0,0:0:0:0:
323,220,25263,2,0,P|349:248|378:264,1,69.749997871399,0|0,0:0|0:0,0:0:0:0:
255,136,25596,2,0,P|217:144|188:161,1,69.749997871399
130,234,25929,6,0,P|77:267|-4:267,1,139.499995742798,4|0,0:0|1:0,0:0:0:0:
49,182,26429,1,0,0:0:0:0:
85,306,26596,2,0,L|77:376,1,69.749997871399,0|0,1:0|0:0,0:0:0:0:
249,326,26929,2,0,L|241:256,1,69.749997871399,0|0,1:0|0:0,0:0:0:0:
329,73,27263,2,0,B|341:112|341:112|328:220,1,139.499995742798,0|0,1:2|1:0,0:0:0:0:
255,136,27763,1,0,0:0:0:0:
401,279,27929,1,0,1:0:0:0:
430,125,28096,2,0,L|436:75,1,34.8749989356995,2|0,0:0|0:0,0:0:0:0:
512,56,28263,2,0,L|507:21,2,34.8749989356995,0|0|0,1:0|0:0|0:0,0:0:0:0:
453,196,28596,6,0,P|415:198|387:185,1,69.749997871399,0|0,1:2|0:0,0:0:0:0:
255,136,28929,2,0,P|192:118|111:120,2,139.499995742798,0|0|0,1:0|1:0|1:0,0:0:0:0:
295,224,29763,1,2,0:0:0:0:
343,95,29929,1,0,1:0:0:0:
206,203,30096,2,0,P|194:240|188:277,1,69.749997871399,2|0,0:0|1:0,0:0:0:0:
264,345,30429,1,2,0:0:0:0:
380,256,30596,1,0,1:0:0:0:
255,136,30763,2,0,L|218:117,1,34.8749989356995,2|0,0:0|0:0,0:0:0:0:
208,37,30929,2,0,L|171:18,2,34.8749989356995,0|0|0,1:0|0:0|0:0,0:0:0:0:
343,95,31263,5,0,1:2:0:0:
294,9,31429,1,0,0:0:0:0:
298,204,31596,2,0,P|245:212|180:160,1,139.499995742798,0|0,1:0|1:0,0:0:0:0:
79,114,32096,1,0,0:0:0:0:
123,245,32263,2,0,P|161:245|202:224,1,69.749997871399,0|2,1:0|0:0,0:0:0:0:
289,66,32596,1,0,1:0:0:0:
378,161,32763,22,0,L|386:232,1,69.749997871399,2|0,0:0|1:0,0:0:0:0:
204,222,33096,2,0,L|196:293,1,69.749997871399,2|0,0:0|1:0,0:0:0:0:
356,305,33429,2,0,L|364:376,1,69.749997871399,2|0,0:0|1:0,0:0:0:0:
262,382,33763,1,2,0:0:0:0:
378,161,33929,6,0,P|370:109|358:39,1,104.624996807098,0|0,1:0|0:0,0:0:0:0:
380,33,34263,2,0,P|340:26|311:20,1,69.749997871399,0|0,1:0|0:0,0:0:0:0:
259,113,34596,2,0,P|225:119|191:123,1,69.749997871399,0|0,1:0|0:0,0:0:0:0:
342,243,34929,2,0,P|376:249|410:254,1,69.749997871399,0|0,1:0|1:0,0:0:0:0:
435,257,35179,1,0,1:0:0:0:
459,260,35263,1,4,0:0:0:0:
226,198,35429,37,0,1:0:0:0:
337,363,35596,1,8,0:0:0:0:
439,74,35763,1,4,0:0:0:0:
437,93,36096,2,0,L|419:231,1,116.250004434586,4|0,0:0|1:0,0:0:0:0:
413,278,36513,5,0,1:0:0:0:
407,305,36596,2,0,P|461:297|495:292,1,77.5,4|0,0:0|0:0,0:0:0:0:
334,352,36929,2,0,P|280:344|246:339,1,77.5,8|0,0:0|0:0,0:0:0:0:
135,282,37263,1,0,1:0:0:0:
181,380,37429,1,0,0:0:0:0:
190,214,37596,2,0,P|158:196|114:197,1,77.5,8|0,0:0|0:0,0:0:0:0:
135,282,37929,5,0,1:0:0:0:
269,182,38096,2,0,P|278:124|281:98,1,77.5,2|8,0:0|0:0,0:0:0:0:
293,281,38429,2,0,P|245:286|190:208,1,147.249996068001,2|0,0:0|0:0,0:0:0:0:
280,105,38929,1,8,0:0:0:0:
298,99,39013,1,2,0:0:0:0:
316,93,39096,1,0,0:0:0:0:
153,143,39263,6,0,P|108:138|72:132,1,77.5,0|0,1:2|0:0,0:0:0:0:
218,287,39596,2,0,P|275:277|375:266,1,155,8|0,1:0|1:0,0:0:0:0:
438,358,40096,1,2,0:0:0:0:
507,206,40263,1,8,0:0:0:0:
371,266,40429,1,2,0:0:0:0:
432,156,40596,6,0,P|448:117|450:70,1,77.5,0|0,1:0|0:0,0:0:0:0:
323,18,40929,1,8,0:0:0:0:
254,111,41096,2,0,P|186:112|95:85,1,155,2|0,0:0|0:0,0:0:0:0:
188,206,41596,2,0,P|198:252|205:281,1,77.5,8|0,0:0|0:0,0:0:0:0:
254,111,41929,21,0,1:2:0:0:
303,221,42096,1,0,0:0:0:0:
105,247,42263,2,0,P|67:237|29:229,1,77.5,8|0,0:0|0:0,0:0:0:0:
43,333,42596,1,0,1:0:0:0:
188,206,42763,2,0,P|202:171|197:120,1,77.5,2|8,0:0|0:0,0:0:0:0:
134,53,43096,1,2,0:0:0:0:
188,206,43263,6,0,B|248:195|297:180|297:180|322:189|355:197,1,155,0|8,1:0|0:0,0:0:0:0:
497,309,43763,1,2,0:0:0:0:
407,265,43929,1,0,1:0:0:0:
440,112,44096,1,2,0:0:0:0:
495,205,44263,1,8,0:0:0:0:
374,45,44429,5,4,0:0:0:0:
374,45,44763,1,0,1:0:0:0:
277,173,44929,2,0,P|204:162|124:129,1,155,8|0,0:0|1:0,0:0:0:0:
209,56,45429,1,0,1:0:0:0:
131,243,45596,1,8,0:0:0:0:
304,301,45763,22,0,P|377:290|457:257,1,155,4|0,0:0|1:0,0:0:0:0:
471,247,46179,1,0,3:0:0:0:
489,233,46263,1,8,0:0:0:0:
433,77,46429,1,0,3:0:0:0:
411,67,46513,1,0,3:0:0:0:
389,57,46596,2,0,P|367:49|349:45,1,38.75,10|0,0:0|0:0,0:0:0:0:
270,134,46763,2,0,P|256:119|238:106,1,38.75,0|0,1:2|1:0,0:0:0:0:
133,29,46929,1,4,0:0:0:0:
139,59,47013,1,0,1:0:0:0:
128,87,47096,1,0,1:0:0:0:
104,107,47179,1,0,1:0:0:0:
82,129,47263,6,0,P|61:185|56:256,1,131.750002512932,4|0,0:0|0:0,0:0:0:0:
131,323,47763,1,0,1:0:0:0:
254,290,47929,2,0,P|288:277|321:273,1,65.8750012564659,8|2,0:0|0:0,0:0:0:0:
207,370,48263,1,0,0:0:0:0:
237,187,48429,2,0,P|230:145|218:53,1,131.750002512932,4|4,0:0|0:0,0:0:0:0:
474,7,49096,5,0,1:0:0:0:
474,7,49179,1,0,1:0:0:0:
474,7,49263,2,0,L|466:82,1,65.8750012564659,4|0,0:0|0:0,0:0:0:0:
338,228,49596,2,0,L|331:162,1,65.8750012564659,4|0,0:0|0:0,0:0:0:0:
190,39,49929,6,0,P|257:31|319:86,1,131.750002512932,4|0,0:0|0:0,0:0:0:0:
338,228,50429,1,0,1:0:0:0:
213,183,50596,2,0,P|218:144|234:118,1,65.8750012564659,8|2,0:0|0:0,0:0:0:0:
338,228,50929,1,0,0:0:0:0:
199,288,51096,6,0,P|158:297|129:300,1,65.8750012564659,4|0,0:0|0:0,0:0:0:0:
329,210,51429,2,0,P|351:254|367:337,1,131.750002512932,4|0,0:0|1:0,0:0:0:0:
358,352,51846,1,0,1:0:0:0:
346,368,51929,1,4,0:0:0:0:
282,132,52096,1,0,1:0:0:0:
403,262,52263,2,0,P|443:272|481:273,1,65.8750012564659,4|0,0:0|0:0,0:0:0:0:
395,46,52596,21,4,1:0:0:0:
329,210,52763,1,0,0:0:0:0:
485,65,52929,1,0,1:0:0:0:
445,167,53096,1,0,0:0:0:0:
334,98,53263,2,0,P|244:76|212:65,1,116.25,0|0,1:0|0:0,0:0:0:0:
192,57,53596,2,0,L|200:147,1,77.5,12|0,1:0|0:0,0:0:0:0:
160,205,53846,6,0,L|165:255,1,38.75,0|4,0:0|0:0,0:0:0:0:
139,344,54096,1,0,0:0:0:0:
288,307,54263,2,0,L|294:229,1,77.5,0|0,1:0|0:0,0:0:0:0:
192,57,54596,2,0,B|146:38|87:56|87:56|111:110,1,155,0|12,1:0|1:0,0:0:0:0:
160,205,55096,5,0,0:0:0:0:
166,227,55179,1,0,0:0:0:0:
174,251,55263,2,0,P|138:270|95:272,1,77.5,4|0,0:0|0:0,0:0:0:0:
275,195,55596,2,0,P|256:159|254:116,1,77.5,8|0,0:0|0:0,0:0:0:0:
332,296,55929,2,0,P|368:277|411:275,1,77.5,0|0,1:0|0:0,0:0:0:0:
390,365,56263,1,8,0:0:0:0:
163,100,56429,21,6,1:0:0:0:
163,100,56763,1,0,1:0:0:0:
301,254,56929,1,10,0:1:0:0:
135,85,57096,1,0,1:0:0:0:
383,43,57263,1,10,1:0:0:0:
118,74,57429,1,0,1:0:0:0:
411,175,57596,1,10,0:1:0:0:
149,312,57763,21,4,0:0:0:0:
139,339,58096,1,4,0:0:0:0:
129,367,58429,1,4,0:0:0:0:
380,179,58763,5,0,0:0:0:0:
475,108,58929,1,2,0:3:0:0:
367,17,59096,1,0,0:0:0:0:
380,179,59263,2,0,L|387:256,1,77.5,4|0,0:0|0:0,0:0:0:0:
342,346,59596,2,0,P|283:352|238:321,1,116.25,8|0,0:0|0:0,0:0:0:0:
208,328,59929,2,0,P|168:339|133:351,1,77.5,2|0,1:2|0:0,0:0:0:0:
22,296,60263,1,8,0:0:0:0:
305,160,60429,6,0,P|370:170|470:189,1,139.499995742798,2|2,0:0|0:0,0:0:0:0:
253,96,60929,2,0,P|241:57|241:16,1,77.5,8|0,0:0|0:0,0:0:0:0:
207,198,61263,1,2,1:2:0:0:
305,160,61429,1,0,0:0:0:0:
193,292,61596,1,8,0:0:0:0:
290,335,61762,1,0,0:0:0:0:
89,173,61929,22,0,L|80:252,1,77.5,2|0,1:2|0:0,0:0:0:0:
354,244,62263,2,0,L|364:328,1,77.5,10|0,0:0|0:0,0:0:0:0:
216,99,62596,2,0,L|202:221,1,116.25,2|0,1:2|0:0,0:0:0:0:
197,242,62929,1,8,0:0:0:0:
350,129,63096,6,0,P|421:134|476:59,1,155,2|2,0:0|0:0,0:0:0:0:
350,129,63596,2,0,P|339:182|332:215,1,77.5,8|0,0:0|0:0,0:0:0:0:
256,326,63929,1,2,0:0:0:0:
233,331,64013,1,0,1:2:0:0:
210,336,64096,1,0,0:0:0:0:
187,341,64179,1,0,0:0:0:0:
171,362,64263,1,12,0:0:0:0:
148,366,64346,1,0,0:0:0:0:
125,371,64429,1,0,1:0:0:0:
102,376,64513,1,0,1:0:0:0:
79,379,64596,1,4,0:0:0:0:
120,263,64763,5,2,0:0:0:0:
18,229,64929,2,0,P|21:189|25:151,1,77.5,8|2,0:0|0:0,0:0:0:0:
130,54,65263,1,0,1:0:0:0:
185,171,65429,1,2,0:0:0:0:
20,73,65596,1,8,0:0:0:0:
120,263,65763,1,0,0:0:0:0:
315,127,65929,6,0,L|401:115,1,77.5,2|0,1:2|0:0,0:0:0:0:
201,317,66263,2,0,L|124:327,1,77.5,10|0,0:0|0:0,0:0:0:0:
329,113,66596,2,0,L|415:101,1,77.5,2|0,1:2|0:0,0:0:0:0:
189,333,66930,2,0,L|112:343,1,77.5,10|0,0:0|0:0,0:0:0:0:
341,212,67263,22,0,B|395:205|395:205|443:236|420:299,1,155,4|8,0:0|0:0,0:0:0:0:
297,352,67763,1,2,0:0:0:0:
329,113,67929,2,0,L|415:101,1,77.5,0|2,1:2|1:2,0:0:0:0:
230,199,68263,1,8,0:0:0:0:
291,30,68429,1,0,1:0:0:0:
341,212,68596,53,6,1:0:0:0:
137,103,68763,1,0,1:0:0:0:
393,7,68929,1,8,0:1:0:0:
158,279,69096,1,6,1:0:0:0:
135,285,69179,1,8,1:0:0:0:
112,292,69263,1,0,1:0:0:0:
137,103,69429,37,0,1:0:0:0:
341,212,69596,1,2,0:3:0:0:
286,122,69763,1,0,0:0:0:0:
267,291,69929,2,0,L|258:370,1,77.5,4|0,0:0|0:0,0:0:0:0:
334,176,70263,2,0,L|320:57,1,116.25,8|0,0:0|0:0,0:0:0:0:
314,33,70596,2,0,P|273:28|235:21,1,77.5,2|0,1:2|0:0,0:0:0:0:
32,62,70929,1,8,0:0:0:0:
263,202,71096,6,0,P|343:191|423:177,1,139.499995742798,2|2,0:0|0:0,0:0:0:0:
237,289,71596,2,0,P|201:307|169:326,1,77.5,8|0,0:0|0:0,0:0:0:0:
352,335,71929,1,2,1:2:0:0:
263,202,72096,1,0,0:0:0:0:
273,365,72263,1,8,0:0:0:0:
376,243,72429,1,0,0:0:0:0:
226,129,72596,38,0,P|166:140|147:143,1,77.5,2|0,1:2|0:0,0:0:0:0:
375,108,72929,2,0,P|354:165|347:183,1,77.5,10|0,0:0|0:0,0:0:0:0:
467,21,73263,2,0,P|493:76|500:93,1,77.5,2|0,1:2|0:0,0:0:0:0:
466,215,73596,1,8,0:0:0:0:
366,26,73763,6,0,B|321:42|252:43|252:43|268:57|279:78,1,155,2|2,0:0|0:0,0:0:0:0:
361,255,74263,1,8,0:0:0:0:
375,108,74429,1,0,0:0:0:0:
277,184,74596,1,2,1:2:0:0:
266,204,74679,1,0,1:0:0:0:
259,226,74763,1,0,0:0:0:0:
254,248,74846,1,0,1:0:0:0:
249,270,74929,1,12,1:2:0:0:
397,347,75096,1,0,1:0:0:0:
335,129,75263,6,0,P|303:110|253:113,1,77.5,4|0,0:0|0:0,0:0:0:0:
387,268,75596,2,0,P|424:270|460:248,1,77.5,8|0,0:0|0:0,0:0:0:0:
509,81,75929,1,0,1:0:0:0:
407,195,76096,1,0,1:0:0:0:
480,335,76263,1,8,0:0:0:0:
292,153,76429,22,0,P|219:148|164:212,1,155,4|0,0:0|1:0,0:0:0:0:
267,294,76929,2,0,P|267:253|245:220,1,77.5,8|0,0:0|0:0,0:0:0:0:
200,115,77263,1,0,1:0:0:0:
157,288,77429,1,0,1:0:0:0:
326,358,77596,1,8,0:0:0:0:
493,260,77763,54,0,B|438:270|438:270|401:259|401:259|325:273,1,155,4|0,0:0|3:0,0:0:0:0:
283,204,78179,2,0,L|320:195,1,38.75,0|8,1:0|0:0,0:0:0:0:
468,122,78429,1,0,1:0:0:0:
490,116,78513,1,0,1:0:0:0:
512,110,78596,1,8,3:1:0:0:
341,269,78763,1,0,1:0:0:0:
412,23,78929,1,8,1:0:0:0:
274,214,79096,6,0,P|219:201|194:124,1,139.499995742798,4|2,0:0|0:0,0:0:0:0:
80,62,79596,2,0,L|1:46,1,69.749997871399,8|0,0:0|0:0,0:0:0:0:
40,174,79929,2,0,L|50:251,1,69.749997871399,2|0,0:0|0:0,0:0:0:0:
60,361,80263,1,8,1:2:0:0:
323,266,80429,6,0,L|308:111,1,155,6|0,1:0|1:0,0:0:0:0:
376,48,80929,2,0,P|418:41|457:32,1,77.5,8|0,0:1|0:0,0:0:0:0:
509,167,81263,2,0,P|470:160|432:152,1,77.5,2|2,1:0|1:0,0:0:0:0:
308,111,81596,1,8,0:0:0:0:
391,250,81763,1,4,0:0:0:0:
391,250,82096,5,0,1:0:0:0:
308,111,82263,2,0,P|305:158|323:195,1,77.5,8|0,0:0|0:0,0:0:0:0:
391,250,82596,1,2,1:0:0:0:
231,73,82763,2,0,P|200:108|195:149,1,77.5,2|8,1:0|0:1,0:0:0:0:
220,288,83096,38,0,B|162:295|127:250|127:250|80:272|108:304,1,155,4|2,0:0|1:0,0:0:0:0:
15,340,83596,1,10,0:1:0:0:
6,247,83763,1,0,0:0:0:0:
0,154,83929,2,0,P|12:102|20:72,1,77.5,2|2,1:0|1:0,0:0:0:0:
6,247,84263,1,8,0:0:0:0:
100,113,84429,38,0,B|103:46|146:21|146:21|135:53|160:74,1,155,4|0,0:0|1:0,0:0:0:0:
249,197,84929,1,8,1:0:0:0:
286,88,85096,1,0,1:0:0:0:
304,79,85179,1,0,3:0:0:0:
321,70,85263,1,2,1:0:0:0:
100,113,85429,1,2,1:0:0:0:
222,13,85596,1,10,0:1:0:0:
173,178,85763,38,0,P|146:241|142:332,1,155,4|0,0:0|1:0,0:0:0:0:
272,363,86263,1,10,0:1:0:0:
277,131,86429,1,0,1:0:0:0:
287,126,86513,1,0,1:0:0:0:
298,123,86596,1,10,1:0:0:0:
66,287,86763,1,8,1:0:0:0:
66,287,87096,6,0,P|135:274|230:240,1,155,4|2,0:0|0:1,0:0:0:0:
325,169,87596,1,0,1:2:0:0:
192,120,87763,1,0,0:2:0:0:
305,293,87929,1,2,1:1:0:0:
402,30,88096,21,0,1:2:0:0:
233,208,88263,1,2,0:3:0:0:
493,348,88429,1,4,0:0:0:0:
256,192,88513,12,0,89929,0:0:0:0:
