osu file format v14

[General]
AudioFilename: Beautiful Sky (Ling).mp3
AudioLeadIn: 0
PreviewTime: 58679
Countdown: 0
SampleSet: Soft
StackLeniency: 0.3
Mode: 0
LetterboxInBreaks: 0
WidescreenStoryboard: 0

[Editor]
Bookmarks: 82596
DistanceSpacing: 1.1
BeatDivisor: 4
GridSize: 4
TimelineZoom: 1.4

[Metadata]
Title:BEAUTIFUL SKY Rin Solo Ver.
TitleUnicode:BEAUTIFUL SKY 鈴ソロVer.
Artist:Shimoda Asami
ArtistUnicode:下田麻美
Creator:Momochikun
Version:Easy
Source:IS〈インフィニット・ストラトス〉2
Tags:Infinite Stratos ending alacat tv size huang lingyin 凰 鈴音
BeatmapID:565143
BeatmapSetID:245251

[Difficulty]
HPDrainRate:2
CircleSize:3
OverallDifficulty:2
ApproachRate:3
SliderMultiplier:0.85
SliderTickRate:1

[Events]
//Background and Video events
0,0,"Ling BG.jpg",0,0
//Break Periods
//Storyboard Layer 0 (Background)
//Storyboard Layer 1 (Fail)
//Storyboard Layer 2 (Pass)
//Storyboard Layer 3 (Foreground)
//Storyboard Sound Samples

[TimingPoints]
1930,333.333333333333,4,2,1,80,1,0
2763,-100,4,2,1,65,0,0
3096,-100,4,2,1,70,0,0
7096,-100,4,2,1,75,0,0
7929,-100,4,2,1,65,0,0
8596,-100,4,2,1,80,0,0
13763,-100,4,2,1,90,0,1
13846,-100,4,2,1,80,0,0
23596,-100,4,2,1,65,0,0
24596,-100,4,2,1,80,0,0
24929,-100,4,2,1,55,0,0
25929,-100,4,2,1,65,0,0
35263,-100,4,2,1,70,0,0
36096,-100,4,2,1,65,0,0
36596,-100,4,2,1,80,0,0
46429,-100,4,2,1,85,0,0
46929,-100,4,2,1,60,0,0
47013,-100,4,2,1,85,0,0
47263,-100,4,2,1,65,0,0
52596,-100,4,2,1,80,0,0
56929,-100,4,2,1,60,0,0
59263,-100,4,2,1,95,0,1
69429,-100,4,2,1,80,0,0
69929,-100,4,2,1,95,0,1
79096,-100,4,2,1,80,0,0
80429,-100,4,2,1,95,0,1
80513,-100,4,2,1,85,0,0
87429,-100,4,2,1,70,0,0
88263,-100,4,2,1,75,0,0
88429,-100,4,2,1,80,0,1
88513,-100,4,2,1,5,0,0

[Colours]
Combo1 : 255,85,85
Combo2 : 190,124,124
Combo3 : 255,255,128
Combo4 : 128,255,255
Combo5 : 255,132,193

[HitObjects]
203,288,1929,6,0,L|54:266,2,127.5,4|0|0,1:3|1:3|1:3,0:0:0:0:
296,307,3263,1,4,0:0:0:0:
367,134,3929,1,2,0:0:0:0:
230,166,4429,6,0,B|176:171|176:171|145:156|78:164,1,127.5,4|2,1:2|0:0,0:0:0:0:
44,288,5429,2,0,P|94:322|158:316,1,127.5,4|4,0:0|1:2,0:0:0:0:
249,286,6263,1,8,0:0:0:0:
342,274,6596,6,0,P|357:224|343:130,2,127.5,0|4|0,1:0|0:0|0:0,0:0:0:0:
249,286,7929,2,0,L|165:296,1,85,8|4,1:2|0:0,0:0:0:0:
76,266,8596,5,4,1:2:0:0:
132,192,8929,1,8,0:0:0:0:
193,121,9263,2,0,B|298:112|298:112|354:127,2,127.5,0|4|8,1:0|0:0|0:0,0:0:0:0:
132,192,10596,6,0,P|108:142|129:57,2,127.5,0|4|8,1:0|0:0|0:0,0:0:0:0:
200,254,11929,2,0,P|222:303|203:389,1,127.5,0|4,1:0|0:0,0:0:0:0:
110,21,13763,6,0,L|261:34,1,127.5,6|8,1:0|0:1,0:0:0:0:
305,95,14596,2,0,L|446:82,2,127.5,0|4|8,1:0|0:0|0:0,0:0:0:0:
241,164,15929,2,0,P|217:214|207:307,2,127.5,2|4|10,1:0|0:0|0:1,0:0:0:0:
333,187,17263,2,0,P|326:257|298:322,2,127.5,2|4|8,1:0|0:0|0:0,0:0:0:0:
241,164,18596,6,0,P|217:114|207:21,2,127.5,2|4|10,1:0|0:0|0:1,0:0:0:0:
333,187,19929,2,0,L|479:176,1,127.5,2|4,1:0|0:0,0:0:0:0:
444,315,20929,1,10,0:1:0:0:
353,344,21263,2,0,L|207:333,1,127.5,2|4,1:0|0:0,0:0:0:0:
99,272,22263,6,0,P|81:227|100:130,1,127.5,8|2,0:0|1:0,0:0:0:0:
164,90,23096,2,0,B|209:72|209:72|259:85|309:63,1,127.5,4|8,0:0|0:0,0:0:0:0:
375,38,23929,1,8,0:0:0:0:
453,89,24263,2,0,L|460:184,1,85,2|4,0:0|0:0,0:0:0:0:
140,369,25929,6,0,P|82:363|43:247,1,170,4|0,0:0|1:0,0:0:0:0:
167,138,27263,2,0,B|262:150|262:150|300:130|360:137,1,170,0|0,1:2|1:0,0:0:0:0:
419,174,28263,1,0,1:0:0:0:
474,99,28596,6,0,L|460:5,2,85,0|0|0,1:2|1:0|1:0,0:0:0:0:
419,174,29596,1,0,1:0:0:0:
360,246,29929,2,0,B|369:307|369:307|332:371|260:349,1,170,0|0,1:0|1:0,0:0:0:0:
137,231,31263,6,0,B|39:248|39:248|3:215|18:153,1,170,0|0,1:2|1:0,0:0:0:0:
131,39,32596,2,0,P|190:45|234:53,1,85,0|0,1:0|1:0,0:0:0:0:
282,117,33263,2,0,P|341:111|385:103,1,85,0|0,1:0|1:0,0:0:0:0:
431,40,33929,6,0,B|413:168|413:168|440:198|437:242,1,170,0|0,1:0|1:0,0:0:0:0:
476,286,34929,1,0,1:0:0:0:
394,333,35263,2,0,B|299:348|299:348|252:338,1,127.5,4|4,0:0|0:0,0:0:0:0:
192,286,36096,2,0,B|97:271|97:271|50:281,1,127.5,4|4,0:0|1:2,0:0:0:0:
22,95,37263,6,0,P|95:79|131:72,1,85,0|8,1:0|0:0,0:0:0:0:
195,45,37929,1,2,1:2:0:0:
252,119,38263,2,0,P|331:109|450:82,1,170,8|8,0:0|0:0,0:0:0:0:
486,156,39263,5,0,1:0:0:0:
435,234,39596,2,0,P|356:244|237:271,1,170,8|8,0:0|0:0,0:0:0:0:
189,313,40596,2,0,P|149:328|96:327,1,85,2|8,1:2|0:0,0:0:0:0:
47,257,41263,2,0,P|87:242|140:243,1,85,0|8,1:0|0:0,0:0:0:0:
181,163,41929,6,0,B|218:115|210:54|210:54|257:41|290:63,1,170,2|0,1:2|1:0,0:0:0:0:
346,95,42929,1,8,0:0:0:0:
414,27,43263,2,0,L|516:15,2,85,0|8|0,1:2|0:0|1:0,0:0:0:0:
346,95,44263,2,0,L|352:155,1,42.5,8|4,0:0|0:0,0:0:0:0:
297,214,44763,6,0,L|303:274,1,42.5,0|8,1:0|0:0,0:0:0:0:
240,327,45263,2,0,P|143:312|80:308,2,127.5,0|4|8,1:2|0:0|0:0,0:0:0:0:
331,342,46596,1,10,0:0:0:0:
425,349,46929,1,4,0:0:0:0:
390,260,47263,5,4,0:0:0:0:
401,73,47929,1,8,0:0:0:0:
264,35,48429,2,0,P|209:47|150:54,1,85,4|4,0:0|0:0,0:0:0:0:
125,180,49263,2,0,P|180:168|239:161,1,85,4|4,0:0|0:0,0:0:0:0:
276,227,49929,5,4,0:0:0:0:
459,189,50596,1,8,0:0:0:0:
374,94,51096,2,0,P|329:73|275:75,1,85,4|4,0:0|0:0,0:0:0:0:
160,112,51929,1,4,0:0:0:0:
67,94,52263,1,4,0:0:0:0:
52,186,52596,6,0,B|182:228|182:228|221:272,1,170,4|0,1:0|1:0,0:0:0:0:
273,316,53596,1,12,1:0:0:0:
359,279,53929,2,0,P|384:228|368:100,1,170,4|0,0:0|1:0,0:0:0:0:
314,47,54929,1,12,1:0:0:0:
229,87,55263,2,0,L|24:66,1,170,4|0,0:0|1:0,0:0:0:0:
256,192,56429,12,4,57763,0:0:0:0:
335,174,59263,54,0,L|349:268,1,85,4|8,0:0|0:0,0:0:0:0:
289,330,59929,2,0,P|229:353|136:333,2,127.5,2|2|8,1:2|0:0|0:0,0:0:0:0:
347,258,61263,2,0,L|335:174,1,85,2|8,1:2|0:0,0:0:0:0:
255,121,61929,5,2,1:2:0:0:
175,68,62263,1,10,0:0:0:0:
82,91,62596,2,0,P|43:146|11:218,2,127.5,2|2|8,1:2|0:0|0:0,0:0:0:0:
175,68,63929,2,0,L|273:56,1,85,2|12,0:0|0:0,0:0:0:0:
346,92,64596,5,4,0:0:0:0:
303,172,64929,2,0,B|266:231|290:289|290:289|272:327|244:339,1,170,8|8,0:0|0:0,0:0:0:0:
176,364,65929,2,0,L|81:348,1,85,2|10,1:2|0:0,0:0:0:0:
122,261,66596,2,0,L|27:245,1,85,2|10,1:2|0:0,0:0:0:0:
21,154,67263,5,4,0:0:0:0:
111,123,67596,2,0,B|212:137|212:137|272:114|307:120,1,170,8|8,0:0|0:0,0:0:0:0:
362,158,68596,2,0,P|381:103|374:10,1,127.5,6|6,1:0|1:0,0:0:0:0:
241,10,69596,37,2,0:3:0:0:
157,52,69929,2,0,P|116:63|60:62,1,85,4|8,0:0|0:0,0:0:0:0:
15,137,70596,2,0,B|24:241|24:241|15:287,2,127.5,2|2|8,1:2|0:0|0:0,0:0:0:0:
107,149,71929,2,0,L|115:243,1,85,2|8,1:2|0:0,0:0:0:0:
168,309,72596,5,2,1:2:0:0:
258,285,72929,1,10,0:0:0:0:
346,255,73263,2,0,P|400:248|495:220,2,127.5,2|2|8,1:2|0:0|0:0,0:0:0:0:
278,189,74596,2,0,L|282:94,1,85,2|12,1:2|0:0,0:0:0:0:
205,49,75263,6,0,P|166:34|108:37,1,85,4|8,0:0|0:0,0:0:0:0:
136,125,75929,2,0,P|82:118|19:59,2,127.5,0|4|8,1:0|0:0|0:0,0:0:0:0:
198,198,77263,2,0,P|191:252|135:325,2,127.5,0|4|8,1:0|0:0|0:0,0:0:0:0:
272,141,78596,2,0,P|338:128|426:106,1,127.5,8|4,3:1|0:0,0:0:0:0:
326,322,80429,6,0,P|260:335|172:357,1,127.5,6|8,1:0|0:1,0:0:0:0:
112,319,81263,2,0,P|85:269|89:179,2,127.5,2|4|8,1:0|0:0|0:0,0:0:0:0:
187,263,82596,6,0,P|192:192|161:129,2,127.5,0|4|8,1:0|0:0|0:1,0:0:0:0:
271,302,83929,2,0,P|334:271|404:276,2,127.5,2|4|8,1:0|0:0|1:0,0:0:0:0:
185,340,85263,6,0,P|121:370|51:365,2,127.5,2|4|10,1:0|0:0|0:1,0:0:0:0:
201,248,86596,2,0,B|180:158|180:158|182:98,1,127.5,10|4,0:1|0:0,0:0:0:0:
259,71,87429,2,0,L|403:83,1,127.5,2|2,0:1|1:1,0:0:0:0:
462,139,88263,1,2,0:3:0:0:
256,192,88429,12,0,89929,0:0:0:0:
