osu file format v10

[General]
AudioFilename: track1.mp3
AudioLeadIn: 1760
PreviewTime: 49122
Countdown: 0
SampleSet: Normal
StackLeniency: 0.7
Mode: 0
LetterboxInBreaks: 0

[Editor]
DistanceSpacing: 1
BeatDivisor: 2
GridSize: 4

[Metadata]
Title:Fantastic*Schooldays
TitleUnicode:Fantastic*Schooldays
Artist:Shimoda Asami & Horie Yui
ArtistUnicode:Shimoda Asami & Horie Yui
Creator:h3k1ru
Version:Normal
Source:Kono Bushitsu wa Kitaku Shinai Bu ga Senkyo Shimashita.
Tags:Kitaki Renko Sakurae Yusura Sandpig Melophobia Mythol xsrsbsns cRyo[iceeicee] Opening Visual Novel Gakuen Dog Year Hen Summer Wars
BeatmapID:185009
BeatmapSetID:61911

[Difficulty]
HPDrainRate:4
CircleSize:3
OverallDifficulty:4
ApproachRate:5
SliderMultiplier:0.9
SliderTickRate:1

[Events]
//Background and Video events
0,0,"normal_bg.jpg"
Video,-434,"video.avi"
//Break Periods
//Storyboard Layer 0 (Background)
//Storyboard Layer 1 (Fail)
//Storyboard Layer 2 (Pass)
//Storyboard Layer 3 (Foreground)
//Storyboard Sound Samples
//Background Colour Transformations
3,100,163,162,255

[TimingPoints]
240,352.941176470588,4,2,1,40,1,0
1828,-100,4,1,2,50,0,0
2887,-100,4,2,1,50,0,0
4122,-100,4,1,2,50,0,0
5887,-100,4,2,1,50,0,0
6592,-100,4,1,2,50,0,0
8710,-100,4,2,1,50,0,0
9416,-100,4,1,2,50,0,0
9945,-100,4,2,1,50,0,0
10298,-100,4,1,2,50,0,0
10475,-100,4,2,1,50,0,0
10828,-100,4,1,2,50,0,0
11181,-100,4,2,1,50,0,0
11534,-100,4,1,2,50,0,0
12945,-100,4,1,2,30,0,0
13651,-100,4,1,2,40,0,0
24063,-100,4,2,1,50,0,0
24416,-100,4,1,2,40,0,0
32534,-100,4,2,1,50,0,0
32710,-100,4,1,2,40,0,0
34122,-100,4,2,1,40,0,0
34298,-100,4,1,2,40,0,0
35534,-100,4,2,1,40,0,0
35710,-100,4,1,2,40,0,0
38181,-100,4,2,1,50,0,0
38534,-100,4,1,2,40,0,0
41004,-100,4,2,1,50,0,0
41357,-100,4,1,2,40,0,0
42239,-100,4,2,1,50,0,0
42592,-100,4,1,2,40,0,0
44004,-100,4,1,2,30,0,0
44181,-100,4,1,2,40,0,0
48063,-100,4,2,1,50,0,0
49651,-100,4,1,2,50,0,1
55122,-100,4,2,1,50,0,1
55475,-100,4,1,2,50,0,1
60769,-100,4,2,1,50,0,1
61122,-100,4,1,2,50,0,1
63592,-100,4,2,1,50,0,1
63945,-100,4,1,2,50,0,1
66416,-100,4,2,1,40,0,1
66769,-100,4,1,2,40,0,1
69416,-100,4,2,1,40,0,1
69592,-100,4,1,2,40,0,1
69945,-100,4,2,1,40,0,1
70122,-100,4,1,2,40,0,1
70475,-100,4,2,1,40,0,1
70828,-100,4,2,1,50,0,0
72416,-100,4,1,1,50,0,0
77887,-100,4,1,1,35,0,0
78063,-100,4,1,1,50,0,0
89181,-100,4,1,1,30,0,0
89357,-100,4,1,1,50,0,0

[Colours]
Combo1 : 0,128,255
Combo2 : 255,128,0
Combo3 : 255,0,0

[HitObjects]
256,192,240,12,4,1651,0:0:0
340,272,2004,6,0,B|400:280|436:240,2,90,0|0|0,0:0|0:0|0:0,1:0:0
276,208,3063,2,0,B|232:176|164:196|156:268,2,135,4|4|0,0:0|0:0|0:0,0:0:0
364,184,4475,5,0,0:0:0
432,244,4828,1,0,0:0:0
400,328,5181,2,0,B|292:328,1,90
232,280,5887,2,0,B|64:280,2,135,4|4|0,0:0|0:0|0:0,0:0:0
312,324,7298,5,0,0:0:0
376,264,7651,1,0,0:0:0
340,180,8004,2,0,B|340:108,2,45
260,220,8710,2,0,B|192:264|112:216,2,135,4|4|0,0:0|0:0|0:0,0:0:0
320,152,10122,6,0,B|256:112|192:160,1,135,4|4,2:0|0:0,0:0:0
131,227,11004,1,0,0:0:0
168,308,11357,2,0,B|320:308,1,135,4|0,2:0|0:0,0:0:0
380,260,12239,2,0,B|404:308|380:360,2,90,2|6|4,2:0|2:0|0:0,0:0:0
280,112,13651,5,0,0:0:0
198,68,14004,1,0,3:0:0
116,104,14357,2,0,B|32:108|16:204,2,135
192,156,15769,6,0,B|192:260,1,90,2|0,0:0|3:0,0:0:0
192,336,16475,1,0,0:0:0
272,376,16828,1,0,3:0:0
356,340,17181,2,0,B|396:312|380:244,1,90,0|0,0:0|3:0,0:0:0
364,220,17710,2,0,B|344:172|372:120,1,90
380,88,18239,1,0,3:0:0
288,88,18592,6,0,B|196:132|104:68,1,180,2|0,0:0|0:0,0:0:0
40,32,19651,1,0,3:0:0
36,120,20004,2,0,B|8:168|32:228,1,90,0|0,0:0|3:0,0:0:0
96,264,20710,2,0,B|96:316,2,45,0|0|0,0:0|0:0|3:0,0:0:0
112,176,21416,6,0,B|172:140|244:184|236:256,1,180,2|0,0:0|0:0,0:0:0
204,336,22475,1,0,3:0:0
292,328,22828,2,0,B|368:360|440:296,2,135,0|0|4,0:0|0:0|2:0,0:0:0
236,256,24239,1,4,2:0:0
400,184,24945,6,0,B|420:144|404:96,1,90,0|0,0:0|3:0,0:0:0
324,140,25651,2,0,B|296:184|312:240|356:260,2,135
400,184,27063,2,0,B|508:184,1,90,2|0,0:0|3:0,0:0:0
472,272,27769,5,0,0:0:0
408,336,28122,1,0,3:0:0
328,292,28475,2,0,B|284:268|228:300,1,90
200,312,29004,2,0,B|152:332|96:312|84:256,1,135,0|0,0:0|0:0,0:0:0
168,228,29887,6,0,B|168:128,1,90,2|0,0:0|3:0,0:0:0
116,64,30592,2,0,B|56:64,2,45,0|0|0,0:0|0:0|3:0,0:0:0
200,36,31298,2,0,B|244:12|296:36,1,90,0|0,0:0|3:0,0:0:0
364,76,32004,2,0,B|388:128,1,45
460,164,32534,6,0,B|448:208|384:228|340:200,1,135,4|0,2:0|3:0,0:0:0
276,152,33416,1,0,0:0:0
196,192,33769,1,0,3:0:0
204,280,34122,2,0,B|136:356|24:320,2,180,4|4|4,0:0|2:0|0:0,0:0:0
324,144,36239,6,0,B|392:108|456:144,1,135,0|2,0:0|2:0,0:0:0
432,336,37651,2,0,B|324:336,2,90,0|2|4,0:0|2:0|2:0,0:0:0
324,192,39063,1,0,0:0:0
144,192,39769,2,0,B|76:196|40:268|88:348,1,180
256,360,41181,6,0,B|256:168,1,180,4|0,2:0|0:0,0:0:0
192,60,42416,2,0,B|256:24|320:60,1,135,4|0,0:0|0:0,0:0:0
400,104,43298,1,0,0:0:0
364,188,43651,1,0,0:0:0
400,280,44004,6,0,B|204:280,1,180,6|0,0:0|0:0,0:0:0
136,316,45063,1,0,0:0:0
64,260,45416,1,0,0:0:0
112,184,45769,2,0,B|68:160|16:184,2,90
184,240,46828,6,0,B|264:304|376:244|336:112|228:104,1,315,2|4,0:0|2:0,0:0:0
146,104,48416,2,0,B|72:104,2,45,0|0|4,1:0|1:0|0:0,0:0:0
272,32,49298,1,8,0:0:0
348,84,49651,6,0,B|376:128|360:184,1,90,0|8,0:0|0:0,0:0:0
292,228,50357,2,0,B|264:184|280:128,1,90,0|8,0:0|0:0,0:0:0
228,68,51063,1,0,0:0:0
144,32,51416,1,8,0:0:0
80,96,51769,2,0,B|24:96,2,45,0|0|8,0:0|0:0|0:0,0:0:0
156,144,52475,6,0,B|180:192|152:252,1,90,0|8,0:0|0:0,0:0:0
252,224,53181,2,0,B|228:176|256:116,1,90,0|8,0:0|0:0,0:0:0
328,180,53887,2,0,B|376:204|432:172,2,90,0|8|0,0:0|0:0|0:0,0:0:0
268,112,54945,1,8,0:0:0
184,144,55298,6,0,B|136:160|124:224,1,90,4|8,2:0|0:0,0:0:0
156,296,56004,2,0,B|156:352,2,45,0|0|8,0:0|0:0|0:0,0:0:0
188,264,56534,2,0,B|256:232|324:264,1,135,0|8,0:0|0:0,0:0:0
396,308,57416,1,0,0:0:0
460,244,57769,1,8,0:0:0
492,160,58122,6,0,B|444:140|400:176,1,90,0|8,0:0|0:0,0:0:0
336,228,58828,2,0,B|336:272,2,45,0|0|8,0:0|0:0|0:0,0:0:0
336,182,59357,2,0,B|336:36,1,135,2|0,0:0|0:0,0:0:0
248,20,60239,2,0,B|248:120,1,90,2|0,0:0|0:0,0:0:0
196,184,60945,6,0,B|228:228,2,45,4|0|8,0:0|0:0|0:0,0:0:0
116,140,61651,2,0,B|148:96,2,45,0|0|8,0:0|0:0|0:0,0:0:0
44,196,62357,2,0,B|20:240|40:288,1,90,0|8,0:0|0:0,0:0:0
96,352,63063,2,0,B|144:328|192:344,1,90,0|8,0:0|0:0,0:0:0
260,292,63769,6,0,B|260:220,2,45,4|0|8,0:0|0:0|0:0,0:0:0
344,324,64475,2,0,B|344:396,2,45,0|0|8,0:0|0:0|0:0,0:0:0
388,244,65181,1,0,0:0:0
328,180,65534,1,8,0:0:0
244,216,65887,2,0,B|204:236|148:212,1,90,0|8,0:0|0:0,0:0:0
100,144,66592,6,0,B|100:80,2,45,4|0|8,0:0|0:0|0:0,0:0:0
40,212,67298,2,0,B|16:256|40:320,1,90,0|8,0:0|0:0,0:0:0
64,332,67828,2,0,B|128:368|196:332,1,135,0|8,0:0|0:0,0:0:0
268,280,68710,1,0,0:0:0
340,332,69063,1,8,0:0:0
416,284,69416,6,0,B|472:232|432:148,2,135,4|4|4,0:0|0:0|0:0,0:0:0
360,212,70828,1,4,2:0:0
256,192,71004,12,4,72240,0:0:0
172,112,72592,6,0,B|112:104|76:144,2,90
236,176,73651,2,0,B|280:208|348:188|356:116,2,135,4|4|0,2:0|2:0|0:0,0:0:0
148,200,75063,5,0,0:0:0
80,140,75416,1,0,0:0:0
112,56,75769,2,0,B|220:56,1,90
280,104,76475,2,0,B|448:104,2,135,4|4|0,2:0|2:0|0:0,0:0:0
200,60,77887,5,4,0:0:0
136,120,78240,1,0,0:0:0
172,204,78592,2,0,B|172:276,2,45
252,164,79298,2,0,B|316:116|404:172,2,135,4|4|0,2:0|2:0|0:0,0:0:0
192,232,80710,6,0,B|256:272|320:224,1,135,4|0,2:0|0:0,0:0:0
380,159,81592,1,0,0:0:0
344,76,81945,2,0,B|192:76,1,135,4|0,2:0|0:0,0:0:0
132,124,82828,2,0,B|109:81|132:24,2,90,2|2|4,2:0|2:0|2:0,0:0:0
156,212,83887,5,0,0:0:0
204,288,84240,1,0,0:0:0
292,292,84592,1,0,0:0:0
376,260,84945,2,0,B|460:256|476:160,2,135,4|4|0,2:0|2:0|0:0,0:0:0
308,200,86357,6,0,B|308:96,1,90
276,24,87063,1,0,0:0:0
200,76,87416,1,0,0:0:0
132,16,87769,2,0,B|92:44|108:112,1,90,4|0,2:0|0:0,0:0:0
124,136,88298,2,0,B|144:184|116:236,1,90,4|0,2:0|0:0,0:0:0
108,268,88828,1,0,0:0:0
176,328,89181,6,0,B|268:284|360:348,1,180,4|0,0:0|0:0,0:0:0
436,328,90240,1,0,0:0:0
488,252,90592,2,0,B|520:224|516:152|476:120,2,135,4|4|0,2:0|2:0|0:0,0:0:0
420,192,92004,6,0,B|276:192,1,135,4|0,2:0|0:0,0:0:0
194,192,92887,1,0,0:0:0
104,192,93240,2,0,B|40:144|72:64,1,135,4|0,2:0|0:0,0:0:0
152,32,94122,6,0,B|216:32,3,45,4|0|0|4,2:0|0:0|0:0|2:0,0:0:0
