osu file format v10

[General]
AudioFilename: track1.mp3
AudioLeadIn: 1760
PreviewTime: 49122
Countdown: 0
SampleSet: Normal
StackLeniency: 0.7
Mode: 0
LetterboxInBreaks: 0

[Editor]
DistanceSpacing: 0.6
BeatDivisor: 4
GridSize: 8

[Metadata]
Title:Fantastic*Schooldays
TitleUnicode:Fantastic*Schooldays
Artist:Shimoda Asami & Horie Yui
ArtistUnicode:Shimoda Asami & Horie Yui
Creator:h3k1ru
Version:Insane
Source:Kono Bushitsu wa Kitaku Shinai Bu ga Senkyo Shimashita.
Tags:Kitaki Renko Sakurae Yusura Sandpig Melophobia Mythol xsrsbsns cRyo[iceeicee] Opening Visual Novel Gakuen Dog Year Hen Summer Wars
BeatmapID:184849
BeatmapSetID:61911

[Difficulty]
HPDrainRate:7
CircleSize:4
OverallDifficulty:7
ApproachRate:9
SliderMultiplier:1.6
SliderTickRate:2

[Events]
//Background and Video events
0,0,"h3k1_bg.jpg"
Video,-434,"video.avi"
//Break Periods
//Storyboard Layer 0 (Background)
//Storyboard Layer 1 (Fail)
//Storyboard Layer 2 (Pass)
//Storyboard Layer 3 (Foreground)
//Storyboard Sound Samples
//Background Colour Transformations
3,100,163,162,255

[TimingPoints]
240,352.941176470588,4,2,1,40,1,0
945,-100,4,1,1,40,0,0
1298,-100,4,1,1,45,0,0
1651,-100,4,1,1,50,0,0
11622,-100,4,2,1,60,0,0
11975,-100,4,1,1,45,0,0
13034,-100,4,1,2,40,0,0
35534,-133.333333333333,4,1,2,35,0,0
38357,-133.333333333333,4,2,1,35,0,0
38445,-133.333333333333,4,1,2,35,0,0
41181,-133.333333333333,4,2,1,40,0,0
41269,-133.333333333333,4,1,2,35,0,0
44004,-100,4,1,1,40,0,0
48063,-100,4,2,1,60,0,0
49298,-100,4,1,1,45,0,0
49651,-100,4,1,1,50,0,1
70828,-100,4,1,1,50,0,0
71534,-100,4,1,1,30,0,0
71710,-100,4,1,1,35,0,0
71887,-100,4,1,1,40,0,0
72063,-100,4,1,1,45,0,0
72239,-100,4,1,1,50,0,0
82475,-100,4,1,1,60,0,0
83534,-100,4,1,1,50,0,0
91651,-100,4,1,1,40,0,0
91739,-100,4,1,1,50,0,0
92004,-100,4,1,1,45,0,0
92092,-100,4,1,1,50,0,0
94651,-100,4,1,1,40,0,0

[Colours]
Combo1 : 0,128,255
Combo2 : 255,128,0
Combo3 : 255,0,0

[HitObjects]
112,72,240,2,0,B|80:104|88:144,1,80,2|0,0:0|0:0,0:0:0
128,304,592,2,0,B|168:288|184:248,1,80,2|0,0:0|0:0,0:0:0
256,104,945,5,0,0:0:0
278,112,1034,1,0,0:0:0
294,128,1122,1,0,0:0:0
304,149,1210,1,0,0:0:0
313,170,1298,1,0,0:0:0
324,191,1387,1,0,0:0:0
340,207,1475,1,0,0:0:0
360,218,1563,1,0,0:0:0
381,228,1651,6,0,B|416:208|424:160,1,80,4|0,0:0|0:0,0:0:0
416,32,2004,2,0,B|376:40|352:80,1,80,10|0,0:0|0:0,0:0:0
165,150,2357,2,0,B|128:128|120:88,1,80,2|0,0:0|0:0,0:0:0
280,40,2710,2,0,B|272:80|232:104,1,80,10|0,0:0|0:0,0:0:0
56,296,3063,6,2,B|88:320|136:312,1,80,2|0,0:0|0:0,0:0:0
240,200,3416,1,8,0:0:0
104,120,3592,2,2,B|60:108|48:64,2,80,2|0|2,0:0|0:0|0:0,0:0:0
224,112,4122,1,8,0:0:0
264,280,4298,5,0,0:0:0
264,280,4387,1,0,0:0:0
264,280,4475,2,0,B|304:272|328:232,1,80
408,136,4828,2,0,B|440:160|432:208,1,80,10|0,0:0|0:0,0:0:0
312,144,5181,2,0,B|273:128|257:88,1,80,2|0,0:0|0:0,0:0:0
392,16,5534,2,0,B|392:56|352:88,1,80,10|0,0:0|0:0,0:0:0
168,176,5887,6,2,B|136:152|144:104,1,80,2|0,0:0|0:0,0:0:0
248,112,6239,1,8,0:0:0
218,267,6416,2,2,B|184:288|136:264,1,80,2|0,0:0|0:0,0:0:0
40,192,6769,1,0,0:0:0
40,192,6857,1,0,0:0:0
40,192,6945,1,12,0:0:0
112,80,7122,5,0,0:0:0
112,80,7210,1,0,0:0:0
112,80,7298,2,0,B|152:96|160:144,1,80,4|0,0:0|0:0,0:0:0
120,304,7651,2,0,B|160:320|200:312,1,80,10|0,0:0|0:0,0:0:0
248,200,8004,2,0,B|209:200|184:160,1,80,2|0,0:0|0:0,0:0:0
296,40,8357,2,0,B|296:88|264:112,1,80,10|0,0:0|0:0,0:0:0
168,248,8710,6,2,B|128:224|128:176,1,80,2|0,0:0|0:0,0:0:0
112,80,9063,1,8,0:0:0
216,112,9239,2,0,B|256:96|280:56,2,80,2|0|0,0:0|0:0|0:0,0:0:0
112,160,9769,5,8,0:0:0
112,160,9945,1,0,0:0:0
112,160,10122,2,0,B|104:200|112:240,1,80,6|0,0:0|0:0,0:0:0
40,352,10475,2,0,B|80:352|112:320,1,80,2|2,0:0|0:0,0:0:0
320,48,11004,5,2,0:0:0
376,264,11357,1,6,0:0:0
104,96,11710,5,2,0:0:0
104,96,11887,1,2,0:0:0
80,200,12063,2,0,B|40:216,2,40,0|0|4,0:0|0:0|0:0,0:0:0
256,128,12592,5,4,0:0:0
304,312,12945,6,0,B|384:272|392:184,1,160,4|8,0:0|0:0,0:0:0
392,64,13475,1,0,0:0:0
240,48,13651,2,0,B|200:56|176:96,2,80,0|0|8,0:0|0:0|0:0,0:0:0
336,104,14181,1,0,0:0:0
408,200,14357,6,0,B|360:272|264:256,1,160,0|8,0:0|0:0,0:0:0
104,168,14887,2,0,B|176:216|257:179,1,160
368,112,15416,1,8,0:0:0
200,64,15592,6,0,B|224:104|272:96,1,80,0|2,0:0|0:0,0:0:0
352,48,15945,1,0,0:0:0
432,104,16122,1,8,0:0:0
440,200,16298,1,0,0:0:0
416,296,16475,6,0,B|376:312|336:280,1,80
176,272,16828,2,0,B|224:272|248:232,1,80,8|0,0:0|0:0,0:0:0
360,160,17181,6,0,B|280:168|216:96,1,160,0|8,0:0|0:0,0:0:0
320,72,17710,2,0,B|312:160|232:216,1,160
152,272,18239,1,8,0:0:0
88,120,18416,6,0,B|110:80|158:80,1,80,0|2,0:0|0:0,0:0:0
248,120,18769,1,0,0:0:0
280,216,18945,1,8,0:0:0
216,296,19122,1,0,0:0:0
152,208,19298,6,0,B|152:128,2,80,0|0|8,0:0|0:0|0:0,0:0:0
88,296,19828,1,0,0:0:0
184,328,20004,6,0,B|224:344|264:312,1,80
288,296,20269,1,0,0:0:0
320,272,20357,2,0,B|320:312|351:344,2,80,8|0|0,0:0|0:0|0:0,0:0:0
264,160,20887,2,0,B|304:176|342:151,1,80,0|8,0:0|0:0,0:0:0
152,104,21239,6,0,B|136:144|152:184,1,80,0|2,0:0|0:0,0:0:0
184,280,21592,1,0,0:0:0
256,352,21769,2,0,B|296:360|328:328,1,80,8|0,0:0|0:0,0:0:0
400,256,22122,1,0,0:0:0
400,256,22298,1,0,0:0:0
424,160,22475,2,0,B|408:120|360:104,1,80,8|0,0:0|0:0,0:0:0
184,136,22828,6,0,B|240:200|328:192,1,160,2|8,0:0|0:0,0:0:0
320,88,23357,2,0,B|288:56|248:56,1,80,2|0,0:0|0:0,0:0:0
136,304,23710,2,0,B|176:296|200:248,1,80,2|8,0:0|0:0,0:0:0
133,125,24063,5,0,0:0:0
133,125,24151,1,0,0:0:0
133,125,24239,2,0,B|147:162|200:168,1,80,4|0,0:0|0:0,0:0:0
296,184,24592,1,8,0:0:0
384,136,24769,1,0,0:0:0
312,56,24945,6,0,B|296:96|328:136,1,80
376,264,25298,2,0,B|421:260|440:216,1,80,8|0,0:0|0:0,0:0:0
336,360,25651,6,0,B|259:322|246:235,1,160,0|8,0:0|0:0,0:0:0
376,264,26181,2,0,B|336:336|232:320,1,160
136,184,26710,1,8,0:0:0
288,96,26887,6,0,B|304:144|264:176,1,80,0|2,0:0|0:0,0:0:0
176,264,27239,2,0,B|136:280|96:264,2,80,0|8|0,0:0|0:0|0:0,0:0:0
296,208,27769,1,0,0:0:0
376,104,27945,1,0,0:0:0
256,40,28122,2,0,B|224:64|224:112,1,80,8|0,0:0|0:0,0:0:0
56,184,28475,6,0,B|120:248|208:208,1,160,0|8,0:0|0:0,0:0:0
360,208,29004,2,0,B|368:248|334:282,1,80
240,336,29357,2,0,B|200:331|167:300,2,80,0|8|0,0:0|0:0|0:0,0:0:0
304,64,29887,6,0,B|272:88|272:144,1,80,2|0,0:0|0:0,0:0:0
320,272,30239,2,0,B|360:288|400:256,1,80,8|0,0:0|0:0,0:0:0
464,184,30592,5,0,0:0:0
400,104,30769,1,0,0:0:0
264,144,30945,2,0,B|288:184|332:183,1,80,8|0,0:0|0:0,0:0:0
352,64,31298,6,0,B|384:40|432:48,2,80,0|0|8,0:0|0:0|0:0,0:0:0
232,72,31828,2,0,B|192:88|184:136,1,80,0|6,0:0|0:0,0:0:0
176,232,32181,1,6,0:0:0
176,232,32534,6,0,B|264:240|320:176,1,160,6|0,0:0|0:0,0:0:0
368,88,33063,1,8,0:0:0
288,24,33239,1,0,0:0:0
184,32,33416,6,0,B|177:69|217:101,1,80
312,224,33769,2,0,B|272:208|259:166,1,80,8|0,0:0|0:0,0:0:0
160,184,34122,6,0,B|128:208|80:208,2,80,6|4|8,0:0|0:0|0:0,0:0:0
232,112,34651,1,0,0:0:0
248,96,34739,1,0,0:0:0
272,88,34828,1,4,0:0:0
296,88,34916,1,0,0:0:0
320,96,35004,1,0,0:0:0
336,112,35092,1,0,0:0:0
352,136,35181,1,0,0:0:0
360,160,35269,1,0,0:0:0
360,184,35357,1,0,0:0:0
352,208,35445,1,0,0:0:0
344,224,35534,6,0,B|288:272|224:224,1,120.000004577637,6|0,0:0|0:0,0:0:0
160,184,36063,1,0,0:0:0
104,120,36239,2,0,B|72:120|48:141,2,60.0000022888184,8|0|0,0:0|0:0|0:0,0:0:0
192,104,36769,6,0,B|224:112|248:88,1,60.0000022888184,2|0,0:0|0:0,0:0:0
320,40,37122,1,0,0:0:0
384,96,37298,1,0,0:0:0
376,184,37475,1,0,0:0:0
312,240,37651,6,0,B|288:264|259:267,1,60.0000022888184,8|0,0:0|0:0,0:0:0
192,160,38004,2,0,B|211:178|248:192,1,60.0000022888184
376,296,38357,6,0,B|408:280|416:248,1,60.0000022888184,4|0,0:0|0:0,0:0:0
432,168,38710,1,0,0:0:0
400,88,38887,1,0,0:0:0
336,32,39063,2,0,B|272:40|240:96,1,120.000004577637,8|0,0:0|0:0,0:0:0
216,208,39592,1,0,0:0:0
192,320,39769,6,0,B|224:328|248:304,1,60.0000022888184,2|0,0:0|0:0,0:0:0
312,208,40122,1,0,0:0:0
240,120,40298,1,0,0:0:0
136,176,40475,1,8,0:0:0
96,288,40651,2,0,B|120:312|160:312,1,60.0000022888184,0|0,0:0|0:0,0:0:0
312,328,41004,5,0,0:0:0
312,328,41092,1,0,0:0:0
312,328,41181,2,0,B|336:312|344:272,1,60.0000022888184,4|0,0:0|0:0,0:0:0
400,208,41534,2,0,B|376:184|344:184,1,60.0000022888184
264,168,41887,1,8,0:0:0
184,208,42063,1,0,0:0:0
152,296,42239,1,0,0:0:0
216,368,42416,6,0,B|264:336|264:256,1,120.000004577637,6|0,0:0|0:0,0:0:0
264,168,42945,1,2,0:0:0
54,121,43298,6,0,B|32:160,3,30.0000011444092,6|0|0|0,0:0|0:0|0:0|0:0,0:0:0
58,197,43651,2,0,B|32:240,3,30.0000011444092,14|0|0|0,0:0|0:0|0:0|0:0,0:0:0
64,272,44004,6,0,B|108:269|128:224,1,80,4|0,0:0|0:0,0:0:0
152,128,44357,1,8,0:0:0
224,56,44534,1,0,0:0:0
320,32,44710,2,0,B|360:48|376:96,1,80
400,184,45063,1,8,0:0:0
368,280,45239,1,0,0:0:0
288,344,45416,2,0,B|248:336|216:304,1,80
88,200,45769,6,2,B|104:160|144:136,1,80,10|0,0:0|0:0,0:0:0
272,40,46122,2,2,B|312:48|336:84,1,80,2|0,0:0|0:0,0:0:0
400,240,46475,2,2,B|392:288|352:304,1,80,10|0,0:0|0:0,0:0:0
256,192,46828,12,2,48063,0:0:0
160,104,48416,5,2,0:0:0
160,104,48592,1,2,0:0:0
160,104,48769,1,2,0:0:0
48,336,49122,6,0,B|88:336|128:304,1,80,0|12,0:0|0:0,0:0:0
152,280,49387,1,0,0:0:0
176,248,49475,1,0,0:0:0
208,224,49563,1,0,0:0:0
248,208,49651,6,0,B|280:232|288:280,2,80,6|2|8,0:0|0:0|0:0,0:0:0
248,88,50181,1,0,0:0:0
352,144,50357,2,0,B|392:144|424:104,2,80,2|2|8,0:0|0:0|0:0,0:0:0
352,264,50887,1,0,0:0:0
272,344,51063,6,2,B|232:352|200:320,1,80,2|0,0:0|0:0,0:0:0
56,128,51416,2,2,B|56:168|88:200,1,80,10|0,0:0|0:0,0:0:0
48,320,51769,2,2,B|88:320|117:281,1,80,2|0,0:0|0:0,0:0:0
192,200,52122,1,8,0:0:0
256,104,52298,1,0,0:0:0
368,64,52475,6,0,B|392:96|384:144,2,80,2|2|8,0:0|0:0|0:0,0:0:0
216,48,53004,1,0,0:0:0
128,176,53181,2,0,B|96:208|48:192,2,80,2|2|8,0:0|0:0|0:0,0:0:0
64,64,53710,1,0,0:0:0
72,312,53887,6,2,B|112:304|128:256,1,80,2|0,0:0|0:0,0:0:0
160,152,54239,1,8,0:0:0
248,72,54416,1,0,0:0:0
376,48,54592,2,2,B|400:88|384:152,1,80,2|0,0:0|0:0,0:0:0
376,248,54945,1,12,0:0:0
304,344,55122,5,0,0:0:0
304,344,55210,1,0,0:0:0
304,344,55298,2,2,B|216:352|160:280,1,160,6|8,0:0|0:0,0:0:0
160,152,55828,1,0,0:0:0
248,72,56004,5,2,0:0:0
368,72,56181,1,2,0:0:0
368,192,56357,1,10,0:0:0
248,176,56534,6,2,B|211:193|192:240,2,80,2|2|0,0:0|0:0|0:0,0:0:0
384,272,57063,2,2,B|432:272|448:232,1,80,10|0,0:0|0:0,0:0:0
232,112,57416,2,2,B|192:104|168:64,1,80,2|0,0:0|0:0,0:0:0
128,224,57769,2,2,B|168:232|200:192,1,80,10|0,0:0|0:0,0:0:0
112,104,58122,6,0,B|64:112|48:160,2,80,2|0|8,0:0|0:0|0:0,0:0:0
224,80,58651,2,2,B|264:88|296:56,1,80,2|0,0:0|0:0,0:0:0
408,24,59004,5,0,0:0:0
411,121,59181,1,8,0:0:0
344,192,59357,1,4,0:0:0
208,328,59710,5,2,0:0:0
208,328,59887,1,14,0:0:0
112,256,60063,2,0,B|88:296,2,40,2|0|6,0:0|0:0|0:0,0:0:0
120,136,60416,1,0,0:0:0
120,136,60504,1,0,0:0:0
120,136,60592,1,14,0:0:0
208,56,60769,5,0,0:0:0
208,56,60857,1,0,0:0:0
208,56,60945,2,2,B|208:104|256:128,1,80,6|0,0:0|0:0,0:0:0
344,192,61298,1,10,0:0:0
464,176,61475,1,0,0:0:0
352,312,61651,6,2,B|312:320|272:296,1,80,2|0,0:0|0:0,0:0:0
168,248,62004,1,10,0:0:0
120,136,62181,1,0,0:0:0
232,80,62357,6,2,B|216:37|160:32,2,80,2|2|10,0:0|0:0|0:0,0:0:0
232,224,62887,1,0,0:0:0
368,256,63063,2,2,B|408:240|416:192,1,80,2|0,0:0|0:0,0:0:0
424,80,63416,1,14,0:0:0
304,152,63592,5,0,0:0:0
304,152,63681,1,0,0:0:0
304,152,63769,2,2,B|264:152|232:120,1,80,6|0,0:0|0:0,0:0:0
136,32,64122,1,10,0:0:0
64,176,64298,1,0,0:0:0
160,264,64475,6,2,B|200:256|240:216,1,80,2|0,0:0|0:0,0:0:0
312,136,64828,1,10,0:0:0
448,48,65004,1,0,0:0:0
416,168,65181,6,2,B|416:208|452:238,2,80,2|2|10,0:0|0:0|0:0,0:0:0
288,272,65710,2,2,B|328:280|360:240,1,80,2|2,0:0|0:0,0:0:0
320,120,66063,1,0,0:0:0
320,120,66151,1,0,0:0:0
320,120,66239,1,12,0:0:0
248,40,66416,5,0,0:0:0
248,40,66504,1,0,0:0:0
248,40,66592,2,2,B|208:40|184:80,1,80,6|0,0:0|0:0,0:0:0
136,224,66945,2,2,B|120:184|152:144,1,80,10|0,0:0|0:0,0:0:0
112,40,67298,2,0,B|64:32|32:64,2,80,2|0|8,0:0|0:0|0:0,0:0:0
224,104,67828,5,0,0:0:0
256,112,67916,1,0,0:0:0
288,112,68004,2,2,B|328:112|352:72,1,80,2|0,0:0|0:0,0:0:0
456,128,68357,2,2,B|450:171|408:200,1,80,10|0,0:0|0:0,0:0:0
368,312,68710,2,2,B|328:304|304:264,1,80,2|0,0:0|0:0,0:0:0
240,176,69063,5,10,0:0:0
152,104,69239,1,0,0:0:0
256,64,69416,6,0,B|296:48|336:64,1,80,4|0,0:0|0:0,0:0:0
440,96,69769,1,8,0:0:0
456,208,69945,2,0,B|440:248|392:264,1,80,4|0,0:0|0:0,0:0:0
288,288,70298,1,0,0:0:0
184,264,70475,1,12,0:0:0
112,192,70651,1,0,0:0:0
112,192,70739,1,0,0:0:0
112,192,70828,1,4,0:0:0
272,88,71534,6,0,B|320:88,7,40,0|0|0|0|0|0|0|0,0:0|0:0|0:0|0:0|0:0|0:0|0:0|0:0,0:0:0
344,72,72239,2,0,B|368:112|344:168,1,80,4|0,0:0|0:0,0:0:0
416,256,72592,2,0,B|384:288|336:272,1,80,10|0,0:0|0:0,0:0:0
232,320,72945,2,0,B|200:288|208:248,1,80,2|0,0:0|0:0,0:0:0
224,128,73298,1,10,0:0:0
328,72,73475,1,0,0:0:0
360,200,73651,6,2,B|318:206|286:174,1,80,2|0,0:0|0:0,0:0:0
160,80,74004,1,8,0:0:0
136,224,74181,2,2,B|176:232|216:208,1,80,2|0,0:0|0:0,0:0:0
336,120,74534,1,0,0:0:0
248,40,74710,1,8,0:0:0
128,24,74887,6,0,B|88:32|64:72,2,80
108,153,75416,2,0,B|72:176|32:160,1,80,10|0,0:0|0:0,0:0:0
224,104,75769,2,0,B|256:136|240:184,1,80,2|0,0:0|0:0,0:0:0
264,312,76122,2,0,B|312:312|328:272,1,80,10|0,0:0|0:0,0:0:0
376,160,76475,6,2,B|408:128|448:128,2,80,2|2|8,0:0|0:0|0:0,0:0:0
248,192,77004,2,2,B|208:184|184:136,1,80,2|0,0:0|0:0,0:0:0
120,56,77357,1,0,0:0:0
120,56,77445,1,0,0:0:0
120,56,77534,1,12,0:0:0
280,80,77710,5,0,0:0:0
280,80,77798,1,0,0:0:0
280,80,77887,2,0,B|320:104|360:88,1,80,4|0,0:0|0:0,0:0:0
392,288,78239,2,0,B|352:296|320:256,1,80,10|0,0:0|0:0,0:0:0
448,208,78592,2,0,B|424:168|382:168,1,80,2|0,0:0|0:0,0:0:0
152,264,78945,2,0,B|192:256|224:224,1,80,10|0,0:0|0:0,0:0:0
272,112,79298,6,2,B|280:72|320:48,2,80,2|0|8,0:0|0:0|0:0,0:0:0
200,272,79828,2,2,B|232:304|280:288,2,80,2|0|0,0:0|0:0|0:0,0:0:0
152,152,80357,5,10,0:0:0
64,208,80534,1,2,0:0:0
64,336,80710,6,2,B|96:368|144:352,1,80,6|0,0:0|0:0,0:0:0
240,328,81063,1,10,0:0:0
240,328,81239,1,2,0:0:0
416,168,81592,5,2,0:0:0
176,120,81945,2,2,B|240:184|336:168,1,160,6|0,0:0|0:0,0:0:0
424,80,82475,6,2,B|344:80,1,80,2|0,0:0|0:0,0:0:0
64,184,82828,2,2,B|144:184,1,80,2|0,0:0|0:0,0:0:0
448,288,83181,2,2,B|352:288,1,80,2|0,0:0|0:0,0:0:0
136,304,83534,6,0,B|177:291|192:248,1,80,4|0,0:0|0:0,0:0:0
184,80,83887,2,0,B|176:120|192:160,1,80,10|0,0:0|0:0,0:0:0
328,160,84239,2,0,B|312:200|264:208,1,80,2|0,0:0|0:0,0:0:0
120,200,84592,2,0,B|88:168|96:120,1,80,10|0,0:0|0:0,0:0:0
200,136,84945,6,2,B|240:128|264:80,1,80,2|0,0:0|0:0,0:0:0
168,24,85298,1,8,0:0:0
64,64,85475,2,2,B|72:104|136:120,1,80,2|0,0:0|0:0,0:0:0
224,136,85828,5,0,0:0:0
288,224,86004,1,8,0:0:0
200,288,86181,1,0,0:0:0
104,184,86357,6,0,B|128:144|176:136,1,80
254,295,86710,2,0,B|216:280|200:240,1,80,10|0,0:0|0:0,0:0:0
232,104,87063,2,0,B|248:64|288:48,1,80,2|0,0:0|0:0,0:0:0
432,208,87416,2,0,B|410:239|362:239,1,80,10|0,0:0|0:0,0:0:0
408,80,87769,6,2,B|432:40|480:40,2,80,2|2|8,0:0|0:0|0:0,0:0:0
400,192,88298,2,2,B|360:200|320:160,1,80,2|0,0:0|0:0,0:0:0
232,104,88651,1,0,0:0:0
208,96,88739,1,0,0:0:0
184,92,88827,1,12,0:0:0
160,92,88915,1,0,0:0:0
137,96,89003,1,0,0:0:0
113,102,89092,1,0,0:0:0
88,112,89181,6,0,B|80:160|112:192,1,80,4|0,0:0|0:0,0:0:0
168,288,89534,2,0,B|216:280|232:232,1,80,10|0,0:0|0:0,0:0:0
296,88,89887,2,0,B|304:136|264:160,1,80,2|0,0:0|0:0,0:0:0
320,240,90239,2,0,B|368:248|392:208,1,80,10|0,0:0|0:0,0:0:0
448,80,90592,6,2,B|432:120|384:126,1,80,2|0,0:0|0:0,0:0:0
280,128,90945,1,8,0:0:0
176,80,91122,2,2,B|200:40|240:32,1,80,2|0,0:0|0:0,0:0:0
344,32,91475,1,0,0:0:0
448,80,91651,6,2,B|440:128|400:144,1,80,14|2,0:0|0:0,0:0:0
280,240,92004,2,0,B|304:280|344:280,2,80,6|0|2,0:0|0:0|0:0,0:0:0
216,136,92534,1,2,0:0:0
56,296,92887,5,2,0:0:0
304,136,93239,6,0,B|344:136|384:104,2,80,6|0|0,0:0|0:0|0:0,0:0:0
216,208,93769,2,2,B|176:216|136:208,1,80,2|0,0:0|0:0,0:0:0
32,176,94122,1,6,0:0:0
112,112,94298,2,0,B|144:88|192:80,2,80,2|2|6,0:0|0:0|0:0,0:0:0
