osu file format v9

[General]
AudioFilename: 01 - Mo, Mousou Machine..mp3
AudioLeadIn: 0
PreviewTime: 44105
Countdown: 0
SampleSet: Normal
StackLeniency: 0.6
Mode: 0
LetterboxInBreaks: 0

[Editor]
DistanceSpacing: 0.7
BeatDivisor: 4
GridSize: 4

[Metadata]
Title:Mo, Mousou Machine
Artist:Shimizu Kaori
Creator:Krisom
Version:Normal
Source:Lucky Star
Tags:Tamura Hiyori osuplayer111 arien666 arken1015

[Difficulty]
HPDrainRate:4
CircleSize:4
OverallDifficulty:3
ApproachRate:4
SliderMultiplier:1.38
SliderTickRate:2

[Events]
//Background and Video events
0,0,"BG.jpg"
//Break Periods
2,76570,86544
//Storyboard Layer 0 (Background)
//Storyboard Layer 1 (Fail)
//Storyboard Layer 2 (Pass)
//Storyboard Layer 3 (Foreground)
//Storyboard Sound Samples
//Background Colour Transformations
3,100,163,162,255

[TimingPoints]
335,352.941176470588,4,2,1,100,1,0
20011,-100,4,1,1,69,0,0
20187,-100,4,2,1,100,0,0
23370,-100,4,1,0,70,0,0
23988,-100,4,2,1,90,0,0
32717,-100,4,1,1,70,0,0
32893,-100,4,2,1,90,0,0
34834,-100,4,1,1,70,0,0
35805,-100,4,2,1,90,0,0
37658,-100,4,1,1,70,0,0
38629,-100,4,2,1,90,0,0
44099,-100,4,2,1,90,0,0
45246,-90.9090909090909,4,1,0,70,0,0
45511,-90.9090909090909,4,1,0,70,0,1
69958,-90.9090909090909,4,2,0,90,0,1
72158,-90.9090909090909,4,1,0,69,0,1
73305,-90.9090909090909,4,1,0,69,0,0
73393,-90.9090909090909,4,1,0,100,0,1
73746,-90.9090909090909,4,2,1,90,0,0
86452,-100,4,2,1,90,0,0
98193,-100,4,1,0,70,0,0
98811,-100,4,2,1,90,0,0
107540,-100,4,1,1,71,0,0
107717,-100,4,2,1,90,0,0
109658,-100,4,1,1,70,0,0
110629,-100,4,2,1,90,0,0
112482,-100,4,1,1,70,0,0
113452,-100,4,2,1,90,0,0
119988,-86.9565217391304,4,1,1,70,0,0
120334,-86.9565217391304,4,1,1,70,0,1
144782,-86.9565217391304,4,2,1,90,0,1
146982,-90.9090909090909,4,1,1,70,0,1
148129,-100,4,1,1,100,0,0
148217,-100,4,1,1,100,0,1
148305,-90.9090909090909,4,1,1,70,0,1
150952,-100,4,1,1,100,0,0
151040,-100,4,1,1,100,0,1
151393,-100,4,1,1,100,0,0

[Colours]
Combo1 : 255,255,255
Combo2 : 84,234,77
Combo3 : 6,131,255
Combo4 : 255,62,34
Combo5 : 255,204,0

[HitObjects]
140,124,13040,1,4
46,150,13393,1,8
73,243,13746,1,2
165,216,14099,1,8
256,192,14452,2,0,B|212:252|256:288|300:324|256:384,2,207,0|2|8
347,216,15864,5,2
439,243,16217,1,0
466,150,16570,1,2
372,124,16923,1,0
356,28,17276,2,0,B|256:-20|156:28,2,207,0|2|8
312,124,18687,6,0,B|388:88|388:88|436:124|504:100,2,207,4|2|8
204,124,20099,2,0,B|128:88|128:88|80:124|12:100,2,207,0|2|8
132,188,21511,5,2
184,268,21864,1,0
256,204,22217,1,2
328,268,22570,1,0
380,188,22923,1,4
256,112,23452,5,2
256,112,23805,1,2
140,176,24334,5,4
46,150,24687,1,8
73,57,25040,1,2
165,84,25393,1,8
256,112,25746,2,0,B|212:172|256:208|300:244|256:304,2,207,0|2|8
348,84,27158,5,2
440,57,27511,1,0
467,150,27864,1,2
373,176,28217,1,0
400,268,28570,1,2
256,288,29099,1,0
112,268,29629,1,8
208,236,29982,6,0,B|208:128|208:128|208:92|168:64|128:88,2,207,4|2|8
304,236,31393,2,0,B|304:128|304:128|304:92|344:64|384:88,2,207,4|2|8
256,320,32805,37,4
168,280,33158,1,8
80,240,33511,1,2
120,152,33864,2,0,B|56:116,1,69,8|0
108,36,34393,2,0,B|172:72,1,69,0|8
256,112,34923,53,2
256,216,35276,1,2
256,320,35629,21,4
344,280,35982,1,8
432,240,36335,1,2
392,152,36688,2,0,B|456:116,1,69,8|0
404,36,37217,2,0,B|340:72,1,69,0|8
256,112,37746,37,2
256,216,38099,1,2
256,320,38452,37,4
184,256,38805,2,0,B|132:320|52:284,2,138,8|2|8
256,192,39864,1,0
328,128,40217,2,0,B|380:192|460:156,2,138,8|0|8
256,64,41276,1,4
256,192,42511,12,2,44099
256,192,44629,21,0
256,192,44982,1,0
212,96,45334,6,2,B|109:151|123:264|203:328|283:316|341:268,1,379.499988690019,6|0
432,220,46570,1,8
372,132,46923,1,0
256,192,47452,1,2
256,192,47805,1,2
300,288,48158,6,2,B|402:232|388:119|308:55|228:67|170:115,1,379.499988690019,6|0
80,164,49394,1,8
140,252,49747,1,0
256,192,50276,1,2
256,192,50629,1,2
360,208,50982,6,2,B|372:152|360:104|300:76|256:52|212:76|152:104|140:152|152:208,1,379.499988690019,6|0
108,304,52217,1,8
208,264,52570,1,2
256,360,52923,1,0
304,264,53276,1,8
404,304,53629,1,8
364,204,53982,6,0,B|352:144|392:104|392:104|368:44|300:32,1,227.699993214011,6|8
148,180,55393,2,0,B|160:240|120:280|120:280|144:340|212:352,1,227.699993214011,6|8
312,164,56629,22,0,B|272:124|328:68|328:68|256:6|184:68|184:68|240:124|200:164,1,379.499988690019,6|0
204,272,57864,1,8
308,272,58217,1,0
256,128,58746,1,2
256,128,59099,1,2
200,220,59452,6,0,B|240:260|184:316|184:316|256:378|328:316|328:316|272:260|312:220,1,379.499988690019,6|0
308,112,60687,1,8
204,112,61040,1,0
256,264,61569,1,2
256,264,61922,1,2
168,208,62276,6,2,B|152:168|152:168|196:120|196:120|256:175|256:175|316:120|316:120|360:168|360:168|344:208,1,379.499988690019,6|0
256,264,63511,1,8
148,276,63864,2,0,B|179:344|179:344|255:344,1,151.799995476008,2|8
364,276,64570,2,0,B|333:344|333:344|257:344,1,151.799995476008,8|0
256,236,65276,6,0,B|240:168|188:128|108:136|60:184,2,227.699993214011,4|2|8
256,236,66687,2,0,B|272:168|324:128|404:136|452:184,2,227.699993214011,4|2|8
256,192,67923,12,0,69511
256,40,70923,21,2
256,40,71276,1,2
256,40,71629,1,2
364,160,72158,2,0,B|256:224|148:160,1,227.699993214011,6|8
200,68,73040,1,0
312,68,73393,1,4
480,280,87864,69,4
444,192,88217,1,8
388,272,88570,1,2
344,184,88923,1,8
256,224,89276,2,0,B|276:172|276:172|256:128|236:88|236:88|256:32,2,207,0|2|8
168,184,90687,5,2
68,192,91040,1,0
32,280,91393,1,2
124,272,91746,1,0
168,184,92100,2,0,B|208:136|256:120|304:136|344:184,2,207,0|2|8
200,260,93511,6,0,B|124:292|124:292|56:320|4:280,2,207,4|2|8
312,260,94923,2,0,B|388:292|388:292|456:320|508:280,2,207,4|2|8
356,172,96335,5,2
304,92,96688,1,0
256,176,97041,1,2
208,92,97394,1,0
156,172,97747,1,4
256,276,98276,5,2
256,276,98629,1,2
400,276,99158,5,4
436,188,99511,1,8
396,100,99864,1,2
308,60,100217,1,8
256,140,100570,2,0,B|276:192|276:192|256:236|236:276|236:276|256:332,2,207,0|2|8
204,60,101982,5,2
116,100,102335,1,0
76,188,102688,1,2
112,276,103041,1,0
204,312,103394,1,2
256,168,103923,1,0
308,312,104453,1,8
308,216,104806,6,0,B|374:130|374:130|396:102|445:105|462:148,2,207,4|2|8
204,216,106217,2,0,B|137:130|137:130|115:102|66:105|49:148,2,207,4|2|8
256,136,107629,37,4
300,48,107982,1,8
388,84,108335,1,2
352,172,108688,2,0,B|416:208,1,69,8|0
408,304,109217,2,0,B|344:268,1,69,0|8
256,232,109747,53,2
256,232,110100,1,2
256,136,110452,21,4
212,48,110805,1,8
124,84,111158,1,2
160,172,111511,2,0,B|96:208,1,69,8|0
104,304,112040,2,0,B|168:268,1,69,0|8
256,232,112570,37,2
256,232,112923,1,2
256,136,113276,37,4
312,56,113629,2,0,B|364:-8|444:28,2,138,8|2|8
256,136,114688,1,0
196,212,115041,2,0,B|144:148|64:184,2,138,8|0|8
256,288,116100,1,4
256,192,117335,12,2,118923
256,316,119452,21,0
156,292,119806,1,0
60,264,120158,6,2,B|-16:184|28:0|224:4|280:64,1,396.750013006479,6|0
200,140,121393,1,8
312,140,121746,1,0
256,232,122099,2,0,B|256:312,1,79.3500026012958,8|2
356,292,122629,1,0
452,264,122982,6,2,B|528:184|484:0|288:4|232:64,1,396.750013006479,6|0
312,140,124217,1,8
200,140,124570,1,0
256,232,124923,2,0,B|256:312,1,79.3500026012958,8|2
156,292,125453,1,0
104,192,125805,6,2,B|128:92|256:48|384:92|408:192,1,396.750013006479,6|0
256,352,127393,1,2
224,244,127746,1,0
292,156,128099,1,8
256,52,128452,1,8
200,148,128805,6,0,B|180:200|104:236|40:204|8:148,2,238.050007803887,6|2|8
312,148,130217,2,0,B|332:200|408:236|472:204|504:148,1,238.050007803887,6|8
424,356,131452,22,2,B|324:360|256:266|256:266|188:360|88:356,1,396.750013006479,6|0
52,252,132687,1,8
28,140,133040,1,0
8,32,133393,2,0,B|56:16|84:48,1,79.3500026012958,8|2
140,144,133923,1,0
104,256,134276,6,2,B|104:312|184:356|256:284|256:284|328:356|408:312|408:256,1,396.750013006479,6|0
372,144,135511,1,8
484,140,135864,1,0
488,252,136217,2,0,B|404:256,1,79.3500026012958,8|2
456,356,136746,1,0
352,316,137099,6,2,B|288:284|312:196|312:196|256:156|200:196|200:196|224:284|160:316,1,396.750013006479,4|0
256,108,138687,1,8
256,108,139040,1,8
324,196,139393,2,0,B|300:228|256:244|212:228|188:196,1,158.700005202592,2|0
204,304,140099,6,0,B|124:280|84:220|84:152|100:112,2,238.050007803887,6|2|8
308,304,141511,2,0,B|388:280|428:220|428:152|412:112,2,238.050007803887,6|2|8
256,192,142746,12,0,144334
256,344,145747,21,2
256,344,146100,1,2
256,344,146453,1,2
148,224,146982,2,0,B|256:160|364:224,1,227.699993214011,6|8
312,316,147864,1,0
200,316,148217,1,4
256,132,148923,21,8
256,132,149276,1,0
148,236,149805,2,0,B|256:172|364:236,1,227.699993214011,6|8
312,320,150687,1,0
200,320,151040,1,6
