osu file format v9

[General]
AudioFilename: 01 - Mo, Mousou Machine..mp3
AudioLeadIn: 0
PreviewTime: 44105
Countdown: 0
SampleSet: Normal
StackLeniency: 0.6
Mode: 0
LetterboxInBreaks: 0

[Editor]
DistanceSpacing: 0.9
BeatDivisor: 4
GridSize: 4

[Metadata]
Title:Mo, Mousou Machine
Artist:Shimizu Kaori
Creator:Krisom
Version:Insane
Source:Lucky Star
Tags:Tamura Hiyori osuplayer111 arien666 arken1015

[Difficulty]
HPDrainRate:7
CircleSize:5
OverallDifficulty:7
ApproachRate:8
SliderMultiplier:1.78
SliderTickRate:2

[Events]
//Background and Video events
0,0,"BG.jpg"
//Break Periods
2,76570,86937
//Storyboard Layer 0 (Background)
//Storyboard Layer 1 (Fail)
//Storyboard Layer 2 (Pass)
//Storyboard Layer 3 (Foreground)
//Storyboard Sound Samples
//Background Colour Transformations
3,100,163,162,255

[TimingPoints]
335,352.941176470588,4,2,1,100,1,0
13217,-100,4,2,1,90,0,0
23370,-100,4,1,0,70,0,0
23988,-100,4,2,1,90,0,0
32717,-100,4,1,1,70,0,0
32893,-100,4,2,1,90,0,0
34834,-100,4,1,1,70,0,0
35805,-100,4,2,1,90,0,0
37658,-100,4,1,1,70,0,0
38629,-100,4,2,1,90,0,0
44099,-100,4,2,1,90,0,0
45246,-83.3333333333333,4,1,0,70,0,0
45511,-83.3333333333333,4,1,0,70,0,1
69958,-83.3333333333333,4,2,0,90,0,1
72158,-83.3333333333333,4,1,0,69,0,1
73305,-83.3333333333333,4,1,0,69,0,0
73393,-83.3333333333333,4,1,0,100,0,1
73746,-83.3333333333333,4,2,1,90,0,0
86452,-100,4,2,1,90,0,0
98193,-100,4,1,0,70,0,0
98811,-100,4,2,1,90,0,0
107540,-100,4,1,1,71,0,0
107717,-100,4,2,1,90,0,0
109658,-100,4,1,1,70,0,0
110629,-100,4,2,1,90,0,0
112482,-100,4,1,1,70,0,0
113452,-100,4,2,1,90,0,0
118040,-103.092783505155,4,2,1,90,0,0
118393,-100,4,2,1,90,0,0
119988,-80,4,1,1,70,0,0
120334,-80,4,1,1,70,0,1
144782,-83.3333333333333,4,2,1,90,0,1
146982,-100,4,1,1,70,0,1
148129,-100,4,1,1,100,0,0
148217,-100,4,1,1,100,0,1
148305,-100,4,1,1,70,0,1
150952,-100,4,1,1,100,0,0
151040,-100,4,1,1,100,0,1
151393,-100,4,1,1,100,0,0

[Colours]
Combo1 : 255,255,255
Combo2 : 84,234,77
Combo3 : 6,131,255
Combo4 : 255,62,34
Combo5 : 255,204,0

[HitObjects]
256,24,12864,1,2
200,80,13040,2,0,B|184:132|128:120,1,89,4|0
168,192,13393,2,0,B|72:176,1,89,8|2
0,160,13746,1,2
0,160,14099,1,10
20,84,14276,1,2
96,100,14452,2,0,B|112:60|112:60|164:44,2,89,0|2|8
176,120,14982,2,0,B|228:152|228:152|256:152|284:152|284:152|336:120,1,178,2|8
368,192,15511,1,8
176,264,15864,6,0,B|228:232|228:232|256:232|284:232|284:232|336:264,1,178,2|0
336,104,16570,1,2
256,104,16746,1,2
176,104,16923,1,0
104,248,17276,2,0,B|68:280|20:264,2,89,2|0|2
168,196,17805,2,0,B|256:176|344:196,1,178,2|10
420,228,18334,1,10
464,160,18511,5,2
388,132,18687,2,0,B|320:106|323:74|327:42|259:17,1,178,12|8
239,95,19217,2,0,B|310:104|322:74|334:44|405:54,1,178,2|2
484,80,19746,2,0,B|504:128|464:160,1,89,10|2
392,196,20099,1,0
312,180,20276,1,0
336,256,20452,1,8
380,324,20629,2,0,B|308:256|212:284,1,178,2|0
144,316,21158,1,8
220,176,21511,6,0,B|188:128|220:88|220:88|184:60|144:56,1,178,2|0
292,208,22217,2,0,B|324:256|292:296|292:296|328:324|368:328,1,178,2|0
448,344,22746,1,2
492,276,22923,2,0,B|428:272|400:224|404:172|436:148,1,178,4|2
488,200,23452,5,2
24,200,23805,1,2
140,88,24158,5,2
200,36,24334,2,0,B|212:84|280:76,1,89,4|0
236,152,24687,2,0,B|324:136,1,89,8|2
252,220,25040,2,0,B|164:236,1,89,2|0
84,248,25393,1,10
4,260,25570,1,0
28,336,25746,2,0,B|92:404|192:372,1,178,2|8
184,292,26276,2,0,B|212:244|256:236|300:244|328:292,1,178,2|8
256,328,26805,1,8
328,140,27158,6,0,B|300:188|256:196|212:188|184:140,1,178,2|0
308,240,27864,1,2
256,300,28040,1,2
204,240,28217,1,0
104,112,28570,2,0,B|88:164|36:156,2,89,2|0|2
132,36,29099,2,0,B|168:100|168:100|192:84|192:84|232:148,1,178,2|10
276,216,29629,1,10
316,284,29805,5,0
360,352,29982,2,0,B|176:352,1,178,4|8
136,284,30511,2,0,B|316:284,1,178,4|2
364,220,31040,2,0,B|308:228|276:172,1,89,8|2
216,224,31393,6,0,B|260:228|300:196|316:144|288:100,1,178,4|8
216,56,31923,2,0,B|172:52|132:84|116:136|144:180,1,178,4|0
216,140,32452,1,8
216,140,32805,21,4
352,56,33158,2,0,B|360:108|412:132,1,89,8|2
480,144,33511,1,0
416,192,33687,1,2
356,244,33864,1,10
328,320,34040,2,0,B|300:368|256:376|212:368|184:320,1,178,8|0
156,244,34570,1,10
96,192,34747,1,0
32,144,34923,53,2
480,144,35276,1,2
256,192,35629,21,4
176,332,35982,2,0,B|208:304|248:304|256:332|264:360|304:360|336:332,1,178,8|2
256,192,36687,1,8
328,160,36864,2,0,B|300:112|256:104|212:112|184:160,1,178,2|2
152,232,37393,1,10
104,296,37570,1,0
36,340,37746,37,2
476,340,38099,1,2
256,192,38452,37,4
228,36,38805,2,0,B|200:72|148:60,1,89,8|2
144,140,39158,2,0,B|48:116,2,89,0|2|8
184,212,39687,2,0,B|212:260|256:268|300:260|328:212,1,178,10|10
368,140,40217,2,0,B|464:116,1,89,8|2
364,59,40570,2,0,B|312:72|284:36,2,89,0|2|8
296,120,41099,1,10
216,120,41276,1,4
220,280,41629,6,0,B|124:280,1,89,8|2
292,280,41982,2,0,B|380:280,1,89,2|0
352,124,42511,1,0
296,180,42687,1,8
216,180,42864,1,8
160,124,43040,1,0
184,48,43217,2,0,B|224:48|224:48|256:12|256:12|284:48|284:48|328:48,1,178,8|0
256,104,43746,1,2
256,104,43923,1,2
296,172,44099,6,0,B|300:244|256:244|212:244|216:316,1,178,0|0
296,316,44629,2,0,B|300:244|256:244|212:244|216:172,1,178,0|0
16,192,45334,6,2,B|64:40|256:-88|448:40|496:192,1,640.800015277863,6|0
492,288,46570,2,0,B|448:332|380:296,1,106.80000254631,8|0
360,212,46923,2,0,B|256:256|152:212,1,213.600005092621,0|8
160,116,47452,2,0,B|252:116|252:116|256:123|256:123|256:110|256:110|260:116|260:116|352:116,1,213.600005092621,0|8
400,304,48158,6,2,B|208:352|176:272|128:176|256:68|384:176|336:272|304:352|110:304,1,640.800015277863,6|0
44,236,49393,2,0,B|104:248|132:192,1,106.80000254631,8|0
200,124,49746,2,0,B|208:84|208:84|216:52|256:24|296:52|304:84|304:84|312:124,1,213.600005092621,0|8
256,204,50276,1,0
256,204,50629,1,8
72,144,50982,6,2,B|72:188|72:188|72:272|184:268|196:192|196:192|208:136|256:128|304:136|316:192|316:192|328:268|440:272|440:188|440:188|440:144,1,640.800015277863,6|0
256,204,52393,1,8
308,284,52570,2,0,B|256:300|204:284,1,106.80000254631,0|2
196,188,52923,2,0,B|156:136|88:148,1,106.80000254631,2|8
256,136,53276,2,8,B|256:24,1,106.80000254631
316,188,53629,2,0,B|356:136|424:148,1,106.80000254631,8|0
416,244,53982,6,0,B|400:300|336:328|272:300|256:244,1,213.600005092621,6|8
256,148,54511,2,0,B|240:92|176:64|112:92|96:148,1,213.600005092621,0|8
416,148,55393,2,0,B|400:92|336:64|272:92|256:148,1,213.600005092621,6|8
256,244,55922,2,0,B|240:300|176:328|112:300|96:244,1,213.600005092621,0|8
20,68,56629,22,2,B|36:144|112:160|184:80|184:80|216:152|256:152|256:152|296:152|328:80|328:80|400:160|476:144|492:68,1,640.800015277863,6|0
508,164,57864,2,0,B|440:216|416:232,1,106.80000254631,8|0
344,284,58217,2,0,B|256:300|256:172|168:188,1,213.600005092621,0|8
168,284,58746,2,0,B|256:300|256:172|344:188,1,213.600005092621,0|8
472,44,59452,6,2,B|376:56|364:128|364:128|280:128|256:11|256:11|232:128|148:128|148:128|136:56|40:44,1,640.800015277863,6|0
76,136,60687,2,0,B|100:188|76:240,1,106.80000254631,8|0
148,304,61040,2,0,B|256:304|256:304|300:260|300:260|300:216,1,213.600005092621,0|8
212,216,61570,2,0,B|212:259|212:259|256:303|256:303|364:303,1,213.600005092621,0|8
468,140,62276,6,2,B|468:96|428:80|428:80|392:152|336:164|320:108|320:108|300:36|212:36|192:108|192:108|176:164|120:152|84:80|84:80|44:96|44:140,1,640.800015277863,6|0
256,120,63687,2,0,B|240:180|188:204,1,106.80000254631,2|8
256,120,64040,2,0,B|272:180|324:204,1,106.80000254631,2|8
256,276,64393,1,2
220,368,64570,2,0,B|184:328|184:328|132:344,1,106.80000254631,2|0
292,368,64923,2,0,B|328:328|328:328|380:344,1,106.80000254631,8|0
332,260,65276,6,0,B|432:292|432:292|488:264|472:200,1,213.600005092621,6|8
380,180,65805,2,0,B|279:148|279:148|249:93|299:50,1,213.600005092621,0|8
180,260,66687,2,0,B|80:292|80:292|24:264|40:200,1,213.600005092621,6|8
132,180,67216,2,0,B|232:148|232:148|262:93|212:50,1,213.600005092621,0|8
256,240,67923,1,6
256,192,68099,12,0,69511
256,88,70923,22,0,B|215:125|156:116,1,106.80000254631,2|0
256,164,71276,2,0,B|296:201|356:192,1,106.80000254631
256,240,71629,1,2
336,292,71805,2,0,B|320:348|256:376|192:348|176:292,1,213.600005092621,2|6
256,108,72511,5,2
340,192,72687,1,8
256,276,72864,1,0
172,192,73040,1,0
256,192,73393,5,4
256,80,87687,37,2
314,29,87864,2,0,B|347:66|331:123,1,89,4|0
198,143,88217,2,0,B|166:107|179:59,1,89,8|2
104,32,88570,1,2
104,32,88923,1,10
40,80,89099,1,0
96,136,89276,2,0,B|68:184|20:172,2,89,0|2|8
172,104,89805,2,0,B|232:100|256:124|256:124|280:100|340:104,1,178,2|0
416,128,90334,1,8
340,280,90687,6,0,B|280:284|256:260|256:260|232:284|172:280,1,178,2|0
96,136,91393,1,2
160,184,91570,1,2
172,104,91746,2,0,B|256:52|340:104,1,178
416,136,92276,1,2
352,184,92453,1,0
328,260,92629,2,0,B|300:308|256:316|212:308|184:260,1,178,10|0
256,224,93158,1,10
208,160,93334,5,2
160,96,93511,2,0,B|142:144|142:144|114:220|43:194,1,178,4|8
70,118,94040,2,0,B|2:302,1,178,2|2
36,360,94570,2,0,B|56:308|116:320,1,89,10|0
172,272,94923,2,0,B|256:324|340:272,1,178,0|8
380,200,95452,1,2
256,96,95805,1,10
256,96,95982,1,10
256,256,96334,6,0,B|200:284|200:284|148:284|148:284|92:256,1,178,2|0
172,116,97040,2,0,B|232:92|232:92|280:92|280:92|340:116,1,178,2|0
400,176,97570,1,0
420,255,97746,2,0,B|364:284|364:284|312:284|312:284|256:256,1,178,4|8
256,336,98276,5,2
256,48,98629,1,2
184,192,98982,5,0
128,136,99158,2,0,B|96:180|116:228,1,89,4|0
36,200,99511,2,0,B|68:284,1,89,8|2
108,352,99864,2,0,B|124:300|188:312,1,89,0|2
256,328,100217,1,10
336,312,100393,1,0
392,256,100570,1,2
328,208,100746,2,0,B|300:256|256:264|212:256|184:208,1,178,2|10
120,256,101276,1,2
176,312,101452,1,0
256,328,101629,1,8
172,192,101982,6,0,B|236:192|256:216|256:216|276:192|340:192,1,178,2|0
420,52,102687,1,2
392,128,102864,1,2
344,64,103040,2,0,B|256:92|168:64,1,178,0|2
92,52,103570,1,2
120,128,103747,1,2
168,192,103923,2,0,B|212:212|256:192|256:192|300:172|340:192,1,178,10|0
392,256,104452,1,10
320,288,104629,5,2
256,336,104805,1,4
192,96,105158,1,2
256,48,105334,1,4
336,192,105687,1,2
256,192,105864,1,8
176,192,106040,1,0
96,192,106217,5,4
416,192,106570,1,2
416,192,106747,1,4
216,360,107099,1,2
296,360,107276,1,4
256,192,107629,21,4
256,32,107982,2,0,B|224:72|172:48,1,89,8|2
160,128,108334,2,0,B|72:100,2,89,0|2|10
112,196,108864,2,0,B|220:204|248:296,1,178,10|10
284,364,109393,1,2
364,380,109570,1,0
440,356,109746,53,2
440,28,110099,1,2
256,192,110452,21,4
412,232,110805,1,10
348,280,110982,1,2
268,284,111158,2,0,B|200:284|200:284|124:284|124:224,1,178,10|0
52,224,111687,2,0,B|120:224|120:224|196:224|204:168,1,178,10|0
220,92,112217,1,10
156,44,112393,1,0
72,28,112570,37,2
72,356,112923,1,2
256,192,113276,37,4
312,40,113629,1,8
336,116,113805,1,2
256,100,113982,1,0
200,40,114158,1,2
176,116,114334,1,8
184,196,114511,2,0,B|240:196|240:196|248:208|248:208|264:176|264:176|272:188|272:188|332:188,1,178,2|2
300,264,115040,2,0,B|312:312|360:328,1,89,8|2
212,264,115393,2,0,B|200:312|152:328,2,89,0|0|8
256,196,115923,1,2
256,116,116099,1,4
348,248,116452,6,0,B|288:324,1,89,8|2
164,248,116805,2,0,B|224:324,1,89,2|0
256,164,117334,1,2
212,96,117511,2,0,B|256:80|304:96,2,89,8|8|0
172,28,118040,2,0,B|256:-4|340:28,1,172.660009673858,8|0
300,96,118570,2,2,B|256:80|208:96,1,89
216,172,118923,6,0,B|212:244|256:244|300:244|296:316,1,178,0|0
216,316,119453,2,0,B|212:244|256:244|300:244|296:172,1,178,0|0
492,192,120158,6,2,B|480:116|404:76|404:76|384:108|336:88|344:52|344:52|256:8|168:52|168:52|176:88|128:108|108:76|108:76|32:116|20:192,1,667.499990053475,6|0
53,286,121393,2,0,B|92:244|155:262,1,111.249998342246,8|0
171,162,121746,2,0,B|287:162|299:214|299:238|299:238|299:298,1,222.499996684492,0|8
213,294,122276,2,0,B|213:238|213:238|213:214|225:162|341:162,1,222.499996684492,0|8
488,296,122982,6,2,B|512:336|488:412|344:376|472:368|420:368|420:236|316:284|336:364|316:396|256:368|256:368|196:396|176:364|196:284|92:236|92:368|40:368|168:376|24:412|0:336|24:296,1,667.499990053475,6|0
72,208,124217,2,0,B|152:160|240:208|256:268,1,222.499996684492,8|0
440,208,124923,1,8
440,208,125099,2,0,B|360:160|272:208|256:268,1,222.499996684492,0|8
80,152,125805,6,2,B|80:136|76:108|76:108|72:64|80:24|160:16|176:72|176:72|192:124|220:152|256:185|292:152|320:124|336:72|336:72|352:16|432:24|440:64|436:108|436:108|432:136|432:152,1,667.499990053475,6|0
304,308,127217,1,2
208,308,127393,1,8
132,240,127570,1,0
132,144,127746,1,2
208,76,127923,1,2
256,144,128099,1,8
304,76,128276,1,8
380,144,128453,1,8
380,240,128629,1,0
344,332,128805,6,0,B|320:280|256:248|192:280|168:332,1,222.499996684492,6|8
152,232,129334,2,0,B|256:163|360:232,1,222.499996684492,0|8
168,52,130217,2,0,B|192:104|256:136|320:104|344:52,1,222.499996684492,6|8
360,160,130746,2,0,B|256:229|152:160,1,222.499996684492,0|8
8,304,131452,22,2,B|32:368|80:376|136:368|200:292|200:292|256:219|256:219|312:292|312:292|376:368|432:376|480:368|504:304,1,667.499990053475,6|0
412,264,132687,2,0,B|312:204|288:84,1,222.499996684492,8|0
100,264,133393,1,8
100,264,133570,2,0,B|200:204|224:84,1,222.499996684492,0|8
24,48,134276,6,2,B|12:120|48:176|144:216|212:204|224:228|224:228|256:201|288:228|288:228|300:204|368:216|464:176|500:120|488:48,1,667.499990053475,6|0
396,84,135511,2,0,B|348:196|456:284,1,222.499996684492,8|0
256,312,136217,1,8
168,264,136393,2,0,B|192:212|256:180|320:212|344:264,1,222.499996684492,0|8
472,104,137099,6,2,B|472:144|432:184|432:184|360:184|360:184|360:88|256:8|152:88|152:184|152:184|80:184|80:184|40:144|40:104,1,667.499990053475,6|0
256,164,138511,1,2
204,252,138687,2,0,B|164:288|164:288|100:268,1,111.249998342246,8|2
308,252,139040,2,0,B|348:288|348:288|412:268,1,111.249998342246,8|2
392,172,139393,1,2
308,116,139570,1,0
204,116,139746,1,8
120,172,139923,1,0
208,220,140099,6,0,B|184:272|120:304|56:272|32:220,1,222.499996684492,6|8
120,172,140629,2,0,B|120:272|120:272|120:332|156:352|200:332,1,222.499996684492,0|8
480,164,141511,2,0,B|456:112|392:80|328:112|304:164,1,222.499996684492,6|8
392,212,142041,2,0,B|392:112|392:112|392:52|356:32|312:52,1,222.499996684492,0|8
256,240,142746,1,6
256,192,142923,12,0,144334
256,88,145746,22,0,B|297:125|356:116,1,106.80000254631,2|0
256,164,146099,2,0,B|216:201|156:192,1,106.80000254631
256,240,146452,1,2
176,292,146628,2,0,B|192:348|256:376|320:348|336:292,1,213.600005092621,2|6
256,108,147334,5,2
172,192,147510,1,8
256,276,147687,1,0
340,192,147863,1,0
256,192,148216,5,4
256,88,149805,5,2
256,88,150158,1,2
360,192,150334,1,8
256,296,150511,1,0
152,192,150687,1,0
256,192,151040,53,6
