osu file format v5

[General]
AudioFilename: 02 - Default Joshikousei Nyan.mp3
AudioLeadIn: 0
PreviewTime: -1
Countdown: 0
SampleSet: Normal
StackLeniency: 0.7
Mode: 0

[Metadata]
Title:Default Joshikousei Nyan
Artist:Shimizu Kaori
Creator:Terrapin
Version:Insane

[Difficulty]
HPDrainRate:6
CircleSize:6
OverallDifficulty:7
SliderMultiplier:1.2
SliderTickRate:2

[Events]
//Background and Video events
0,0,"tamura.jpg"
//Break Periods
2,48876,60376
2,85251,90376
2,102501,108376
//Storyboard Layer 0 (Background)
//Storyboard Layer 1 (Failing)
//Storyboard Layer 2 (Passing)
//Storyboard Layer 3 (Foreground)
//Storyboard Sound Samples
//Background Colour Transformations
3,100,163,162,255

[TimingPoints]
25430,375,4,1,0,100

[Colours]
Combo1 : 0,179,27
Combo2 : 16,94,135
Combo3 : 61,6,204
Combo4 : 236,0,177

[HitObjects]
104,104,25617,1,0
104,104,25805,1,0
224,104,26180,1,0
224,104,26367,1,0
224,104,26555,1,0
288,200,26930,1,0
288,200,27117,1,0
288,200,27305,1,0
352,104,27680,1,0
352,104,27867,1,0
352,104,28055,1,4
408,280,28617,5,0
408,280,28805,1,0
288,280,29180,1,0
288,280,29367,1,0
288,280,29555,1,0
224,176,29930,1,0
224,176,30117,1,0
224,176,30305,1,0
160,280,30680,1,0
160,280,30867,1,0
160,280,31055,1,4
256,72,31617,5,0
256,72,31805,1,0
256,192,32180,1,0
312,192,32367,1,0
368,192,32555,1,0
384,312,32930,1,0
384,312,33117,1,0
384,312,33305,1,0
264,312,33680,2,2,B|187:310|136:272,1,120
256,144,34430,5,2
168,56,34805,1,0
160,176,35180,1,2
160,176,35367,1,2
112,136,35555,1,2
72,248,35930,1,0
104,296,36117,1,0
152,328,36305,1,0
208,336,36492,1,4
424,88,37430,5,0
432,144,37617,1,0
376,128,37805,1,0
384,184,37992,1,0
328,168,38180,1,0
256,72,38555,1,2
328,264,38930,5,0
288,312,39117,1,0
256,264,39305,1,0
224,312,39492,1,0
184,264,39680,1,0
112,168,40055,1,2
256,144,40430,6,0,B|320:144,1,60
336,200,40805,2,0,B|272:200,1,60
256,256,41180,2,0,B|320:256,2,60
144,296,41930,5,2
144,296,42117,1,2
104,256,42305,1,2
104,256,42492,1,2
48,280,42680,2,4,B|31:225|68:196|112:192,1,120
192,120,43430,5,0
256,208,43805,1,0
256,208,43992,1,0
256,264,44180,1,0
256,144,44555,1,2
416,224,44930,5,0
376,184,45117,1,0
336,224,45305,1,0
296,184,45492,1,0
256,224,45680,1,0
144,184,46055,1,6
176,328,46430,6,0,B|98:333|88:256,3,120
192,208,47930,2,0,B|192:136|272:104,1,120
376,112,48680,1,6
256,320,61430,5,0
336,224,61805,1,0
376,272,61992,1,0
416,224,62180,1,0
376,184,62367,1,0
328,152,62555,1,0
368,112,62742,1,0
328,72,62930,1,0
288,112,63117,1,0
248,152,63305,1,0
208,112,63492,1,0
112,160,63867,5,0
112,160,64055,1,0
112,160,64242,1,4
192,280,64617,1,0
192,280,64805,1,0
192,280,64992,1,4
256,184,65367,1,0
256,184,65555,1,0
256,184,65742,1,0
256,112,65930,2,2,B|336:101|392:160,3,120
408,248,67430,5,0
304,312,67805,1,0
184,288,68180,1,0
144,248,68367,1,0
184,208,68555,1,0
248,112,68930,1,0
280,160,69117,1,0
304,104,69305,1,0
336,152,69492,1,0
296,320,69867,6,0,B|265:342|224:312,2,60
352,216,70617,2,0,B|318:202|288:232,2,60
448,288,71367,2,0,B|448:352,2,60
448,224,71930,1,0
448,160,72117,1,0
400,192,72305,1,0
400,128,72492,1,0
352,160,72680,1,0
256,88,73055,1,2
256,88,73242,1,2
160,336,73805,6,0,B|112:288,1,60
120,176,74367,1,6
120,176,74555,1,6
208,248,74930,1,0
352,224,75305,6,0,B|304:176,1,60
312,64,75867,1,6
312,64,76055,1,6
224,144,76430,1,0
104,192,76805,5,0
128,240,76992,1,0
184,224,77180,1,0
208,272,77367,1,0
376,328,77742,1,0
376,328,77930,2,4,B|438:268|368:208,3,120
288,144,79430,1,4
160,48,79805,6,0,B|112:96,1,60
120,208,80367,1,6
120,208,80555,1,6
256,88,80930,1,0
352,160,81305,6,0,B|304:208,1,60
312,320,81867,1,6
312,320,82055,1,6
256,208,82430,1,4
256,192,82805,12,4,85055
256,112,91430,1,0
312,112,91617,1,0
288,168,91805,1,0
344,168,91992,1,0
320,224,92180,1,0
376,224,92367,1,0
208,296,92930,1,0
208,296,93117,1,0
208,296,93305,1,0
208,296,93492,1,4
96,120,94430,5,0
144,88,94617,1,0
192,120,94805,1,0
312,120,95180,1,0
360,88,95367,1,0
408,120,95555,1,0
312,192,95930,2,0,B|255:223|184:192,3,120
256,40,97430,5,4
376,40,97805,1,0
320,144,98180,1,0
440,144,98555,1,0
376,248,98930,1,0
317,248,99117,1,0
256,248,99305,1,0
200,144,99680,1,0
80,144,100055,1,0
136,248,100430,1,4
200,352,100805,1,0
228,300,100992,1,0
256,248,101180,1,0
320,352,101555,1,0
376,248,101930,1,0
320,144,102305,1,4
376,168,109430,5,0
288,80,109805,1,0
248,120,109992,1,0
288,160,110180,1,0
248,208,110367,1,0
288,248,110555,2,0,B|352:312,3,60
376,328,111305,1,2
376,328,111492,1,2
384,208,111867,1,0
424,168,112055,1,0
384,128,112242,1,6
264,128,112617,1,0
232,176,112805,1,0
200,128,112992,1,6
112,208,113367,6,0,B|112:272,2,60
168,208,113930,1,2
224,208,114117,1,0
224,264,114305,1,2
280,264,114492,1,0
320,216,114680,1,2
320,216,114867,1,2
320,216,115055,1,2
320,216,115242,1,6
312,152,115430,6,0,B|354:138|395:172|392:216,2,120
168,152,116555,1,4
168,152,116742,1,0
168,80,116930,1,0
168,80,117117,1,0
104,112,117305,1,0
104,112,117492,1,0
48,192,117867,5,0
48,248,118055,1,0
104,248,118242,1,0
208,304,118617,1,0
208,248,118805,1,0
264,248,118992,1,0
384,248,119367,1,0
384,192,119555,1,0
440,192,119742,1,0
440,136,119930,1,2
384,136,120117,1,0
328,136,120305,1,2
328,192,120492,1,0
272,192,120680,1,2
272,72,121055,1,4
272,72,121242,1,4
80,128,121805,5,0
80,128,121992,1,0
200,128,122367,1,6
200,72,122555,1,6
320,72,122930,1,0
320,192,123305,1,0
320,192,123492,1,0
320,312,123867,1,6
256,312,124055,1,6
168,192,124430,1,4
96,272,124805,5,0
56,232,124992,1,0
96,192,125180,1,0
136,232,125367,1,0
224,152,125742,1,0
224,152,125930,2,4,B|243:215|312:240,2,120
328,96,127055,1,4
256,192,127805,5,0
296,232,127992,1,0
344,352,128367,1,6
384,312,128555,1,6
472,232,128930,1,0
448,112,129305,1,0
408,152,129492,1,0
368,264,129867,1,6
328,224,130055,1,6
256,136,130430,1,4
144,96,130805,5,0
104,136,130992,1,0
144,176,131180,1,2
144,176,131367,1,2
104,288,131742,1,0
192,216,132117,1,0
192,216,132305,1,0
192,216,132492,1,4
304,304,132867,1,2
304,304,133055,1,2
352,192,133430,1,4
288,96,133805,5,0
288,96,133992,1,0
240,136,134180,1,0
240,136,134367,1,0
120,136,134742,1,0
120,136,134930,2,2,B|121:206|208:256,1,120
312,176,135680,1,0
312,176,135867,1,0
352,136,136055,1,0
352,136,136242,1,0
288,288,136805,5,0
288,288,136992,1,0
240,248,137180,1,0
240,248,137367,1,0
120,248,137742,1,0
120,248,137930,2,2,B|118:154|176:128,1,120
312,208,138680,2,4,B|408:128,1,120
256,72,139805,5,0
256,128,139992,1,0
200,96,140180,1,0
200,152,140367,1,0
112,232,140742,1,0
112,232,140930,2,2,B|248:232,1,120
352,232,141680,1,0
328,280,141867,1,0
280,304,142055,1,0
224,304,142242,1,4
256,192,142805,12,4,145055
