osu file format v5

[General]
AudioFilename: 02 - Default Joshikousei Nyan.mp3
AudioLeadIn: 0
PreviewTime: -1
Countdown: 0
SampleSet: Normal
StackLeniency: 0.7
Mode: 0

[Metadata]
Title:Default Joshikousei Nyan
Artist:Shimizu Kaori
Creator:Terrapin
Version:Easy

[Difficulty]
HPDrainRate:4
CircleSize:5
OverallDifficulty:4
SliderMultiplier:0.6
SliderTickRate:2

[Events]
//Background and Video events
0,0,"tamura.jpg"
//Break Periods
2,48876,60106
2,85251,90106
2,102501,108106
//Storyboard Layer 0 (Background)
//Storyboard Layer 1 (Failing)
//Storyboard Layer 2 (Passing)
//Storyboard Layer 3 (Foreground)
//Storyboard Sound Samples
//Background Colour Transformations
3,100,163,162,255

[TimingPoints]
25430,375,4,1,0,100

[Colours]
Combo1 : 0,179,27
Combo2 : 16,94,135
Combo3 : 61,6,204
Combo4 : 236,0,177

[HitObjects]
256,80,25805,1,0
400,192,26930,1,0
256,304,28055,1,0
72,192,29930,5,2
136,192,30305,1,2
200,192,30680,1,2
264,192,31055,1,2
416,192,32930,6,0,B|416:296|288:304,1,180
240,304,34430,1,2
176,304,34805,1,2
112,304,35180,1,2
112,240,35555,1,2
112,176,35930,2,0,B|156:116|207:112|288:112,1,180
352,120,37430,5,0
352,184,37805,1,0
352,248,38180,1,2
200,248,38930,1,0
200,184,39305,1,0
200,120,39680,1,2
96,176,40430,6,0,B|96:312,2,120
160,176,42305,1,2
224,176,42680,1,2
288,176,43055,1,2
392,176,43430,6,0,B|392:256|344:304,1,120
240,288,44930,2,2,B|160:288,2,60
256,64,46430,6,0,B|400:64,1,120
448,160,47930,1,0
448,224,48305,1,0
400,272,48680,1,4
392,40,61430,5,0
360,96,61805,1,0
328,152,62180,1,0
296,208,62555,1,0
264,264,62930,1,0
232,320,63305,1,4
128,256,64055,6,4,B|128:120,2,120
192,256,65930,1,0
240,216,66305,1,0
288,176,66680,1,0
336,136,67055,1,0
408,136,67430,6,2,B|408:230|368:272,2,120
408,72,69305,1,0
256,128,70055,5,0
256,248,70805,1,0
168,328,71555,1,2
128,280,71930,2,2,B|112:238|112:160,1,120
112,96,73055,1,4
256,72,73805,6,4,B|352:168,1,120
256,240,75305,2,4,B|160:336,1,120
120,192,76805,5,0
120,120,77180,1,0
232,40,77930,5,4
280,80,78305,1,4
232,120,78680,1,4
280,168,79055,1,4
448,232,79805,6,4,B|352:328,1,120
272,240,81305,6,4,B|176:144,1,120
256,192,82805,12,4,85055
256,80,91430,5,0
200,112,91805,1,0
144,80,92180,1,0
96,192,92930,2,0,B|192:192,1,90
256,304,94430,5,0
304,264,94805,1,0
256,224,95180,1,0
304,184,95555,1,0
256,144,95930,2,0,B|256:40,2,90
200,192,97430,6,0,B|72:192,2,120
320,192,99680,1,0
400,312,100430,6,0,B|464:312|464:216,2,120
336,312,102305,1,4
208,56,109430,5,2
208,120,109805,1,2
144,120,110180,1,2
144,184,110555,1,2
80,184,110930,1,2
80,248,111305,1,2
192,288,112055,6,0,B|320:288,2,120
256,208,113930,5,2
304,168,114305,1,2
352,128,114680,1,2
400,88,115055,1,2
432,144,115430,6,0,B|432:272,2,120
432,80,117305,1,2
432,80,117492,1,2
320,120,118055,5,0
320,120,118242,1,0
232,88,118805,1,0
232,88,118992,1,0
120,192,119930,5,0
168,232,120305,1,0
216,192,120680,1,0
264,232,121055,1,4
264,232,121242,1,4
360,272,121805,6,0,B|360:208,1,60
360,152,122555,1,4
176,152,123305,2,0,B|176:216,1,60
176,272,124055,1,4
304,128,124805,5,0
304,192,125180,1,0
424,200,125930,2,4,B|424:240|392:264,3,60
360,80,127805,6,0,B|360:144,1,60
360,200,128555,1,4
176,200,129305,2,0,B|176:136,1,60
176,80,130055,1,4
256,192,130805,12,4,133055
