osu file format v9

[General]
AudioFilename: Shimizu Kaori & Ueda Kana - Gohoushi Inspire.mp3
AudioLeadIn: 0
PreviewTime: 65411
Countdown: 0
SampleSet: Soft
StackLeniency: 0.5
Mode: 0
LetterboxInBreaks: 0

[Editor]
DistanceSpacing: 0.8
BeatDivisor: 4
GridSize: 8

[Metadata]
Title:Gohoushi Inspire
Artist:Shimizu Kaori & Ueda Kana
Creator:quintitem
Version:Normal
Source:Nogizaka Haruka no Himitsu
Tags:collab miccoliasms Sakurazaka Haduki Nanashiro Nanami

[Difficulty]
HPDrainRate:4
CircleSize:4
OverallDifficulty:2
ApproachRate:4
SliderMultiplier:1.6
SliderTickRate:0.5

[Events]
//Background and Video events
0,0,"Nanami&Hazuki.jpg"
//Break Periods
2,94511,102591
//Storyboard Layer 0 (Background)
//Storyboard Layer 1 (Fail)
//Storyboard Layer 2 (Pass)
//Storyboard Layer 3 (Foreground)
Sprite,Foreground,TopLeft,"StoryBoard\title.png",320,240 M,0,12711,14311,79,331,104,331 F,0,12711,14311,0,1 M,0,23911,25511,104,331,104,346 F,0,23911,25511,1,0
Sprite,Foreground,TopLeft,"StoryBoard\artist.png",320,240 M,0,15911,17511,77,366,102,366 F,0,15911,17511,0,1 M,0,23911,25511,102,366,102,381 F,0,23911,25511,1,0
Sprite,Foreground,TopLeft,"StoryBoard\mapby2.png",320,240 M,0,19111,20711,77,401,102,401 F,0,19111,20711,0,1 M,0,23911,25511,102,401,102,416 F,0,23911,25511,1,0
Sprite,Foreground,TopLeft,"StoryBoard\aa.png",320,240 M,0,25511,,94,401 F,0,25511,25711,0,1 F,0,28111,28311,1,0
Sprite,Foreground,TopLeft,"StoryBoard\ab.png",320,240 M,0,28511,,94,401 F,0,28511,28711,0,1 F,0,31311,31511,1,0
Sprite,Foreground,TopLeft,"StoryBoard\ac.png",320,240 M,0,31711,,94,401 F,0,31711,31911,0,1 F,0,37711,37911,1,0
Sprite,Foreground,TopLeft,"StoryBoard\ad.png",320,240 M,0,34711,,327,401 F,0,34711,34911,0,1 F,0,37711,37911,1,0
Sprite,Foreground,TopLeft,"StoryBoard\ae.png",320,240 M,0,35911,,449,401 F,0,35911,36111,0,1 F,0,37711,37911,1,0
Sprite,Foreground,TopLeft,"StoryBoard\af.png",320,240 M,0,36711,,539,401 F,0,36711,36911,0,1 F,0,37711,37911,1,0
Sprite,Foreground,TopLeft,"StoryBoard\ba.png",320,240 M,0,38311,,94,401 F,0,38311,38511,0,1 F,0,40911,41111,1,0
Sprite,Foreground,TopLeft,"StoryBoard\bb.png",320,240 M,0,41311,,94,401 F,0,41311,41511,0,1 F,0,44111,44311,1,0
Sprite,Foreground,TopLeft,"StoryBoard\bc.png",320,240 M,0,44511,,94,401 F,0,44511,44711,0,1 F,0,50511,50711,1,0
Sprite,Foreground,TopLeft,"StoryBoard\bd.png",320,240 M,0,47511,,321,401 F,0,47511,47711,0,1 F,0,50511,50711,1,0
Sprite,Foreground,TopLeft,"StoryBoard\be.png",320,240 M,0,48711,,417,401 F,0,48711,48911,0,1 F,0,50511,50711,1,0
Sprite,Foreground,TopLeft,"StoryBoard\bf.png",320,240 M,0,49511,,505,401 F,0,49511,49711,0,1 F,0,50511,50711,1,0
Sprite,Foreground,TopLeft,"StoryBoard\ca.png",320,240 M,0,51111,,94,401 F,0,51111,51311,0,1 F,0,56111,56311,1,0
Sprite,Foreground,TopLeft,"StoryBoard\cb.png",320,240 F,0,52911,53111,0,1 M,0,52911,54311,145,366,160,366 F,0,54111,54311,1,0
Sprite,Foreground,TopLeft,"StoryBoard\cc.png",320,240 M,0,54311,,310,401 F,0,54311,54511,0,1 F,0,56111,56311,1,0
Sprite,Foreground,TopLeft,"StoryBoard\cd.png",320,240 F,0,56111,56311,0,1 M,0,56111,57511,307,366,322,366 F,0,57311,57511,1,0
Sprite,Foreground,TopLeft,"StoryBoard\ce.png",320,240 M,0,56711,,94,401 F,0,56711,56911,0,1 F,0,63711,63911,1,0
Sprite,Foreground,TopLeft,"StoryBoard\cf.png",320,240 M,0,59911,,306,401 F,0,59911,60111,0,1 F,0,63711,63911,1,0
Sprite,Foreground,TopLeft,"StoryBoard\cg.png",320,240 F,0,63511,63711,0,1 M,0,63511,64711,409,366,394,366 F,0,64511,64711,1,0
Sprite,Foreground,TopLeft,"StoryBoard\da.png",320,240 M,0,64711,,94,401 F,0,64711,64911,0,1 F,0,70511,70711,1,0
Sprite,Foreground,TopLeft,"StoryBoard\db.png",320,240 M,0,65511,,182,401 F,0,65511,65711,0,1 F,0,70511,70711,1,0
Sprite,Foreground,TopLeft,"StoryBoard\dc.png",320,240 M,0,71111,,94,401 F,0,71111,71311,0,1 F,0,77311,77511,1,0
Sprite,Foreground,TopLeft,"StoryBoard\dd.png",320,240 M,0,73311,,266,401 F,0,73311,73511,0,1 F,0,77311,77511,1,0
Sprite,Foreground,TopLeft,"StoryBoard\de.png",320,240 F,0,76911,77111,0,1 M,0,76911,78311,455,366,440,366 F,0,78111,78311,1,0
Sprite,Foreground,TopLeft,"StoryBoard\df.png",320,240 M,0,77711,,94,401 F,0,77711,77911,0,1 F,0,80511,80711,1,0
Sprite,Foreground,TopLeft,"StoryBoard\dg.png",320,240 M,0,80911,,94,401 F,0,80911,81111,0,1 F,0,84911,85111,1,0
Sprite,Foreground,TopLeft,"StoryBoard\dh.png",320,240 M,0,85311,,94,401 F,0,85311,85511,0,1 F,0,93311,93511,1,0
Sprite,Foreground,TopLeft,"StoryBoard\di.png",320,240 M,0,86111,,217,401 F,0,86111,86311,0,1 F,0,93311,93511,1,0
Sprite,Foreground,TopLeft,"StoryBoard\dj.png",320,240 M,0,86911,,323,401 F,0,86911,87111,0,1 F,0,93311,93511,1,0
Sprite,Foreground,TopLeft,"StoryBoard\dk.png",320,240 M,0,89711,,454,401 F,0,89711,89911,0,1 F,0,93311,93511,1,0
Sprite,Foreground,TopLeft,"StoryBoard\ea.png",320,240 M,0,107111,,94,401 F,0,107111,107311,0,1 F,0,109711,109911,1,0
Sprite,Foreground,TopLeft,"StoryBoard\eb.png",320,240 M,0,110111,,94,401 F,0,110111,110311,0,1 F,0,112911,113111,1,0
Sprite,Foreground,TopLeft,"StoryBoard\ec.png",320,240 M,0,113311,,94,401 F,0,113311,113511,0,1 F,0,119311,119511,1,0
Sprite,Foreground,TopLeft,"StoryBoard\ed.png",320,240 M,0,116311,,330,401 F,0,116311,116511,0,1 F,0,119311,119511,1,0
Sprite,Foreground,TopLeft,"StoryBoard\ee.png",320,240 M,0,117511,,402,401 F,0,117511,117711,0,1 F,0,119311,119511,1,0
Sprite,Foreground,TopLeft,"StoryBoard\ef.png",320,240 M,0,118311,,475,401 F,0,118311,118511,0,1 F,0,119311,119511,1,0
Sprite,Foreground,TopLeft,"StoryBoard\fa.png",320,240 M,0,119911,,94,401 F,0,119911,120111,0,1 F,0,122511,122711,1,0
Sprite,Foreground,TopLeft,"StoryBoard\fb.png",320,240 M,0,122911,,94,401 F,0,122911,123111,0,1 F,0,125711,125911,1,0
Sprite,Foreground,TopLeft,"StoryBoard\fc.png",320,240 M,0,126111,,94,401 F,0,126111,126311,0,1 F,0,132111,132311,1,0
Sprite,Foreground,TopLeft,"StoryBoard\fd.png",320,240 M,0,129111,,328,401 F,0,129111,129311,0,1 F,0,132111,132311,1,0
Sprite,Foreground,TopLeft,"StoryBoard\fe.png",320,240 F,0,131111,131311,0,1 M,0,131111,132311,415,366,430,366 F,0,132111,132311,1,0
Sprite,Foreground,TopLeft,"StoryBoard\ga.png",320,240 M,0,132711,,94,401 F,0,132711,132911,0,1 F,0,137711,137911,1,0
Sprite,Foreground,TopLeft,"StoryBoard\gb.png",320,240 F,0,135311,135511,0,1 M,0,135311,135911,129,366,139,366 F,0,135711,135911,1,0
Sprite,Foreground,TopLeft,"StoryBoard\gc.png",320,240 M,0,135911,,263,401 F,0,135911,136111,0,1 F,0,137711,137911,1,0
Sprite,Foreground,TopLeft,"StoryBoard\gd.png",320,240 F,0,137911,138111,0,1 M,0,137911,138711,394,366,404,366 F,0,138511,138711,1,0
Sprite,Foreground,TopLeft,"StoryBoard\ge.png",320,240 M,0,138311,,94,401 F,0,138311,138511,0,1 F,0,145311,145511,1,0
Sprite,Foreground,TopLeft,"StoryBoard\gf.png",320,240 M,0,141511,,250,401 F,0,141511,141711,0,1 F,0,145311,145511,1,0
Sprite,Foreground,TopLeft,"StoryBoard\gg.png",320,240 F,0,144311,144511,0,1 M,0,144311,146311,247,366,267,366 F,0,146111,146311,1,0
Sprite,Foreground,TopLeft,"StoryBoard\da.png",320,240 M,0,146311,,94,401 F,0,146311,146511,0,1 F,0,152111,152311,1,0
Sprite,Foreground,TopLeft,"StoryBoard\hb.png",320,240 M,0,147111,,182,401 F,0,147111,147311,0,1 F,0,152111,152311,1,0
Sprite,Foreground,TopLeft,"StoryBoard\hc.png",320,240 M,0,152711,,94,401 F,0,152711,152911,0,1 F,0,158911,159111,1,0
Sprite,Foreground,TopLeft,"StoryBoard\hd.png",320,240 M,0,154911,,247,401 F,0,154911,155111,0,1 F,0,158911,159111,1,0
Sprite,Foreground,TopLeft,"StoryBoard\he.png",320,240 M,0,155711,,338,401 F,0,155711,155911,0,1 F,0,158911,159111,1,0
Sprite,Foreground,TopLeft,"StoryBoard\hf.png",320,240 M,0,156711,,417,401 F,0,156711,156911,0,1 F,0,158911,159111,1,0
Sprite,Foreground,TopLeft,"StoryBoard\hg.png",320,240 F,0,158711,158911,0,1 M,0,158711,159511,405,366,415,366 F,0,159311,159511,1,0
Sprite,Foreground,TopLeft,"StoryBoard\hh.png",320,240 M,0,159311,,94,401 F,0,159311,159511,0,1 F,0,162111,162311,1,0
Sprite,Foreground,TopLeft,"StoryBoard\hi.png",320,240 M,0,162511,,94,401 F,0,162511,162711,0,1 F,0,166511,166711,1,0
Sprite,Foreground,TopLeft,"StoryBoard\hj.png",320,240 M,0,166911,,94,401 F,0,166911,167111,0,1 F,0,174111,174311,1,0
Sprite,Foreground,TopLeft,"StoryBoard\hk.png",320,240 M,0,167711,,181,401 F,0,167711,167911,0,1 F,0,174111,174311,1,0
Sprite,Foreground,TopLeft,"StoryBoard\hl.png",320,240 M,0,168511,,263,401 F,0,168511,168711,0,1 F,0,174111,174311,1,0
Sprite,Foreground,TopLeft,"StoryBoard\dk.png",320,240 M,0,171311,,420,401 F,0,171311,171511,0,1 F,0,174111,174311,1,0
//Storyboard Sound Samples
//Background Colour Transformations
3,100,163,162,255

[TimingPoints]
3111,400,4,2,1,80,1,0
25111,-125,4,2,1,60,0,0
50711,-125,4,2,1,70,0,0
63911,-125,4,1,0,40,0,0
64711,-125,4,2,1,70,0,0
65511,-111.111111111111,4,2,1,70,0,1
65611,-111.111111111111,4,2,1,90,0,0
87811,-111.111111111111,4,2,2,70,0,0
88211,-111.111111111111,4,2,2,95,0,0
88611,-111.111111111111,4,2,2,70,0,0
89011,-111.111111111111,4,2,2,95,0,0
89411,-111.111111111111,4,2,2,70,0,0
94311,-111.111111111111,4,1,0,40,0,0
103111,-125,4,2,1,60,0,0
132311,-125,4,2,1,70,0,0
145511,-125,4,1,0,40,0,0
146311,-125,4,2,1,70,0,0
147111,-111.111111111111,4,2,1,70,0,1
147211,-111.111111111111,4,2,1,90,0,0

[Colours]
Combo1 : 64,46,105
Combo2 : 224,167,60
Combo3 : 104,89,144
Combo4 : 158,63,57

[HitObjects]
196,124,25511,2,0,B|60:124,2,128,4|8|0
288,56,26711,1,8
380,124,27111,2,0,B|456:140|456:221,2,128,0|8|0
312,220,28311,2,0,B|312:288,2,64,8|0|0
200,252,29111,6,0,B|52:252,2,128,8|0|8
200,136,30311,2,0,B|199:62|123:46,2,128,0|8|0
312,112,31511,2,0,B|312:44,2,64,8|0|0
428,128,32311,6,0,B|428:272,1,128,8|0
312,272,33111,2,0,B|312:340,2,64,8|0|0
196,256,33911,2,0,B|121:271|120:344,2,128,8|0|8
156,148,35111,6,0,B|20:148,2,128,0|8|0
220,52,36311,2,0,B|372:52,1,128,8|0
404,148,37111,2,0,B|480:148,2,64,8|0|0
360,256,37911,1,8
256,308,38311,6,0,B|120:308,2,128,4|8|0
244,192,39511,1,8
164,108,39911,2,0,B|88:124|88:205,2,128,0|8|0
264,52,41111,5,8
264,52,41311,1,0
264,52,41511,2,0,B|412:52,2,128,0|8|0
320,152,42711,2,0,B|456:152,2,128,8|0|8
360,260,43911,1,0
256,312,44311,5,8
256,312,44511,1,0
256,312,44711,2,0,B|116:312,2,128,0|8|0
220,204,45911,2,0,B|288:204,2,64,8|0|0
108,184,46711,1,8
52,84,47111,1,0
156,36,47511,6,0,B|300:36,2,128,8|0|8
216,132,48711,2,0,B|216:276,2,128,0|8|0
328,152,49911,1,8
328,152,50111,1,0
328,152,50311,2,0,B|404:168|404:249,1,128,0|8
332,332,51111,6,0,B|128:332,2,192,4|4|8
276,232,52711,2,0,B|276:96,2,128,6|10|2
168,192,53911,1,10
140,80,54311,6,0,B|29:106|29:226,2,192,4|4|8
248,36,55911,1,6
360,60,56311,1,10
416,160,56711,1,2
424,276,57111,6,0,B|504:276,2,64,10|0|2
312,252,57911,2,0,B|236:268|236:349,2,128,8|0|8
256,152,59111,2,0,B|256:78|180:62,2,128,2|8|0
148,192,60311,1,8
256,192,60711,12,4,63911
188,164,65511,6,0,B|32:164,2,143.999993133545,6|8|0
292,112,66711,2,0,B|292:40,2,71.9999965667726,8|0|0
392,168,67511,2,0,B|392:20,2,143.999993133545,10|2|10
340,272,68711,6,0,B|496:272,2,143.999993133545,2|8|0
232,232,69911,2,0,B|145:248|144:360,2,143.999993133545,8|0|10
252,120,71111,1,2
340,44,71511,1,10
456,40,71911,5,2
480,152,72311,2,0,B|478:313|302:345,3,287.99998626709,8|8|8|8
232,256,75111,1,2
124,292,75511,1,8
100,180,75911,2,0,B|8:180,2,71.9999965667726,2|0|8
140,72,76711,1,2
252,44,77111,1,8
364,72,77511,2,0,B|364:216,2,143.999993133545,2|8|4
476,44,78711,6,0,B|476:336,1,287.99998626709,8|8
372,284,79911,1,6
268,332,80311,1,10
268,332,80511,2,0,B|138:316|135:166,1,215.999989700318,6|8
44,116,81511,1,6
140,52,81911,6,0,B|436:52,1,287.99998626709,8|8
480,156,83111,1,4
428,260,83511,1,8
428,260,83711,2,0,B|192:260,1,215.999989700318,4|8
120,328,84711,1,4
108,212,85111,6,0,B|108:126|21:110,2,143.999993133545,8|0|8
200,144,86311,1,0
312,176,86711,2,0,B|312:32,2,143.999993133545,8|0|8
376,272,87911,6,0,B|484:272,2,107.999994850159,12|8|8
336,312,88711,2,0,B|212:312,2,107.999994850159,12|8|8
376,352,89511,1,12
256,192,89711,12,4,94311
256,192,103911,12,8,106711
184,128,107111,6,0,B|108:144|108:225,2,128,4|8|0
256,36,108311,1,8
368,64,108711,1,0
452,140,109111,1,8
468,256,109511,1,0
384,332,109911,5,8
384,332,110111,1,0
384,332,110311,2,0,B|236:332,2,128,0|8|0
344,224,111511,2,0,B|343:150|267:134,1,128,8|0
204,40,112311,2,0,B|130:55|129:129,1,128,8|0
52,216,113111,5,8
52,216,113311,1,0
52,216,113511,2,0,B|52:360,2,128,0|8|0
160,252,114711,2,0,B|160:320,2,64,8|0|0
272,284,115511,1,8
380,324,115911,1,0
440,228,116311,5,8
380,128,116711,2,0,B|381:54|454:38,2,128,0|8|0
284,192,117911,1,8
204,108,118311,1,0
92,80,118711,1,8
92,80,118911,1,0
92,80,119111,2,0,B|92:228,1,128,0|8
48,312,119911,6,0,B|184:312,1,128,4|8
284,348,120711,2,0,B|420:348,1,128,0|8
460,244,121511,2,0,B|328:244,1,128,0|8
384,140,122311,2,0,B|244:140,1,128,0|8
212,104,122911,5,0
168,140,123111,2,0,B|94:123|93:49,2,128,0|8|0
116,240,124311,2,0,B|252:240,1,128,8|0
360,240,125111,2,0,B|492:240,2,128,8|0|8
328,288,126111,5,0
360,336,126311,2,0,B|500:336,2,128,0|8|0
244,340,127511,1,8
244,340,127711,1,0
244,340,127911,2,0,B|170:323|169:249,2,128,0|8|0
256,224,129111,1,8
256,192,129511,12,8,132311
204,112,132711,6,0,B|93:138|93:258,2,192,4|4|8
296,40,134311,1,6
404,76,134711,1,10
456,180,135111,1,2
440,296,135511,1,10
336,344,135911,5,4
172,296,136511,1,4
36,192,137111,2,0,B|36:64,1,128,8|6
148,32,137911,2,0,B|148:172,1,128,10|2
244,96,138711,5,10
244,96,138911,1,0
244,96,139111,2,0,B|392:96,1,128,2|8
440,188,139911,1,0
372,280,140311,1,8
256,312,140711,1,2
168,236,141111,2,0,B|28:236,2,128,8|0|8
256,192,142311,12,4,145511
208,152,147111,6,0,B|56:152,1,143.999993133545,6|8
120,256,147911,2,0,B|268:256,1,143.999993133545,0|8
308,296,148511,1,0
352,256,148711,2,0,B|439:272|440:384,2,143.999993133545,0|10|2
404,152,149911,1,10
348,48,150311,6,0,B|504:48,2,143.999993133545,2|8|0
232,48,151511,2,0,B|145:64|144:176,1,143.999993133545,8|0
40,192,152311,1,10
88,296,152711,1,2
196,256,153111,1,10
256,356,153511,5,2
316,256,153911,2,0,B|490:224|492:63,1,287.99998626709,8|8
380,40,155111,1,2
264,32,155511,2,0,B|89:63|87:224,1,287.99998626709,8|8
84,340,156711,6,0,B|236:340,1,143.999993133545,2|8
256,228,157511,2,0,B|256:140,2,71.9999965667726,2|0|8
332,316,158311,1,2
444,348,158711,1,8
472,236,159111,2,0,B|472:92,1,143.999993133545,2|8
364,52,159911,5,4
364,52,160311,2,0,B|64:52,1,287.99998626709,8|8
40,164,161511,2,0,B|127:180|128:292,1,143.999993133545,6|10
156,312,162111,2,0,B|286:296|289:146,1,215.999989700318,6|8
356,72,163111,5,6
468,104,163511,1,8
396,196,163911,1,0
340,300,164311,2,0,B|484:300,2,143.999993133545,8|6|10
300,256,165311,2,0,B|64:256,1,215.999989700318,6|8
56,144,166311,2,0,B|55:58|142:42,2,143.999993133545,6|8|2
172,160,167511,6,0,B|316:160,1,143.999993133545,8|2
428,192,168311,2,0,B|428:48,2,143.999993133545,8|2|8
256,192,169511,12,0,174311
