osu file format v9

[General]
AudioFilename: Shimizu Kaori & Ueda Kana - Gohoushi Inspire.mp3
AudioLeadIn: 0
PreviewTime: 65411
Countdown: 0
SampleSet: Soft
StackLeniency: 0.5
Mode: 0
LetterboxInBreaks: 0

[Editor]
DistanceSpacing: 1
BeatDivisor: 4
GridSize: 8

[Metadata]
Title:Gohoushi Inspire
Artist:Shimizu Kaori & Ueda Kana
Creator:quintitem
Version:Maid
Source:Nogizaka Haruka no Himitsu
Tags:collab miccoliasms Sakurazaka Haduki Nanashiro Nanami

[Difficulty]
HPDrainRate:7
CircleSize:5
OverallDifficulty:6
ApproachRate:7
SliderMultiplier:1.8
SliderTickRate:0.5

[Events]
//Background and Video events
0,0,"Nanami&Hazuki.jpg"
//Break Periods
2,94511,103011
//Storyboard Layer 0 (Background)
//Storyboard Layer 1 (Fail)
//Storyboard Layer 2 (Pass)
//Storyboard Layer 3 (Foreground)
Sprite,Foreground,TopLeft,"StoryBoard\mapperm.png",320,240 M,0,6311,,385,60 F,0,6311,6511,0,1 F,0,94111,94311,1,0 F,0,175111,175311,0,1 F,0,181311,181511,1,0 F,0,192711,192911,0,1 F,0,205311,205511,1,0
Sprite,Foreground,TopLeft,"StoryBoard\mapperq.png",320,240 M,0,103911,,412,60 F,0,103911,104111,0,1 F,0,174911,175111,1,0 F,0,181511,181711,0,1 F,0,192511,192711,1,0 F,0,205511,205711,0,1 F,0,222111,222311,1,0
Sprite,Foreground,TopLeft,"StoryBoard\title.png",320,240 M,0,12711,14311,79,331,104,331 F,0,12711,14311,0,1 M,0,23911,25511,104,331,104,346 F,0,23911,25511,1,0
Sprite,Foreground,TopLeft,"StoryBoard\artist.png",320,240 M,0,15911,17511,77,366,102,366 F,0,15911,17511,0,1 M,0,23911,25511,102,366,102,381 F,0,23911,25511,1,0
Sprite,Foreground,TopLeft,"StoryBoard\mapby.png",320,240 M,0,19111,20711,77,401,102,401 F,0,19111,20711,0,1 M,0,23911,25511,102,401,102,416 F,0,23911,25511,1,0
Sprite,Foreground,TopLeft,"StoryBoard\aa.png",320,240 M,0,25511,,94,401 F,0,25511,25711,0,1 F,0,28111,28311,1,0
Sprite,Foreground,TopLeft,"StoryBoard\ab.png",320,240 M,0,28511,,94,401 F,0,28511,28711,0,1 F,0,31311,31511,1,0
Sprite,Foreground,TopLeft,"StoryBoard\ac.png",320,240 M,0,31711,,94,401 F,0,31711,31911,0,1 F,0,37711,37911,1,0
Sprite,Foreground,TopLeft,"StoryBoard\ad.png",320,240 M,0,34711,,327,401 F,0,34711,34911,0,1 F,0,37711,37911,1,0
Sprite,Foreground,TopLeft,"StoryBoard\ae.png",320,240 M,0,35911,,449,401 F,0,35911,36111,0,1 F,0,37711,37911,1,0
Sprite,Foreground,TopLeft,"StoryBoard\af.png",320,240 M,0,36711,,539,401 F,0,36711,36911,0,1 F,0,37711,37911,1,0
Sprite,Foreground,TopLeft,"StoryBoard\ba.png",320,240 M,0,38311,,94,401 F,0,38311,38511,0,1 F,0,40911,41111,1,0
Sprite,Foreground,TopLeft,"StoryBoard\bb.png",320,240 M,0,41311,,94,401 F,0,41311,41511,0,1 F,0,44111,44311,1,0
Sprite,Foreground,TopLeft,"StoryBoard\bc.png",320,240 M,0,44511,,94,401 F,0,44511,44711,0,1 F,0,50511,50711,1,0
Sprite,Foreground,TopLeft,"StoryBoard\bd.png",320,240 M,0,47511,,321,401 F,0,47511,47711,0,1 F,0,50511,50711,1,0
Sprite,Foreground,TopLeft,"StoryBoard\be.png",320,240 M,0,48711,,417,401 F,0,48711,48911,0,1 F,0,50511,50711,1,0
Sprite,Foreground,TopLeft,"StoryBoard\bf.png",320,240 M,0,49511,,505,401 F,0,49511,49711,0,1 F,0,50511,50711,1,0
Sprite,Foreground,TopLeft,"StoryBoard\ca.png",320,240 M,0,51111,,94,401 F,0,51111,51311,0,1 F,0,56111,56311,1,0
Sprite,Foreground,TopLeft,"StoryBoard\cb.png",320,240 F,0,52911,53111,0,1 M,0,52911,54311,145,366,160,366 F,0,54111,54311,1,0
Sprite,Foreground,TopLeft,"StoryBoard\cc.png",320,240 M,0,54311,,310,401 F,0,54311,54511,0,1 F,0,56111,56311,1,0
Sprite,Foreground,TopLeft,"StoryBoard\cd.png",320,240 F,0,56111,56311,0,1 M,0,56111,57511,307,366,322,366 F,0,57311,57511,1,0
Sprite,Foreground,TopLeft,"StoryBoard\ce.png",320,240 M,0,56711,,94,401 F,0,56711,56911,0,1 F,0,63711,63911,1,0
Sprite,Foreground,TopLeft,"StoryBoard\cf.png",320,240 M,0,59911,,306,401 F,0,59911,60111,0,1 F,0,63711,63911,1,0
Sprite,Foreground,TopLeft,"StoryBoard\cg.png",320,240 F,0,63511,63711,0,1 M,0,63511,64711,409,366,394,366 F,0,64511,64711,1,0
Sprite,Foreground,TopLeft,"StoryBoard\da.png",320,240 M,0,64711,,94,401 F,0,64711,64911,0,1 F,0,70511,70711,1,0
Sprite,Foreground,TopLeft,"StoryBoard\db.png",320,240 M,0,65511,,182,401 F,0,65511,65711,0,1 F,0,70511,70711,1,0
Sprite,Foreground,TopLeft,"StoryBoard\dc.png",320,240 M,0,71111,,94,401 F,0,71111,71311,0,1 F,0,77311,77511,1,0
Sprite,Foreground,TopLeft,"StoryBoard\dd.png",320,240 M,0,73311,,266,401 F,0,73311,73511,0,1 F,0,77311,77511,1,0
Sprite,Foreground,TopLeft,"StoryBoard\de.png",320,240 F,0,76911,77111,0,1 M,0,76911,78311,455,366,440,366 F,0,78111,78311,1,0
Sprite,Foreground,TopLeft,"StoryBoard\df.png",320,240 M,0,77711,,94,401 F,0,77711,77911,0,1 F,0,80511,80711,1,0
Sprite,Foreground,TopLeft,"StoryBoard\dg.png",320,240 M,0,80911,,94,401 F,0,80911,81111,0,1 F,0,84911,85111,1,0
Sprite,Foreground,TopLeft,"StoryBoard\dh.png",320,240 M,0,85311,,94,401 F,0,85311,85511,0,1 F,0,93311,93511,1,0
Sprite,Foreground,TopLeft,"StoryBoard\di.png",320,240 M,0,86111,,217,401 F,0,86111,86311,0,1 F,0,93311,93511,1,0
Sprite,Foreground,TopLeft,"StoryBoard\dj.png",320,240 M,0,86911,,323,401 F,0,86911,87111,0,1 F,0,93311,93511,1,0
Sprite,Foreground,TopLeft,"StoryBoard\dk.png",320,240 M,0,89711,,454,401 F,0,89711,89911,0,1 F,0,93311,93511,1,0
Sprite,Foreground,TopLeft,"StoryBoard\ea.png",320,240 M,0,107111,,94,401 F,0,107111,107311,0,1 F,0,109711,109911,1,0
Sprite,Foreground,TopLeft,"StoryBoard\eb.png",320,240 M,0,110111,,94,401 F,0,110111,110311,0,1 F,0,112911,113111,1,0
Sprite,Foreground,TopLeft,"StoryBoard\ec.png",320,240 M,0,113311,,94,401 F,0,113311,113511,0,1 F,0,119311,119511,1,0
Sprite,Foreground,TopLeft,"StoryBoard\ed.png",320,240 M,0,116311,,330,401 F,0,116311,116511,0,1 F,0,119311,119511,1,0
Sprite,Foreground,TopLeft,"StoryBoard\ee.png",320,240 M,0,117511,,402,401 F,0,117511,117711,0,1 F,0,119311,119511,1,0
Sprite,Foreground,TopLeft,"StoryBoard\ef.png",320,240 M,0,118311,,475,401 F,0,118311,118511,0,1 F,0,119311,119511,1,0
Sprite,Foreground,TopLeft,"StoryBoard\fa.png",320,240 M,0,119911,,94,401 F,0,119911,120111,0,1 F,0,122511,122711,1,0
Sprite,Foreground,TopLeft,"StoryBoard\fb.png",320,240 M,0,122911,,94,401 F,0,122911,123111,0,1 F,0,125711,125911,1,0
Sprite,Foreground,TopLeft,"StoryBoard\fc.png",320,240 M,0,126111,,94,401 F,0,126111,126311,0,1 F,0,132111,132311,1,0
Sprite,Foreground,TopLeft,"StoryBoard\fd.png",320,240 M,0,129111,,328,401 F,0,129111,129311,0,1 F,0,132111,132311,1,0
Sprite,Foreground,TopLeft,"StoryBoard\fe.png",320,240 F,0,131111,131311,0,1 M,0,131111,132311,415,366,430,366 F,0,132111,132311,1,0
Sprite,Foreground,TopLeft,"StoryBoard\ga.png",320,240 M,0,132711,,94,401 F,0,132711,132911,0,1 F,0,137711,137911,1,0
Sprite,Foreground,TopLeft,"StoryBoard\gb.png",320,240 F,0,135311,135511,0,1 M,0,135311,135911,129,366,139,366 F,0,135711,135911,1,0
Sprite,Foreground,TopLeft,"StoryBoard\gc.png",320,240 M,0,135911,,263,401 F,0,135911,136111,0,1 F,0,137711,137911,1,0
Sprite,Foreground,TopLeft,"StoryBoard\gd.png",320,240 F,0,137911,138111,0,1 M,0,137911,138711,394,366,404,366 F,0,138511,138711,1,0
Sprite,Foreground,TopLeft,"StoryBoard\ge.png",320,240 M,0,138311,,94,401 F,0,138311,138511,0,1 F,0,145311,145511,1,0
Sprite,Foreground,TopLeft,"StoryBoard\gf.png",320,240 M,0,141511,,250,401 F,0,141511,141711,0,1 F,0,145311,145511,1,0
Sprite,Foreground,TopLeft,"StoryBoard\gg.png",320,240 F,0,144311,144511,0,1 M,0,144311,146311,247,366,267,366 F,0,146111,146311,1,0
Sprite,Foreground,TopLeft,"StoryBoard\da.png",320,240 M,0,146311,,94,401 F,0,146311,146511,0,1 F,0,152111,152311,1,0
Sprite,Foreground,TopLeft,"StoryBoard\hb.png",320,240 M,0,147111,,182,401 F,0,147111,147311,0,1 F,0,152111,152311,1,0
Sprite,Foreground,TopLeft,"StoryBoard\hc.png",320,240 M,0,152711,,94,401 F,0,152711,152911,0,1 F,0,158911,159111,1,0
Sprite,Foreground,TopLeft,"StoryBoard\hd.png",320,240 M,0,154911,,247,401 F,0,154911,155111,0,1 F,0,158911,159111,1,0
Sprite,Foreground,TopLeft,"StoryBoard\he.png",320,240 M,0,155711,,338,401 F,0,155711,155911,0,1 F,0,158911,159111,1,0
Sprite,Foreground,TopLeft,"StoryBoard\hf.png",320,240 M,0,156711,,417,401 F,0,156711,156911,0,1 F,0,158911,159111,1,0
Sprite,Foreground,TopLeft,"StoryBoard\hg.png",320,240 F,0,158711,158911,0,1 M,0,158711,159511,405,366,415,366 F,0,159311,159511,1,0
Sprite,Foreground,TopLeft,"StoryBoard\hh.png",320,240 M,0,159311,,94,401 F,0,159311,159511,0,1 F,0,162111,162311,1,0
Sprite,Foreground,TopLeft,"StoryBoard\hi.png",320,240 M,0,162511,,94,401 F,0,162511,162711,0,1 F,0,166511,166711,1,0
Sprite,Foreground,TopLeft,"StoryBoard\hj.png",320,240 M,0,166911,,94,401 F,0,166911,167111,0,1 F,0,174111,174311,1,0
Sprite,Foreground,TopLeft,"StoryBoard\hk.png",320,240 M,0,167711,,181,401 F,0,167711,167911,0,1 F,0,174111,174311,1,0
Sprite,Foreground,TopLeft,"StoryBoard\hl.png",320,240 M,0,168511,,263,401 F,0,168511,168711,0,1 F,0,174111,174311,1,0
Sprite,Foreground,TopLeft,"StoryBoard\dk.png",320,240 M,0,171311,,420,401 F,0,171311,171511,0,1 F,0,174111,174311,1,0
Sprite,Foreground,TopLeft,"StoryBoard\ia.png",320,240 M,0,175111,,94,401 F,0,175111,175311,0,1 F,0,180911,181111,1,0
Sprite,Foreground,TopLeft,"StoryBoard\ib.png",320,240 M,0,176711,,192,401 F,0,176711,176911,0,1 F,0,180911,181111,1,0
Sprite,Foreground,TopLeft,"StoryBoard\ic.png",320,240 M,0,178111,,289,401 F,0,178111,178311,0,1 F,0,180911,181111,1,0
Sprite,Foreground,TopLeft,"StoryBoard\id.png",320,240 M,0,181511,,94,401 F,0,181511,181711,0,1 F,0,191711,191911,1,0
Sprite,Foreground,TopLeft,"StoryBoard\ie.png",320,240 M,0,184311,,197,401 F,0,184311,184511,0,1 F,0,191711,191911,1,0
Sprite,Foreground,TopLeft,"StoryBoard\if.png",320,240 M,0,186511,,254,401 F,0,186511,186711,0,1 F,0,191711,191911,1,0
Sprite,Foreground,TopLeft,"StoryBoard\ig.png",320,240 M,0,188111,,332,401 F,0,188111,188311,0,1 F,0,191711,191911,1,0
Sprite,Foreground,TopLeft,"StoryBoard\ih.png",320,240 F,0,191911,192111,0,1 M,0,191911,192911,361,366,376,366 F,0,192711,192911,1,0
Sprite,Foreground,TopLeft,"StoryBoard\da.png",320,240 M,0,192711,,94,401 F,0,192711,192911,0,1 F,0,198511,198711,1,0
Sprite,Foreground,TopLeft,"StoryBoard\db.png",320,240 M,0,193511,,181,401 F,0,193511,193711,0,1 F,0,198511,198711,1,0
Sprite,Foreground,TopLeft,"StoryBoard\jc.png",320,240 M,0,199111,,94,401 F,0,199111,199311,0,1 F,0,205311,205511,1,0
Sprite,Foreground,TopLeft,"StoryBoard\jd.png",320,240 M,0,201311,,235,401 F,0,201311,201511,0,1 F,0,205311,205511,1,0
Sprite,Foreground,TopLeft,"StoryBoard\je.png",320,240 M,0,205711,,94,401 F,0,205711,205911,0,1 F,0,208511,208711,1,0
Sprite,Foreground,TopLeft,"StoryBoard\jf.png",320,240 M,0,206911,,229,401 F,0,206911,207111,0,1 F,0,208511,208711,1,0
Sprite,Foreground,TopLeft,"StoryBoard\jg.png",320,240 M,0,208911,,94,401 F,0,208911,209111,0,1 F,0,212911,213111,1,0
Sprite,Foreground,TopLeft,"StoryBoard\jh.png",320,240 M,0,210911,,312,401 F,0,210911,211111,0,1 F,0,212911,213111,1,0
Sprite,Foreground,TopLeft,"StoryBoard\ig.png",320,240 M,0,213311,,94,401 F,0,213311,213511,0,1 F,0,221311,221511,1,0
Sprite,Foreground,TopLeft,"StoryBoard\jj.png",320,240 M,0,214111,,213,401 F,0,214111,214311,0,1 F,0,221311,221511,1,0
Sprite,Foreground,TopLeft,"StoryBoard\jk.png",320,240 M,0,214911,,337,401 F,0,214911,215111,0,1 F,0,221311,221511,1,0
Sprite,Foreground,TopLeft,"StoryBoard\dk.png",320,240 M,0,217711,,479,401 F,0,217711,217911,0,1 F,0,221311,221511,1,0
//Storyboard Sound Samples
//Background Colour Transformations
3,100,163,162,255

[TimingPoints]
3111,400,4,2,1,80,1,0
6311,-100,4,2,1,5,0,0
12311,-100,4,2,1,80,0,0
26011,-100,4,2,1,60,0,0
50911,-100,4,2,1,70,0,0
62511,-100,4,2,1,75,0,0
63911,-100,4,1,0,40,0,0
64311,-100,4,2,1,65,0,0
65511,-100,4,2,1,80,0,1
65611,-100,4,2,1,80,0,0
106711,-125,4,2,1,60,0,0
118511,-100,4,2,1,60,0,0
118777,-100,4,2,2,40,0,0
119511,-125,4,2,1,60,0,0
131111,-125,4,2,1,70,0,0
142211,-125,4,2,2,60,0,0
142511,-125,4,2,2,85,0,0
143011,-125,4,2,2,60,0,0
143311,-125,4,2,2,85,0,0
143811,-125,4,2,2,60,0,0
144111,-125,4,2,2,75,0,0
145511,-125,4,1,0,40,0,0
145911,-100,4,2,1,60,0,0
146911,-100,4,2,1,70,0,0
147111,-111.111111111111,4,2,1,70,0,1
147211,-111.111111111111,4,2,1,90,0,0
169411,-111.111111111111,4,2,2,70,0,0
169711,-111.111111111111,4,2,2,95,0,0
170211,-111.111111111111,4,2,2,70,0,0
170511,-111.111111111111,4,2,2,95,0,0
171011,-111.111111111111,4,2,2,70,0,0
181411,-125,4,2,2,80,0,0
185611,-125,4,2,2,90,0,0
189911,-125,4,2,2,95,0,0
191711,-125,4,1,0,65,0,0
193511,-125,4,2,1,80,0,1
193611,-111.111111111111,4,2,1,80,0,0
205411,-111.111111111111,4,2,1,90,0,0
215811,-111.111111111111,4,2,2,70,0,0
216211,-111.111111111111,4,2,2,95,0,0
216611,-111.111111111111,4,2,2,70,0,0
217011,-111.111111111111,4,2,2,95,0,0
217411,-111.111111111111,4,2,2,70,0,0
217711,-111.111111111111,4,2,2,95,0,0
222311,-111.111111111111,4,2,2,70,0,0

[Colours]
Combo1 : 64,46,105
Combo2 : 224,167,60
Combo3 : 104,89,144
Combo4 : 158,63,57

[HitObjects]
256,192,6311,12,4,12311
360,16,12711,6,0,B|248:16|248:16,1,90,2|0
216,88,13111,2,0,B|176:128|208:176|208:176,1,90,10|0
240,200,13411,2,0,B|336:200|336:200,2,90,2|2|0
200,224,13911,2,0,B|168:312|168:312,1,90,10|0
256,280,14311,1,2
336,328,14511,1,0
256,280,14711,1,10
336,248,14911,1,0
264,192,15111,1,2
256,280,15311,1,0
192,344,15511,5,10
176,344,15611,1,0
160,344,15711,1,0
144,344,15811,1,0
128,344,15911,2,0,B|64:328|80:256|80:256,1,90,6|0
80,184,16311,2,0,B|80:88|80:88,1,90,10|0
96,56,16611,2,0,B|136:16|192:40|192:40,2,90,2|2|0
112,96,17111,2,0,B|192:152|192:152,1,90,10|0
264,112,17511,6,0,B|312:80|352:112|352:112,1,90,2|0
416,240,17911,2,0,B|368:272|328:240|328:240,1,90,10|0
176,72,18311,2,0,B|224:40|264:72|264:72,1,90,2|0
264,160,18711,5,10
264,176,18811,1,0
264,192,18911,1,0
264,208,19011,1,0
264,224,19111,2,0,B|256:288|200:296|200:296,1,90,6|0
120,296,19511,2,0,B|16:296|16:296,1,90,10|0
24,248,19811,2,0,B|56:200|24:152|24:152,2,90,2|2|0
64,264,20311,2,0,B|112:240|120:192|120:192,1,90,10|0
136,112,20711,5,2
112,0,20911,1,0
200,72,21111,1,10
72,64,21311,1,0
184,0,21511,1,2
136,112,21711,1,0
80,184,21911,5,10
80,200,22011,1,0
80,216,22111,1,0
80,232,22211,1,0
80,248,22311,2,0,B|88:304|136:312|136:312,1,90,6|0
224,320,22711,2,0,B|320:320|320:320,1,90,10|0
360,304,23011,2,0,B|408:272|448:304|448:304,2,90,2|2|0
320,288,23511,2,0,B|304:232|352:200|352:200,1,90,10|0
432,184,23911,5,2
432,168,24011,1,0
432,152,24111,1,0
432,136,24211,1,0
432,120,24311,1,10
376,48,24511,2,0,B|344:16|344:16,1,45,0|2
304,96,24811,2,0,B|352:136|352:136,1,45,2|0
256,160,25111,1,2
256,160,25211,1,0
256,160,25311,1,0
216,80,25511,6,0,B|120:16|40:88|40:88,1,180,4|8
8,168,26111,1,0
24,256,26311,2,0,B|48:352|48:352,2,90,0|0|8
88,192,26911,1,0
160,240,27111,2,0,B|200:272|192:320|192:320,2,90,0|0|8
88,192,27711,1,0
168,152,27911,2,0,B|272:112|352:200|352:200,1,180,0|8
368,272,28511,5,0
368,272,28611,1,0
368,272,28711,1,0
408,192,28911,1,0
424,104,29111,2,0,B|416:48|368:40|368:40,1,90,8|0
336,128,29511,2,0,B|256:192|256:192,1,90
152,96,29911,2,0,B|232:32|232:32,1,90,8|0
336,128,30311,2,0,B|328:224|240:224|240:224,2,135
320,40,31111,1,0
320,40,31311,1,0
232,8,31511,1,8
232,8,31711,1,0
160,64,31911,6,0,B|112:96|64:72|64:72,2,90,0|0|8
232,8,32511,1,0
248,96,32711,2,0,B|240:208|128:240|128:240,1,180,0|8
48,336,33311,2,0,B|96:304|152:328|152:328,1,90
216,360,33711,1,0
304,336,33911,2,0,B|392:304|392:304,2,90,8|0|0
216,360,34511,1,0
224,272,34711,2,0,B|240:224|288:208|288:208,1,90,8|0
376,192,35111,6,0,B|480:136|432:24|432:24,2,180,0|8|0
288,208,36111,1,0
224,144,36311,1,8
312,128,36511,1,0
376,192,36711,2,0,B|392:248|344:280|344:280,1,90
200,224,37111,2,0,B|184:168|232:136|232:136,1,90,8|0
376,192,37511,2,0,B|384:232|368:296|304:312|264:296|264:296,2,180,0|8|4
360,104,38511,5,0
304,32,38711,2,0,B|216:0|152:48|152:48,1,135,8|0
136,56,39111,2,0,B|152:112|96:152|96:152,1,90
8,240,39511,2,0,B|-8:184|48:144|48:144,1,90,8|0
136,56,39911,1,0
136,56,40111,1,0
111,139,40311,1,8
111,139,40511,1,0
200,120,40711,2,0,B|312:88|368:184|368:184,2,180,0|8|0
168,200,41711,5,0
80,216,41911,2,0,B|24:200|24:136|24:136,1,90,8|0
144,56,42311,2,0,B|200:72|200:136|200:136,1,90
168,200,42711,1,8
168,200,42911,1,0
256,192,43111,2,0,B|424:168|424:168,2,135
208,272,43911,1,0
120,264,44111,1,0
88,176,44311,1,8
160,120,44511,1,0
248,120,44711,6,0,B|352:104|352:104,1,90
296,256,45111,2,0,B|192:272|192:272,1,90,8|0
248,120,45511,1,0
296,256,45711,1,0
248,120,45911,1,8
296,256,46111,1,0
368,304,46311,6,0,B|296:368|200:336|200:336,2,180,0|8|0
368,216,47311,1,0
280,208,47511,1,8
280,296,47711,1,0
368,304,47911,2,0,B|480:296|480:176|480:176,1,180,0|8
456,96,48511,1,0
376,48,48711,2,0,B|280:24|280:24,1,90
280,208,49111,2,0,B|376:232|376:232,1,90,8|0
328,128,49511,5,0
240,96,49711,1,0
152,64,49911,1,8
64,32,50111,1,0
64,32,50311,1,0
328,128,50711,1,12
64,32,51111,6,0,B|-8:120|64:208|64:208,1,180,4|8
120,328,51711,2,0,B|192:240|120:152|120:152,1,180,0|0
64,248,52311,1,8
64,248,52511,1,0
120,328,52711,2,0,B|152:368|208:352|208:352,1,90
216,264,53111,2,0,B|264:240|304:272|304:272,1,90,8|0
304,360,53511,2,0,B|352:384|392:360|392:360,1,90
392,272,53911,2,0,B|440:256|480:288|480:288,1,90,8|0
448,200,54311,6,0,B|376:112|448:24|448:24,1,180,0|8
344,168,54911,2,0,B|416:256|344:344|344:344,1,180
288,256,55511,1,8
288,256,55711,1,0
208,208,55911,2,0,B|168:256|208:304|208:304,1,90
368,296,56311,2,0,B|408:248|368:200|368:200,1,90,8|0
320,136,56711,6,0,B|208:144|168:40|168:40,1,180,0|8
208,208,57311,2,0,B|320:200|360:304|360:304,1,180
384,192,57911,2,0,B|424:152|400:104|400:104,1,90,8|0
312,136,58311,6,0,B|216:56|120:128|120:128,1,180,0|8
40,184,58911,2,0,B|136:264|232:192|232:192,1,180
296,216,59511,2,0,B|360:224|384:176|384:176,1,90,8|0
408,104,59911,1,0
384,16,60111,1,0
304,56,60311,1,8
320,144,60511,1,0
400,192,60711,6,0,B|432:336|432:336,2,135,2|0|2
112,192,61511,2,0,B|80:48|80:48,2,135,2|0|2
256,192,62311,1,6
256,192,62511,12,4,63911
256,192,64711,5,0
256,280,64911,2,0,B|256:320|256:320,3,30,0|0|0|4
120,192,65511,6,0,B|72:152|120:88|120:88,1,90
208,144,65911,2,0,B|240:64|328:64|328:64,1,135,8|0
360,88,66311,2,0,B|384:136|448:128|448:128,1,90
432,24,66711,1,8
435,129,66911,2,0,B|483:305|483:305,1,180
360,384,67511,2,0,B|328:280|328:280,1,90,8|0
456,164,67911,2,0,B|504:340|504:340,1,180,0|8
168,320,68711,6,0,B|88:248|0:288|0:288,1,180,0|8
144,216,69311,2,0,B|224:288|312:248|312:248,1,180
400,184,69911,1,8
456,88,70111,1,0
360,40,70311,1,0
296,128,70511,1,0
400,184,70711,1,8
400,184,70911,1,0
336,272,71111,2,0,B|280:368|160:336|160:336,1,180,0|8
176,112,71911,6,0,B|200:56|256:64|256:64,1,90,4|0
272,168,72311,2,0,B|360:272|360:272,1,135,8|0
336,320,72711,2,0,B|264:240|264:240,1,90
272,144,73111,1,8
368,192,73311,2,0,B|440:272|360:368,1,180
208,296,73911,2,0,B|176:248|208:208|208:208,1,90,8|0
352,280,74311,2,0,B|384:328|352:368|352:368,1,90
152,248,74711,2,0,B|120:200|152:160|152:160,1,90,8|0
232,96,75111,6,0,B|336:128|400:48|400:48,1,180,0|8
316,205,75711,2,0,B|212:173|148:253|148:253,1,180
120,352,76311,1,8
120,352,76511,1,0
48,272,76711,2,0,B|32:216|72:184|72:184,1,90
240,224,77111,2,0,B|256:280|216:312|216:312,1,90,8|0
144,248,77511,1,0
144,248,77611,1,0
144,248,77711,1,0
176,144,77911,2,0,B|208:48|208:48,1,90,8|0
288,128,78311,6,0,B|384:184|464:128|464:128,1,180,4|8
240,224,78911,2,0,B|144:168|64:224|64:224,1,180
240,224,79511,1,8
240,224,79711,1,0
256,312,79911,5,4
256,16,80311,1,8
256,16,80511,2,0,B|256:200|256:200,1,180,4|0
192,280,81111,6,0,B|152:328|192:376|192:376,1,90,8|0
256,328,81511,2,0,B|440:328|440:328,1,180,0|8
336,224,82111,2,0,B|240:224|240:224,2,90
416,192,82711,2,0,B|464:152|440:96|440:96,1,90,8|0
352,128,83111,2,0,B|240:120|224:8|224:8,1,180,0|8
160,256,83711,2,0,B|272:264|288:376|288:376,1,180
256,192,84311,1,8
256,192,84511,1,0
256,192,84711,1,0
336,240,84911,6,0,B|368:192|336:152|336:152,1,90,0|8
272,88,85311,1,0
272,88,85411,1,0
272,88,85511,1,0
184,120,85711,1,0
160,208,85911,1,8
216,280,86111,1,0
216,280,86211,1,0
216,280,86311,1,0
304,264,86511,1,0
344,184,86711,1,8
320,96,86911,5,0
296,64,87011,1,0
256,48,87111,2,0,B|104:48|104:48,2,135
200,120,87911,2,0,B|64:192|64:192|56:200,2,135,6|0|2
312,264,88711,2,0,B|448:192|448:192|456:184,2,135,6|0|2
256,192,89511,1,4
256,192,89711,12,8,92311
200,128,92711,5,2
168,160,92811,1,0
152,200,92911,1,2
168,240,93011,1,0
200,272,93111,2,0,B|280:352|280:352,1,90,2|0
304,320,93411,2,0,B|344:288|400:312|400:312,1,90,2|2
424,280,93711,2,0,B|456:232|424:192|424:192,1,90,2|2
426,195,94011,1,0
426,195,94111,1,0
376,120,94311,1,6
256,192,103911,12,8,106711
256,48,107111,5,4
108,108,107511,1,8
104,268,107911,2,0,B|60:268|60:324,2,72,0|0|8
176,300,108511,1,0
176,300,108711,2,0,B|332:300,2,144,0|8|0
256,164,109911,1,8
312,108,110111,6,0,B|312:68,2,36,0|0|0
412,232,110711,2,0,B|488:232,2,72,8|0|0
412,312,111311,1,0
344,272,111511,1,8
344,192,111711,1,0
412,152,111911,2,0,B|412:87|345:79,1,108
316,64,112311,2,0,B|316:20|360:16,2,72,8|0|0
180,148,113111,5,8
180,148,113311,1,0
180,148,113511,2,0,B|89:162|88:264,1,144,0|8
12,248,114111,1,0
12,248,114311,2,0,B|160:248,1,144,0|8
180,324,114911,1,0
180,324,115111,2,0,B|32:324,2,144,0|8|0
336,352,116311,1,8
476,280,116711,6,0,B|476:128,1,144,0|8
336,60,117511,1,0
336,60,117711,1,0
336,60,117911,2,0,B|336:216,1,144,8|0
188,260,118711,2,0,B|188:300,12,30,8|8|8|8|8|8|8|8|8|8|8|8|8
156,48,119911,6,0,B|8:48,2,144,4|8|0
212,104,120911,2,0,B|212:176,2,72,0|8|0
268,48,121511,1,0
268,48,121711,1,0
324,104,121911,1,8
324,104,122111,1,0
380,48,122311,2,0,B|471:62|472:164,1,144,0|8
408,192,122911,5,0
408,192,123011,1,0
408,192,123111,2,0,B|317:206|316:308,1,144,0|8
252,332,123711,2,0,B|176:332,2,72
252,252,124311,2,0,B|252:172,2,72,8|0|0
140,216,125011,2,0,B|112:180,1,36,0|8
84,116,125311,1,0
84,116,125511,2,0,B|248:116,1,144,0|8
280,56,126111,5,0
332,116,126311,1,0
332,116,126711,1,8
384,56,126911,1,0
436,116,127111,1,0
436,116,127511,1,8
384,176,127711,1,0
436,236,127911,2,0,B|436:384,2,144,0|8|0
204,248,129111,6,0,B|113:262|112:364,2,144,8|0|8
256,188,130111,1,0
204,128,130311,2,0,B|368:128,1,144,0|8
428,128,130911,1,0
256,192,131111,12,8,132311
256,120,132711,6,0,B|112:120,1,144,4|8
156,56,133311,2,0,B|216:120|144:200,1,144,4|0
100,240,133911,2,0,B|24:240,2,72,8|0|6
216,348,134711,1,10
332,240,135111,1,2
448,348,135511,1,10
340,160,135911,6,0,B|492:160,1,144,4|8
460,84,136511,2,0,B|312:84,1,144,4|0
256,32,137111,1,8
256,32,137311,1,0
256,32,137511,5,6
32,192,137911,1,10
256,352,138311,1,2
480,192,138711,2,0,B|480:120,2,72,10|0|2
256,192,139511,5,8
256,192,139911,1,0
112,124,140311,1,8
112,124,140511,1,0
112,124,140711,2,0,B|112:284,2,144,2|8|0
176,76,141711,1,0
176,76,141911,1,8
236,124,142111,1,0
236,124,142311,5,12
444,48,142611,1,8
405,266,142911,1,8
405,266,143111,1,12
196,342,143411,1,8
236,124,143711,1,8
236,124,143911,1,12
256,192,144111,12,4,145511
256,192,146311,5,0
256,192,146511,2,0,B|256:232,3,30,0|0|0|8
184,72,147111,5,6
184,72,147311,1,0
184,72,147511,2,0,B|320:72,1,121.499994206429,8|0
328,72,147911,2,0,B|380:68|380:8,2,80.9999961376192,0|0|8
320,152,148511,2,0,B|320:328,1,161.999992275238
252,268,149111,1,10
188,316,149311,1,0
124,268,149511,2,0,B|29:248|27:134,2,161.999992275238,2|10|2
196,132,150711,5,8
196,132,150911,2,0,B|248:72,1,80.9999961376192
428,60,151311,2,0,B|376:120,1,80.9999961376192,0|8
404,296,151711,2,0,B|456:236,2,80.9999961376192
328,320,152311,6,0,B|168:320,2,161.999992275238,10|2|10
256,176,153511,2,0,B|256:80|351:61,2,161.999992275238,2|8|0
336,176,154511,1,0
336,176,154711,1,8
296,244,154911,1,0
296,244,155111,1,2
216,244,155311,1,0
216,244,155511,1,8
176,176,155711,1,0
176,176,155911,2,0,B|12:176,1,161.999992275238,0|8
88,320,156711,6,0,B|252:320,1,161.999992275238,2|8
324,356,157311,2,0,B|372:356|372:296,1,80.9999961376192,0|2
448,276,157711,2,0,B|448:224|396:216,1,80.9999961376192,0|8
328,192,158111,2,0,B|328:136|384:136,2,80.9999961376192,0|2|0
256,228,158711,1,8
256,228,159111,1,2
184,192,159311,6,0,B|184:108,2,80.9999961376192,0|8|0
108,160,159911,2,0,B|108:320,1,161.999992275238,4|8
36,284,160511,2,0,B|36:120,1,161.999992275238
108,88,161111,5,8
108,88,161311,1,0
108,88,161511,1,6
404,296,161911,1,10
404,296,162111,1,6
400,48,162511,6,0,B|480:48,2,80.9999961376192,0|8|0
432,124,163111,2,0,B|268:124,1,161.999992275238,6|8
208,72,163711,2,0,B|148:136,1,80.9999961376192
192,200,164111,2,0,B|104:224,2,80.9999961376192,0|8|0
268,224,164711,2,0,B|344:229|343:328,1,121.499994206429,6|0
364,328,165111,2,0,B|412:328|412:272,1,80.9999961376192,10|6
456,120,165711,1,0
456,120,165911,1,8
400,60,166111,1,0
400,60,166311,2,0,B|232:60,1,161.999992275238,6|8
180,116,166911,6,0,B|180:168,2,40.4999980688096,0|0|2
124,60,167311,2,0,B|124:8,2,40.4999980688096,0|2|8
64,116,167711,1,2
64,116,167811,1,0
64,116,167911,2,0,B|64:288,1,161.999992275238,2|8
124,332,168511,1,0
124,332,168611,1,0
124,332,168711,2,0,B|200:327|199:228,1,121.499994206429,2|0
224,232,169111,2,0,B|276:232|276:296,1,80.9999961376192,8|0
350,321,169511,5,12
408,142,169811,1,8
256,32,170111,1,8
256,32,170311,1,12
103,142,170611,1,8
161,321,170911,1,8
161,321,171111,1,12
256,192,171311,12,2,172711
256,128,173111,6,0,B|256:48,2,80.9999961376192,8|0|0
124,192,173911,1,8
256,256,174311,1,0
256,256,174411,1,0
256,256,174511,2,0,B|336:256,2,80.9999961376192,0|8|0
200,192,175111,6,0,B|240:152|216:96|216:96,1,80.9999961376192
112,184,175511,2,0,B|72:224|96:280|96:280,1,80.9999961376192,8|0
168,272,175911,2,0,B|248:328|328:272|328:272,1,161.999992275238,2|8
376,216,176511,1,0
416,144,176711,6,0,B|456:72|456:72,1,80.9999961376192
336,120,177111,2,0,B|296:192|296:192,1,80.9999961376192,8|0
240,128,177511,2,0,B|160:72|88:128|88:128,1,161.999992275238,2|8
48,200,178111,6,0,B|48:360|48:360,1,161.999992275238
136,272,178711,2,0,B|136:192|136:192,1,80.9999961376192,8|0
136,112,179111,1,0
96,40,179311,1,0
136,112,179511,1,8
176,40,179711,1,0
216,112,179911,2,0,B|264:96|264:48|264:48,2,80.9999961376192,0|0|8
176,184,180511,2,0,B|112:264|176:344|176:344,1,161.999992275238
288,280,181111,2,0,B|320:240|288:208|288:208,1,80.9999961376192,8|0
256,124,181511,5,0
160,56,181811,2,0,B|128:84,1,36,0|8
108,156,182111,1,0
108,156,182311,2,0,B|108:300,1,144,2|8
40,256,182911,1,0
40,256,183111,2,0,B|108:200|188:268,1,144,2|8
304,344,183911,1,0
428,248,184311,1,8
304,148,184711,2,0,B|304:104,8,36,0|0|0|0|8|0|0|0|0
256,212,185711,6,0,B|132:212,2,108,8|8|8
256,284,187311,2,0,B|368:284,2,108,8|8|8
256,192,188711,5,8
256,192,189511,1,8
256,132,190311,5,8
256,116,190711,1,8
256,100,191111,1,8
256,84,191511,1,8
256,68,191911,1,4
256,68,192711,6,0,B|256:216|256:216,2,144,0|0|4
320,8,193711,1,0
344,88,193911,2,0,B|348:164|424:176|424:176,1,121.499994206429,8|0
448,176,194311,2,0,B|480:216|444:260|444:260,1,80.9999961376192
412,324,194711,1,8
368,256,194911,6,0,B|284:200|208:260|208:260,1,161.999992275238
124,344,195511,2,0,B|164:376|204:340|204:340,1,80.9999961376192,8|0
216,256,195911,2,0,B|272:180|208:100|208:100,2,161.999992275238,0|8|0
136,256,196911,1,0
64,216,197111,2,0,B|16:192|36:132|36:132,1,80.9999961376192,8|0
100,88,197511,2,0,B|146:110|128:159|128:159,1,80.9999961376192
64,216,197911,1,8
136,256,198111,2,0,B|292:312|292:312,1,161.999992275238
372,264,198711,2,0,B|288:232|288:232,1,80.9999961376192,8|0
168,348,199111,2,0,B|244:372|244:372,1,80.9999961376192
324,368,199511,5,8
324,368,199711,1,0
360,296,199911,2,0,B|360:240|416:240|416:240,1,80.9999961376192
464,184,200311,2,0,B|512:128|456:64|456:64,1,121.499994206429,8|0
448,48,200711,2,0,B|356:48|356:48,1,80.9999961376192
296,152,201111,1,8
296,152,201311,6,0,B|384:152|384:152,1,80.9999961376192,0|0
440,256,201711,2,0,B|348:256|348:256,1,80.9999961376192,0|8
276,256,202111,1,0
192,256,202311,2,0,B|88:256|88:372|88:372,2,161.999992275238,0|8|0
276,256,203311,1,0
340,200,203511,2,0,B|424:200|424:200,2,80.9999961376192,8|0|0
356,284,204111,2,0,B|388:324|352:364|352:364,1,80.9999961376192,0|8
192,328,204511,2,0,B|120:248|200:172|200:172,1,161.999992275238
256,132,205111,1,8
320,84,205311,1,0
256,36,205511,5,2
192,84,205711,1,0
256,132,205911,1,8
192,180,206111,1,0
256,228,206311,2,0,B|424:228,1,161.999992275238,4|8
384,300,206911,2,0,B|323:225|385:150,1,161.999992275238
456,112,207511,1,8
384,76,207711,1,0
308,108,207911,2,0,B|132:108,1,161.999992275238,6|10
68,80,208511,1,6
68,80,208911,6,0,B|68:24|132:20,2,80.9999961376192,0|8|0
68,160,209511,2,0,B|68:320,1,161.999992275238,6|8
140,280,210111,2,0,B|140:364,2,80.9999961376192
196,220,210711,2,0,B|196:136,2,80.9999961376192,8|0|6
256,324,211411,2,0,B|284:284,1,40.4999980688096,0|8
344,240,211711,2,0,B|344:144|436:125,1,161.999992275238,4|0
436,208,212311,1,8
436,208,212511,1,0
436,208,212711,2,0,B|436:44,1,161.999992275238,6|8
356,56,213311,6,0,B|356:16,2,40.4999980688096,0|0|2
292,104,213711,2,0,B|292:152,2,40.4999980688096,0|2|8
228,56,214111,2,0,B|168:56,2,40.4999980688096,2|0|2
212,136,214511,1,0
152,192,214711,1,8
152,192,214911,2,0,B|100:192,2,40.4999980688096,0|0|2
212,296,215411,2,0,B|240:340,1,40.4999980688096,0|8
312,348,215711,1,0
312,348,215911,6,0,B|448:348,2,121.499994206429,12|8|8
336,272,216711,2,0,B|460:272,2,121.499994206429,12|8|8
256,272,217511,1,12
256,192,217711,12,4,222311
