osu file format v9

[General]
AudioFilename: Shimizu Kaori & Ueda Kana - Gohoushi Inspire.mp3
AudioLeadIn: 0
PreviewTime: 65411
Countdown: 0
SampleSet: Soft
StackLeniency: 0.5
Mode: 0
LetterboxInBreaks: 0

[Editor]
DistanceSpacing: 1
BeatDivisor: 4
GridSize: 8

[Metadata]
Title:Gohoushi Inspire
Artist:Shimizu Kaori & Ueda Kana
Creator:quintitem
Version:Hard
Source:Nogizaka Haruka no Himitsu
Tags:collab miccoliasms Sakurazaka Haduki Nanashiro Nanami

[Difficulty]
HPDrainRate:6
CircleSize:4
OverallDifficulty:4
ApproachRate:6
SliderMultiplier:1.8
SliderTickRate:0.5

[Events]
//Background and Video events
0,0,"Nanami&Hazuki.jpg"
//Break Periods
2,94511,102861
//Storyboard Layer 0 (Background)
//Storyboard Layer 1 (Fail)
//Storyboard Layer 2 (Pass)
//Storyboard Layer 3 (Foreground)
Sprite,Foreground,TopLeft,"StoryBoard\title.png",320,240 M,0,12711,14311,79,331,104,331 F,0,12711,14311,0,1 M,0,23911,25511,104,331,104,346 F,0,23911,25511,1,0
Sprite,Foreground,TopLeft,"StoryBoard\artist.png",320,240 M,0,15911,17511,77,366,102,366 F,0,15911,17511,0,1 M,0,23911,25511,102,366,102,381 F,0,23911,25511,1,0
Sprite,Foreground,TopLeft,"StoryBoard\mapby2.png",320,240 M,0,19111,20711,77,401,102,401 F,0,19111,20711,0,1 M,0,23911,25511,102,401,102,416 F,0,23911,25511,1,0
Sprite,Foreground,TopLeft,"StoryBoard\aa.png",320,240 M,0,25511,,94,401 F,0,25511,25711,0,1 F,0,28111,28311,1,0
Sprite,Foreground,TopLeft,"StoryBoard\ab.png",320,240 M,0,28511,,94,401 F,0,28511,28711,0,1 F,0,31311,31511,1,0
Sprite,Foreground,TopLeft,"StoryBoard\ac.png",320,240 M,0,31711,,94,401 F,0,31711,31911,0,1 F,0,37711,37911,1,0
Sprite,Foreground,TopLeft,"StoryBoard\ad.png",320,240 M,0,34711,,327,401 F,0,34711,34911,0,1 F,0,37711,37911,1,0
Sprite,Foreground,TopLeft,"StoryBoard\ae.png",320,240 M,0,35911,,449,401 F,0,35911,36111,0,1 F,0,37711,37911,1,0
Sprite,Foreground,TopLeft,"StoryBoard\af.png",320,240 M,0,36711,,539,401 F,0,36711,36911,0,1 F,0,37711,37911,1,0
Sprite,Foreground,TopLeft,"StoryBoard\ba.png",320,240 M,0,38311,,94,401 F,0,38311,38511,0,1 F,0,40911,41111,1,0
Sprite,Foreground,TopLeft,"StoryBoard\bb.png",320,240 M,0,41311,,94,401 F,0,41311,41511,0,1 F,0,44111,44311,1,0
Sprite,Foreground,TopLeft,"StoryBoard\bc.png",320,240 M,0,44511,,94,401 F,0,44511,44711,0,1 F,0,50511,50711,1,0
Sprite,Foreground,TopLeft,"StoryBoard\bd.png",320,240 M,0,47511,,321,401 F,0,47511,47711,0,1 F,0,50511,50711,1,0
Sprite,Foreground,TopLeft,"StoryBoard\be.png",320,240 M,0,48711,,417,401 F,0,48711,48911,0,1 F,0,50511,50711,1,0
Sprite,Foreground,TopLeft,"StoryBoard\bf.png",320,240 M,0,49511,,505,401 F,0,49511,49711,0,1 F,0,50511,50711,1,0
Sprite,Foreground,TopLeft,"StoryBoard\ca.png",320,240 M,0,51111,,94,401 F,0,51111,51311,0,1 F,0,56111,56311,1,0
Sprite,Foreground,TopLeft,"StoryBoard\cb.png",320,240 F,0,52911,53111,0,1 M,0,52911,54311,145,366,160,366 F,0,54111,54311,1,0
Sprite,Foreground,TopLeft,"StoryBoard\cc.png",320,240 M,0,54311,,310,401 F,0,54311,54511,0,1 F,0,56111,56311,1,0
Sprite,Foreground,TopLeft,"StoryBoard\cd.png",320,240 F,0,56111,56311,0,1 M,0,56111,57511,307,366,322,366 F,0,57311,57511,1,0
Sprite,Foreground,TopLeft,"StoryBoard\ce.png",320,240 M,0,56711,,94,401 F,0,56711,56911,0,1 F,0,63711,63911,1,0
Sprite,Foreground,TopLeft,"StoryBoard\cf.png",320,240 M,0,59911,,306,401 F,0,59911,60111,0,1 F,0,63711,63911,1,0
Sprite,Foreground,TopLeft,"StoryBoard\cg.png",320,240 F,0,63511,63711,0,1 M,0,63511,64711,409,366,394,366 F,0,64511,64711,1,0
Sprite,Foreground,TopLeft,"StoryBoard\da.png",320,240 M,0,64711,,94,401 F,0,64711,64911,0,1 F,0,70511,70711,1,0
Sprite,Foreground,TopLeft,"StoryBoard\db.png",320,240 M,0,65511,,182,401 F,0,65511,65711,0,1 F,0,70511,70711,1,0
Sprite,Foreground,TopLeft,"StoryBoard\dc.png",320,240 M,0,71111,,94,401 F,0,71111,71311,0,1 F,0,77311,77511,1,0
Sprite,Foreground,TopLeft,"StoryBoard\dd.png",320,240 M,0,73311,,266,401 F,0,73311,73511,0,1 F,0,77311,77511,1,0
Sprite,Foreground,TopLeft,"StoryBoard\de.png",320,240 F,0,76911,77111,0,1 M,0,76911,78311,455,366,440,366 F,0,78111,78311,1,0
Sprite,Foreground,TopLeft,"StoryBoard\df.png",320,240 M,0,77711,,94,401 F,0,77711,77911,0,1 F,0,80511,80711,1,0
Sprite,Foreground,TopLeft,"StoryBoard\dg.png",320,240 M,0,80911,,94,401 F,0,80911,81111,0,1 F,0,84911,85111,1,0
Sprite,Foreground,TopLeft,"StoryBoard\dh.png",320,240 M,0,85311,,94,401 F,0,85311,85511,0,1 F,0,93311,93511,1,0
Sprite,Foreground,TopLeft,"StoryBoard\di.png",320,240 M,0,86111,,217,401 F,0,86111,86311,0,1 F,0,93311,93511,1,0
Sprite,Foreground,TopLeft,"StoryBoard\dj.png",320,240 M,0,86911,,323,401 F,0,86911,87111,0,1 F,0,93311,93511,1,0
Sprite,Foreground,TopLeft,"StoryBoard\dk.png",320,240 M,0,89711,,454,401 F,0,89711,89911,0,1 F,0,93311,93511,1,0
Sprite,Foreground,TopLeft,"StoryBoard\ea.png",320,240 M,0,107111,,94,401 F,0,107111,107311,0,1 F,0,109711,109911,1,0
Sprite,Foreground,TopLeft,"StoryBoard\eb.png",320,240 M,0,110111,,94,401 F,0,110111,110311,0,1 F,0,112911,113111,1,0
Sprite,Foreground,TopLeft,"StoryBoard\ec.png",320,240 M,0,113311,,94,401 F,0,113311,113511,0,1 F,0,119311,119511,1,0
Sprite,Foreground,TopLeft,"StoryBoard\ed.png",320,240 M,0,116311,,330,401 F,0,116311,116511,0,1 F,0,119311,119511,1,0
Sprite,Foreground,TopLeft,"StoryBoard\ee.png",320,240 M,0,117511,,402,401 F,0,117511,117711,0,1 F,0,119311,119511,1,0
Sprite,Foreground,TopLeft,"StoryBoard\ef.png",320,240 M,0,118311,,475,401 F,0,118311,118511,0,1 F,0,119311,119511,1,0
Sprite,Foreground,TopLeft,"StoryBoard\fa.png",320,240 M,0,119911,,94,401 F,0,119911,120111,0,1 F,0,122511,122711,1,0
Sprite,Foreground,TopLeft,"StoryBoard\fb.png",320,240 M,0,122911,,94,401 F,0,122911,123111,0,1 F,0,125711,125911,1,0
Sprite,Foreground,TopLeft,"StoryBoard\fc.png",320,240 M,0,126111,,94,401 F,0,126111,126311,0,1 F,0,132111,132311,1,0
Sprite,Foreground,TopLeft,"StoryBoard\fd.png",320,240 M,0,129111,,328,401 F,0,129111,129311,0,1 F,0,132111,132311,1,0
Sprite,Foreground,TopLeft,"StoryBoard\fe.png",320,240 F,0,131111,131311,0,1 M,0,131111,132311,415,366,430,366 F,0,132111,132311,1,0
Sprite,Foreground,TopLeft,"StoryBoard\ga.png",320,240 M,0,132711,,94,401 F,0,132711,132911,0,1 F,0,137711,137911,1,0
Sprite,Foreground,TopLeft,"StoryBoard\gb.png",320,240 F,0,135311,135511,0,1 M,0,135311,135911,129,366,139,366 F,0,135711,135911,1,0
Sprite,Foreground,TopLeft,"StoryBoard\gc.png",320,240 M,0,135911,,263,401 F,0,135911,136111,0,1 F,0,137711,137911,1,0
Sprite,Foreground,TopLeft,"StoryBoard\gd.png",320,240 F,0,137911,138111,0,1 M,0,137911,138711,394,366,404,366 F,0,138511,138711,1,0
Sprite,Foreground,TopLeft,"StoryBoard\ge.png",320,240 M,0,138311,,94,401 F,0,138311,138511,0,1 F,0,145311,145511,1,0
Sprite,Foreground,TopLeft,"StoryBoard\gf.png",320,240 M,0,141511,,250,401 F,0,141511,141711,0,1 F,0,145311,145511,1,0
Sprite,Foreground,TopLeft,"StoryBoard\gg.png",320,240 F,0,144311,144511,0,1 M,0,144311,146311,247,366,267,366 F,0,146111,146311,1,0
Sprite,Foreground,TopLeft,"StoryBoard\da.png",320,240 M,0,146311,,94,401 F,0,146311,146511,0,1 F,0,152111,152311,1,0
Sprite,Foreground,TopLeft,"StoryBoard\hb.png",320,240 M,0,147111,,182,401 F,0,147111,147311,0,1 F,0,152111,152311,1,0
Sprite,Foreground,TopLeft,"StoryBoard\hc.png",320,240 M,0,152711,,94,401 F,0,152711,152911,0,1 F,0,158911,159111,1,0
Sprite,Foreground,TopLeft,"StoryBoard\hd.png",320,240 M,0,154911,,247,401 F,0,154911,155111,0,1 F,0,158911,159111,1,0
Sprite,Foreground,TopLeft,"StoryBoard\he.png",320,240 M,0,155711,,338,401 F,0,155711,155911,0,1 F,0,158911,159111,1,0
Sprite,Foreground,TopLeft,"StoryBoard\hf.png",320,240 M,0,156711,,417,401 F,0,156711,156911,0,1 F,0,158911,159111,1,0
Sprite,Foreground,TopLeft,"StoryBoard\hg.png",320,240 F,0,158711,158911,0,1 M,0,158711,159511,405,366,415,366 F,0,159311,159511,1,0
Sprite,Foreground,TopLeft,"StoryBoard\hh.png",320,240 M,0,159311,,94,401 F,0,159311,159511,0,1 F,0,162111,162311,1,0
Sprite,Foreground,TopLeft,"StoryBoard\hi.png",320,240 M,0,162511,,94,401 F,0,162511,162711,0,1 F,0,166511,166711,1,0
Sprite,Foreground,TopLeft,"StoryBoard\hj.png",320,240 M,0,166911,,94,401 F,0,166911,167111,0,1 F,0,174111,174311,1,0
Sprite,Foreground,TopLeft,"StoryBoard\hk.png",320,240 M,0,167711,,181,401 F,0,167711,167911,0,1 F,0,174111,174311,1,0
Sprite,Foreground,TopLeft,"StoryBoard\hl.png",320,240 M,0,168511,,263,401 F,0,168511,168711,0,1 F,0,174111,174311,1,0
Sprite,Foreground,TopLeft,"StoryBoard\dk.png",320,240 M,0,171311,,420,401 F,0,171311,171511,0,1 F,0,174111,174311,1,0
//Storyboard Sound Samples
//Background Colour Transformations
3,100,163,162,255

[TimingPoints]
3111,400,4,2,1,80,1,0
25111,-125,4,2,1,60,0,0
37011,-100,4,2,1,60,0,0
37177,-100,4,2,2,40,0,0
37911,-125,4,2,1,60,0,0
49811,-100,4,2,1,60,0,0
49977,-100,4,2,2,40,0,0
50711,-125,4,2,1,60,0,0
60611,-125,4,2,2,60,0,0
61011,-125,4,2,2,85,0,0
61411,-125,4,2,2,60,0,0
61811,-125,4,2,2,85,0,0
62211,-125,4,2,2,60,0,0
62511,-125,4,2,2,75,0,0
63911,-125,4,1,0,40,0,0
64311,-100,4,2,1,60,0,0
65311,-100,4,2,1,70,0,0
65511,-111.111111111111,4,2,1,70,0,1
65611,-111.111111111111,4,2,1,90,0,0
87811,-111.111111111111,4,2,2,70,0,0
88211,-111.111111111111,4,2,2,95,0,0
88611,-111.111111111111,4,2,2,70,0,0
89011,-111.111111111111,4,2,2,95,0,0
89411,-111.111111111111,4,2,2,70,0,0
94311,-111.111111111111,4,1,0,40,0,0
103911,-100,4,2,1,80,0,0
106711,-125,4,2,1,60,0,0
118511,-100,4,2,1,60,0,0
118777,-100,4,2,2,40,0,0
119511,-125,4,2,1,60,0,0
131111,-125,4,2,1,70,0,0
142211,-125,4,2,2,60,0,0
142511,-125,4,2,2,85,0,0
143011,-125,4,2,2,60,0,0
143311,-125,4,2,2,85,0,0
143811,-125,4,2,2,60,0,0
144111,-125,4,2,2,75,0,0
145511,-125,4,1,0,40,0,0
145911,-100,4,2,1,60,0,0
146911,-100,4,2,1,70,0,0
147111,-111.111111111111,4,2,1,70,0,1
147211,-111.111111111111,4,2,1,90,0,0
169411,-111.111111111111,4,2,2,70,0,0

[Colours]
Combo1 : 64,46,105
Combo2 : 224,167,60
Combo3 : 104,89,144
Combo4 : 158,63,57

[HitObjects]
96,172,25511,2,0,B|96:328,2,144,4|8|0
224,104,26711,2,0,B|224:28,2,72,8|0|0
336,192,27511,2,0,B|500:192,2,144,8|0|8
288,248,28511,6,0,B|288:296,2,36,0|0|0
148,272,29111,2,0,B|100:272|100:332,2,72,8|0|0
148,128,29911,2,0,B|147:45|57:30,2,144,8|0|8
276,192,31111,1,0
396,108,31511,6,0,B|396:32,2,72,8|0|0
412,252,32311,2,0,B|484:252,2,72,8|0|0
272,284,33111,2,0,B|272:360,2,72,8|0|0
128,260,33911,1,8
52,136,34311,1,0
192,100,34711,6,0,B|192:24,2,72,8|0|0
332,140,35511,1,8
436,240,35911,2,0,B|484:240|484:308,2,72,0|0|8
312,316,36711,1,0
312,316,36911,1,0
312,316,37111,2,0,B|312:368,12,30,0|8|8|8|8|8|8|8|8|8|8|8|8
184,248,38311,6,0,B|97:262|96:345,2,144,4|8|0
184,104,39511,2,0,B|184:60|136:60,2,72,8|0|0
324,132,40311,2,0,B|488:132,2,144,8|0|8
296,200,41311,6,0,B|296:248,2,36,0|0|0
152,212,41911,1,8
152,212,42111,1,0
152,212,42311,2,0,B|152:364,1,144,0|8
296,348,43111,2,0,B|448:348,2,144,0|8|0
368,224,44311,5,8
368,224,44511,1,0
368,224,44711,2,0,B|367:141|280:127,1,144,0|8
276,200,45311,1,0
276,200,45511,2,0,B|276:52,1,144,0|8
204,52,46111,1,0
204,52,46311,2,0,B|204:196,2,144,0|8|0
76,120,47511,5,8
76,120,47711,1,0
76,120,47911,2,0,B|76:264,1,144,0|8
196,344,48711,1,0
196,344,48911,1,0
196,344,49111,2,0,B|282:329|283:247,1,144,8|0
344,208,49711,1,0
284,168,49911,2,0,B|240:168,12,30,8|8|8|8|8|8|8|8|8|8|8|8|8
216,40,51111,6,0,B|68:40,1,144,4|8
40,104,51711,2,0,B|40:320,1,216,4|8
168,252,52711,2,0,B|169:169|255:154,2,144,6|10|2
284,340,53911,1,10
376,228,54311,6,0,B|461:212|463:130,1,144,4|8
432,68,54911,2,0,B|192:68,1,216,4|8
116,172,55911,2,0,B|30:156|28:74,2,144,6|10|2
216,276,57111,6,0,B|216:352,2,72,10|0|2
356,312,57911,2,0,B|441:296|443:214,1,144,8|0
452,72,58711,2,0,B|500:72|500:140,2,72,8|0|2
324,136,59511,2,0,B|238:120|236:38,2,144,8|0|8
324,280,60711,6,0,B|440:280,2,108,12|8|8
260,316,61511,2,0,B|148:316,2,108,12|8|8
324,352,62311,1,12
256,192,62511,12,4,63911
256,112,64711,5,0
256,112,64911,2,0,B|256:76,3,30,0|0|0|8
332,208,65511,6,0,B|492:208,2,161.999992275238,6|8|0
228,312,66711,2,0,B|148:312,2,80.9999961376192,8|0|0
192,172,67511,2,0,B|189:82|95:57,2,161.999992275238,10|2|10
316,92,68711,5,2
460,116,69111,1,8
460,116,69311,2,0,B|460:204,1,80.9999961376192
388,196,69711,2,0,B|388:284,1,80.9999961376192,0|8
460,280,70111,2,0,B|460:368,1,80.9999961376192,0|2
316,348,70711,2,0,B|148:348,2,161.999992275238,10|2|10
256,216,71911,6,0,B|258:126|352:101,2,161.999992275238,2|8|0
112,192,73111,1,8
112,192,73311,1,0
112,192,73511,2,0,B|112:28,2,161.999992275238,2|8|2
192,316,74711,6,0,B|28:316,2,161.999992275238,8|2|8
260,348,75711,2,0,B|308:348|308:292,1,80.9999961376192,0|2
348,236,76111,2,0,B|396:236|396:292,1,80.9999961376192,0|8
432,352,76511,2,0,B|484:352|484:288,1,80.9999961376192,0|2
484,156,77111,1,8
380,52,77511,5,0
380,52,77711,1,0
332,108,77911,1,8
332,108,78111,1,0
284,52,78311,2,0,B|190:77|188:166,1,161.999992275238,4|8
120,188,78911,2,0,B|121:332|257:363,1,242.999988412858,0|8
360,260,79911,1,6
480,340,80311,1,8
480,340,80511,2,0,B|480:88,1,242.999988412858,4|8
348,36,81511,5,6
268,156,81911,2,0,B|268:236,2,80.9999961376192,8|0|0
184,36,82711,2,0,B|16:36,2,161.999992275238,8|6|10
184,108,83711,2,0,B|184:352,1,242.999988412858,6|8
328,332,84711,1,6
440,240,85111,1,8
456,168,85311,6,0,B|500:168,2,40.4999980688096,0|0|2
408,112,85711,2,0,B|408:64,2,40.4999980688096,0|2|8
360,168,86111,2,0,B|360:224,2,40.4999980688096,2|0|2
256,68,86711,2,0,B|76:68,2,161.999992275238,8|2|8
256,216,87911,6,0,B|256:348,2,121.499994206429,12|8|8
184,196,88711,2,0,B|184:316,2,121.499994206429,12|8|8
112,176,89511,1,12
256,192,89711,12,4,94311
256,192,103911,12,8,106711
344,140,107111,5,4
220,44,107511,1,8
92,140,107911,1,0
112,296,108311,2,0,B|32:296,2,72,8|0|0
252,220,109111,1,8
340,352,109511,1,0
476,272,109911,1,8
476,192,110111,6,0,B|476:144,2,36
340,112,110711,2,0,B|340:32,2,72,8|0|0
184,136,111511,2,0,B|24:136,1,144,8|0
40,296,112311,2,0,B|192:296,1,144,8|0
328,224,113111,5,8
328,224,113311,1,0
328,224,113511,2,0,B|496:224,1,144,0|8
424,288,114111,1,0
424,288,114311,2,0,B|369:218|425:157,1,144,0|8
344,156,114911,1,0
344,156,115111,2,0,B|496:156,2,144,0|8|0
224,52,116311,5,8
76,108,116711,1,0
76,268,117111,1,8
224,328,117511,1,0
224,328,117711,1,0
224,328,117911,2,0,B|384:328,1,144,8|0
460,192,118711,2,0,B|460:140,12,30,8|8|8|8|8|8|8|8|8|8|8|8|8
320,192,119911,5,4
320,192,120311,2,0,B|156:192,2,144,8|0|8
376,136,121311,1,0
320,80,121511,2,0,B|484:80,2,144,0|8|0
160,72,122711,5,8
160,72,122911,2,0,B|160:24,2,36,0|0|0
56,192,123511,1,8
56,192,123711,1,0
56,192,123911,1,0
96,344,124311,2,0,B|256:344,1,144,8|0
368,248,125111,2,0,B|208:248,1,144,8|0
256,92,125911,5,8
256,92,126111,1,0
256,92,126311,1,0
412,124,126711,1,8
412,124,126911,1,0
412,124,127111,1,0
456,276,127511,1,8
456,276,127711,1,0
456,276,127911,1,0
316,348,128311,1,8
176,276,128711,1,0
172,116,129111,6,0,B|24:116,2,144,8|0|8
228,60,130111,1,0
284,116,130311,1,0
256,272,130711,1,8
256,272,130911,1,0
256,192,131111,12,8,132311
256,104,132711,5,4
100,140,133111,1,8
100,140,133311,2,0,B|100:356,1,216,4|8
228,264,134311,1,6
356,356,134711,1,10
484,264,135111,1,2
356,172,135511,1,10
464,56,135911,5,4
308,44,136311,1,8
308,44,136511,1,4
80,104,137111,2,0,B|80:248,2,144,8|6|10
220,180,138311,6,0,B|376:180,1,144,2|10
420,124,138911,1,0
472,184,139111,2,0,B|472:336,2,144,2|8|0
352,292,140311,1,8
352,292,140511,1,0
352,292,140711,2,0,B|200:292,2,144,2|8|0
256,164,141911,1,8
176,28,142311,5,12
68,80,142611,1,8
24,188,142911,1,8
24,188,143111,1,12
136,224,143411,1,8
180,332,143711,1,8
180,332,143911,1,12
256,192,144111,12,4,145511
256,192,146311,5,0
256,272,146511,2,0,B|256:308,3,30,0|0|0|8
376,192,147111,6,0,B|468:204|471:306,2,161.999992275238,6|8|0
268,72,148311,2,0,B|268:20|324:20,2,80.9999961376192,8|0|0
164,192,149111,2,0,B|72:204|68:306,2,161.999992275238,10|2|10
224,344,150311,5,2
380,304,150711,1,8
380,304,150911,2,0,B|384:248|440:248,1,80.9999961376192
484,188,151311,2,0,B|484:136|432:132,1,80.9999961376192,0|8
392,64,151711,2,0,B|340:64|340:124,1,80.9999961376192
180,136,152311,1,10
44,228,152711,1,2
180,316,153111,1,10
340,340,153511,5,2
468,240,153911,1,8
432,80,154311,2,0,B|268:80,1,161.999992275238,0|8
200,36,154911,1,0
132,80,155111,2,0,B|38:105|36:194,2,161.999992275238,2|8|0
252,192,156311,1,8
200,344,156711,6,0,B|368:344,1,161.999992275238,2|8
408,276,157311,2,0,B|500:252,1,80.9999961376192,0|2
432,196,157711,2,0,B|492:132,1,80.9999961376192,0|8
412,112,158111,2,0,B|436:32,1,80.9999961376192,0|2
276,68,158711,1,8
120,116,159111,6,0,B|120:28,2,80.9999961376192,2|0|8
56,168,159711,1,0
120,216,159911,1,4
240,324,160311,1,8
240,324,160511,2,0,B|488:324,1,242.999988412858,0|8
388,192,161511,1,6
484,60,161911,1,10
484,60,162111,2,0,B|236:60,1,242.999988412858,6|8
96,128,163111,5,6
36,280,163511,1,8
36,280,163711,1,0
36,280,163911,2,0,B|204:280,1,161.999992275238,0|8
348,344,164711,2,0,B|442:319|444:230,1,161.999992275238,6|10
444,148,165311,1,6
200,148,165911,2,0,B|202:59|296:34,2,161.999992275238,8|6|8
132,192,166911,6,0,B|76:192,2,40.4999980688096,0|0|2
112,272,167311,2,0,B|68:272,2,40.4999980688096,0|2|8
92,352,167711,2,0,B|48:352,2,40.4999980688096,2|0|2
256,352,168311,2,0,B|436:352,2,161.999992275238,8|2|8
256,192,169511,12,0,174311
