osu file format v10

[General]
AudioFilename: 12 - Shimatani Hitomi - ANGELUS -Angelus- (TV-Size)192k.mp3
AudioLeadIn: 0
PreviewTime: 70919
Countdown: 0
SampleSet: Soft
StackLeniency: 0.7
Mode: 0
LetterboxInBreaks: 0

[Editor]
Bookmarks: 116720
DistanceSpacing: 0.9
BeatDivisor: 4
GridSize: 4

[Metadata]
Title:Angelus (TV Size)
TitleUnicode:Angelus (TV Size)
Artist:Shimatani Hitomi
ArtistUnicode:Shimatani Hitomi
Creator:Kei
Version:Insane
Source:InuYasha
Tags:opening Snepif sunrise entertainment dance dance revolution supernova 2
BeatmapID:163937
BeatmapSetID:53834

[Difficulty]
HPDrainRate:7
CircleSize:4
OverallDifficulty:7
ApproachRate:8
SliderMultiplier:2
SliderTickRate:2

[Events]
//Background and Video events
Video,21800,"videoplz.avi"
0,0,"Inuyasha.jpg"
//Break Periods
//Storyboard Layer 0 (Background)
//Storyboard Layer 1 (Fail)
//Storyboard Layer 2 (Pass)
//Storyboard Layer 3 (Foreground)
//Storyboard Sound Samples
//Background Colour Transformations
3,100,0,0,0

[TimingPoints]
2753,458.015267175573,4,2,1,85,1,0
2753,-153.846153846153,4,2,1,85,0,0
10081,-100,4,2,1,80,0,0
22905,500,4,2,1,80,1,0
24905,458.015267175573,4,2,1,80,1,0
25210,-100,4,2,1,85,0,0
39660,458.015267175573,4,2,1,80,1,0
39889,-100,4,2,1,85,0,0
67140,472.44094488189,4,2,1,85,1,0
70919,458.015267175573,4,1,1,65,1,1
100231,-100,4,2,1,85,0,0
108476,458.015267175573,4,2,1,80,1,0
108476,-153.846153846154,4,2,1,80,0,0
108628,-153.846153846154,4,2,1,85,0,0
115804,-100,4,2,1,85,0,0
121300,500,4,2,1,85,1,0

[Colours]
Combo1 : 240,240,240
Combo2 : 223,0,0
Combo3 : 11,46,187
Combo4 : 235,244,62
Combo5 : 255,164,164

[HitObjects]
128,112,2753,2,0,B|156:160|208:160,1,97.4999982565642,6|2,0:0|0:0,0:0:0
256,192,3325,1,0,0:0:0
304,224,3554,2,0,B|340:232|360:256,1,64.9999988377094,2|2,0:0|0:0,0:0:0
404,292,4012,1,0,0:0:0
424,316,4127,1,2,0:0:0
452,368,4356,1,4,0:0:0
256,252,4585,6,0,B|236:168|280:168|256:88,1,162.499997094274,6|0,0:0|0:0,0:0:0
200,100,5386,1,2,0:0:0
180,156,5615,2,0,B|164:204|176:256,1,97.4999982565642,6|6,0:0|0:0,0:0:0
160,308,6188,1,6,0:0:0
84,248,6417,5,6,0:0:0
48,204,6646,1,0,0:0:0
48,176,6760,1,2,0:0:0
84,132,6989,1,0,0:0:0
92,192,7218,1,2,0:0:0
152,192,7447,2,0,B|248:192,1,97.4999982565642,2|2,0:0|0:0,0:0:0
328,144,8020,1,4,0:0:0
328,240,8249,1,4,0:0:0
256,192,8707,12,6,10081,0:0:0
296,344,10310,6,0,B|328:336|340:320,1,50,2|0,0:0|0:0,0:0:0
280,256,10653,1,0,0:0:0
364,228,10882,2,0,B|404:192|400:136,2,100,2|2|0,0:0|0:0|0:0,0:0:0
320,232,11455,2,0,B|323:178|283:142,1,100,2|0,0:0|0:0,0:0:0
194,210,11913,6,0,B|248:212|280:256,1,100,2|0,0:0|0:0,0:0:0
276,300,12256,2,0,B|244:344|191:345,1,100,2|0,0:0|0:0,0:0:0
136,276,12714,1,2,0:0:0
112,188,12943,2,0,B|152:108|228:92,1,150,2|2,0:0|0:0,0:0:0
268,100,13401,1,0,0:0:0
304,124,13516,6,0,B|360:120|392:84,1,100,2|2,0:0|0:0,0:0:0
332,16,13974,1,0,0:0:0
376,12,14088,2,0,B|432:4|460:56,1,100,2|2,0:0|0:0,0:0:0
452,144,14546,1,0,0:0:0
372,184,14775,2,0,B|392:232|444:256|500:232,1,150,2|2,0:0|0:0,0:0:0
464,316,15348,1,0,0:0:0
376,316,15577,2,0,B|324:300|268:236|272:152,1,200,6|2,0:0|0:0,0:0:0
256,192,16264,12,6,17409,0:0:0
136,132,17638,5,0,0:0:0
104,164,17753,1,2,0:0:0
188,200,17982,1,0,0:0:0
240,276,18211,1,2,0:0:0
168,328,18440,2,0,B|84:324|64:236,1,150,2|2,0:0|0:0,0:0:0
188,200,19012,6,0,P|224:164,2,50,0|0|2,0:0|0:0|0:0,0:0:0
196,288,19470,1,0,0:0:0
220,324,19585,2,0,B|252:348|252:348|276:360|312:352,1,100,2|0,0:0|0:0,0:0:0
392,308,20043,2,0,B|360:284|360:284|336:272|300:280,1,100,2|2,0:0|0:0,0:0:0
268,252,20386,1,0,0:0:0
236,220,20501,1,0,0:0:0
232,176,20615,1,2,0:0:0
320,184,20844,1,2,0:0:0
204,240,21073,5,2,0:0:0
160,160,21302,1,0,0:0:0
128,128,21417,1,2,0:0:0
208,84,21646,2,0,B|236:76|256:88|256:88|280:76|304:84,1,100,0|2,0:0|0:0,0:0:0
384,128,22104,1,2,0:0:0
352,160,22219,1,0,0:0:0
308,240,22447,5,6,0:0:0
268,320,22676,2,0,B|248:316|240:300,3,33.3333333333333,4|0|0|4,0:0|0:0|0:0|0:0,0:0:0
256,184,23238,2,0,B|248:148|264:148|256:116,1,66.6666666666667,4|4,0:0|0:0,0:0:0
360,224,23738,6,0,B|392:208|424:224,1,66.6666666666667,4|4,0:0|0:0,0:0:0
468,264,24071,2,0,B|484:300|468:328,1,66.6666666666667,4|0,0:0|0:0,0:0:0
424,372,24405,2,0,B|392:388|360:372,1,66.6666666666667,4|4,0:0|0:0,0:0:0
320,328,24738,1,0,0:0:0
320,264,24905,1,4,0:0:0
404,128,25363,6,0,B|288:80,1,100,8|0,0:0|0:0,0:0:0
320,180,25821,1,0,0:0:0
232,164,26050,2,0,B|140:124,1,100,0|8,0:0|0:0,0:0:0
212,68,26508,1,4,0:0:0
148,216,26737,2,0,B|240:256,1,100,4|0,0:0|0:0,0:0:0
236,344,27195,6,0,B|292:336|324:300|320:236,1,150,8|0,0:0|0:0,0:0:0
320,196,27653,2,0,B|320:168|320:168|316:140|328:96,2,100,0|0|8,0:0|0:0|0:0,0:0:0
400,152,28340,1,4,0:0:0
328,96,28569,1,4,0:0:0
248,136,28798,5,0,0:0:0
248,48,29027,2,0,B|220:48|220:48|192:32|192:32|152:32,1,100,8|0,0:0|0:0,0:0:0
144,76,29370,1,0,0:0:0
152,120,29485,2,0,B|184:120|184:120|208:136|208:136|248:136,1,100,0|0,0:0|0:0,0:0:0
228,224,29943,1,8,0:0:0
140,212,30172,2,0,B|140:272|184:300,1,100,0|4,0:0|0:0,0:0:0
236,320,30553,1,4,0:0:0
296,316,30706,1,0,0:0:0
352,296,30859,5,4,0:0:0
392,252,31011,1,0,0:0:0
404,192,31164,1,4,0:0:0
392,132,31317,1,4,0:0:0
352,88,31469,2,0,B|304:32|232:40,1,133.333333333333,0|4,0:0|0:0,0:0:0
236,132,32004,1,0,0:0:0
248,144,32080,1,0,0:0:0
264,152,32156,1,0,0:0:0
280,156,32233,1,4,0:0:0
200,236,32462,5,0,0:0:0
236,316,32691,2,0,B|196:316|196:316|164:316|136:304,1,100,8|0,0:0|0:0,0:0:0
100,284,33034,1,0,0:0:0
100,284,33149,2,0,B|80:264|80:264|56:244|44:200,1,100,0|0,0:0|0:0,0:0:0
132,180,33607,1,8,0:0:0
216,148,33836,1,4,0:0:0
256,68,34065,1,4,0:0:0
296,148,34294,1,0,0:0:0
380,180,34523,6,0,B|432:196|440:248|440:248|424:308|364:308,1,200,8|0,0:0|0:0,0:0:0
308,236,35210,1,0,0:0:0
224,204,35439,1,8,0:0:0
296,148,35668,1,4,0:0:0
308,236,35897,1,4,0:0:0
212,120,36126,6,0,B|156:124|112:84,1,100,0|8,0:0|0:0,0:0:0
64,20,36584,2,0,B|112:8|160:37,1,100
100,104,37042,1,0,0:0:0
96,192,37271,1,8,0:0:0
184,204,37500,6,0,B|196:260|240:284,1,100,0|4,0:0|0:0,0:0:0
300,288,37882,1,4,0:0:0
360,276,38034,1,0,0:0:0
404,236,38187,1,4,0:0:0
424,180,38340,1,4,0:0:0
408,124,38492,1,0,0:0:0
364,84,38645,1,2,0:0:0
256,192,38798,12,4,39660,0:0:0
144,152,40118,6,0,B|192:184|192:236,1,100,8|2,0:0|0:0,0:0:0
248,164,40576,1,0,0:0:0
264,76,40805,2,0,B|296:124|348:124,1,100,2|8,0:0|0:0,0:0:0
344,36,41263,1,2,0:0:0
348,124,41492,2,0,B|400:124|432:172,1,100,0|2,0:0|0:0,0:0:0
352,212,41950,6,0,B|368:276|316:304|344:360,1,150,8|0,0:0|0:0,0:0:0
300,376,42408,2,0,B|268:352|240:376|204:348,1,100,0|2,0:0|0:0,0:0:0
176,316,42751,1,0,0:0:0
172,272,42866,1,8,0:0:0
260,280,43095,1,2,0:0:0
352,212,43324,6,0,B|296:208|264:152,1,100,0|2,0:0|0:0,0:0:0
188,196,43782,2,0,B|276:180|308:116,1,150,8|0,0:0|0:0,0:0:0
348,140,44240,2,0,B|300:104|320:48,1,100,0|2,0:0|0:0,0:0:0
232,76,44698,1,8,0:0:0
152,120,44927,6,0,B|104:156|96:220|136:256|136:256|128:304,1,200,2|2,0:0|0:0,0:0:0
212,336,45614,1,8,0:0:0
300,336,45843,1,2,0:0:0
384,304,46072,2,0,B|376:260|376:260|416:224|408:160|360:124,1,200,0|8,0:0|0:0,0:0:0
312,200,46759,1,2,0:0:0
188,116,46988,6,0,B|152:60|72:56,1,100,4|2,0:0|0:0,0:0:0
188,16,47446,2,0,B|252:64|328:56,1,150,8|0,0:0|0:0,0:0:0
372,44,47904,1,0,0:0:0
440,104,48133,1,2,0:0:0
400,184,48362,1,8,0:0:0
324,140,48591,2,0,B|264:232|136:220,1,200,2|2,0:0|0:0,0:0:0
188,140,49278,6,0,B|248:232|376:220,1,200,8|0,0:0|0:0,0:0:0
324,304,49965,1,2,0:0:0
368,316,50079,1,0,0:0:0
412,300,50194,2,0,B|456:276|456:216,1,100,8|2,0:0|0:0,0:0:0
396,148,50652,1,0,0:0:0
368,264,50881,5,2,0:0:0
316,192,51110,2,0,B|292:108|196:92,1,166.666666666667,8|0,0:0|0:0,0:0:0
164,88,51568,2,0,B|104:84|72:36,1,100,0|2,0:0|0:0,0:0:0
164,88,52026,1,8,0:0:0
116,12,52255,6,0,B|32:44|-8:180|28:276,1,300,2|8,0:0|0:0,0:0:0
84,340,53171,1,2,0:0:0
108,300,53285,1,0,0:0:0
108,256,53400,2,0,B|148:220|200:220,2,100,0|2|8,0:0|0:0|0:0,0:0:0
184,308,54087,1,2,0:0:0
200,220,54316,6,0,B|200:168|164:128,1,100,4|2,0:0|0:0,0:0:0
184,88,54660,2,0,B|236:88|276:52,1,100,0|2,0:0|0:0,0:0:0
332,124,55118,1,0,0:0:0
332,124,55232,2,0,B|294:157|294:213,1,100,0|2,0:0|0:0,0:0:0
256,296,55690,1,8,0:0:0
396,264,55919,6,0,B|428:224|436:172,1,100,2|4,0:0|0:0,0:0:0
392,96,56377,1,2,0:0:0
372,56,56492,1,0,0:0:0
292,16,56721,2,0,B|248:40|252:100,1,100,0|0,0:0|0:0,0:0:0
252,144,57064,2,0,B|256:205|212:229,1,100,0|2,0:0|0:0,0:0:0
168,152,57522,1,8,0:0:0
204,24,57751,5,2,0:0:0
128,72,57980,1,4,0:0:0
280,60,58209,1,2,0:0:0
280,60,58324,1,0,0:0:0
252,144,58553,1,0,0:0:0
212,224,58782,2,0,B|264:252|320:224|332:168,1,150,0|2,0:0|0:0,0:0:0
364,92,59354,5,8,0:0:0
436,144,59583,1,2,0:0:0
400,228,59812,2,0,B|368:300|284:316,1,150,0|0,0:0|0:0,0:0:0
240,320,60270,2,0,B|196:280|124:300,1,100,8|2,0:0|0:0,0:0:0
176,380,60728,2,0,B|200:304|204:228,1,150,4|0,0:0|0:0,0:0:0
208,188,61186,2,0,B|208:136|236:92,1,100,8|2,0:0|0:0,0:0:0
296,160,61644,1,4,0:0:0
384,132,61873,6,0,B|384:184|356:228,2,100,2|8|2,0:0|0:0|0:0,0:0:0
280,228,62560,2,0,B|256:328,1,100,0|2,0:0|0:0,0:0:0
184,276,63018,1,8,0:0:0
208,188,63247,2,0,B|80:200|32:104,1,200,2|2,0:0|0:0,0:0:0
120,84,63934,6,0,B|168:132|244:68|296:160,1,200,8|0,0:0|0:0,0:0:0
208,188,64621,1,2,0:0:0
268,256,64850,1,8,0:0:0
180,272,65079,1,2,0:0:0
180,272,65308,6,0,B|88:220|152:144|105:97,1,200,4|8,0:0|0:0,0:0:0
40,160,65995,1,2,0:0:0
52,248,66224,2,0,B|100:360|208:368,1,200,4|0,0:0|0:0,0:0:0
288,348,66911,1,2,0:0:0
328,328,67026,1,0,0:0:0
352,292,67140,6,0,B|336:228|400:228|364:148,1,150,4|4,0:0|0:0,0:0:0
160,292,67966,2,0,B|176:228|112:228|148:148,1,150,4|4,0:0|0:0,0:0:0
256,176,68557,1,4,0:0:0
256,336,68793,1,2,0:0:0
256,320,68872,1,0,0:0:0
256,304,68951,1,0,0:0:0
256,288,69029,5,4,0:0:0
256,152,69384,1,4,0:0:0
80,136,69856,1,4,0:0:0
208,172,70210,2,0,B|256:180|308:172,1,100,4|4,0:0|0:0,0:0:0
396,152,70683,1,2,0:0:0
396,168,70762,1,0,0:0:0
396,184,70840,1,0,0:0:0
392,200,70919,5,6,0:0:0
320,256,71148,1,0,0:0:0
232,260,71377,1,10,0:0:0
248,348,71606,2,0,B|188:356|160:312,1,100,0|2,0:0|0:0,0:0:0
136,228,72064,2,0,B|108:184|128:132,1,100,2|10,0:0|0:0,0:0:0
208,172,72522,6,0,B|236:92|176:32|108:44,1,200,2|2,0:0|0:0,0:0:0
128,132,73209,2,0,B|84:160|32:140,1,100,10|2,0:0|0:0,0:0:0
40,184,73552,1,2,0:0:0
0,200,73667,2,0,B|28:244|8:296,1,100,2|2,0:0|0:0,0:0:0
84,344,74125,2,0,B|180:288|200:184,1,200,10|4,0:0|0:0,0:0:0
256,84,74812,6,0,B|256:24,2,50,2|0|10,0:0|0:0|0:0,0:0:0
272,172,75270,1,0,0:0:0
312,192,75384,1,2,0:0:0
356,200,75499,1,2,0:0:0
336,112,75728,1,2,0:0:0
344,24,75957,6,0,B|404:32|424:88,1,100,10|2,0:0|0:0,0:0:0
432,168,76415,2,0,B|452:236|396:276|396:276|332:320,1,200,2|8,0:0|0:0,0:0:0
256,276,77102,1,2,0:0:0
224,308,77216,1,0,0:0:0
180,320,77331,2,0,B|116:276|116:276|60:236|80:168,1,200,2|8,0:0|0:0,0:0:0
164,200,78018,1,0,0:0:0
252,192,78247,5,6,0:0:0
204,116,78476,1,0,0:0:0
292,108,78705,1,10,0:0:0
340,184,78934,2,0,B|452:164|488:64,1,200,2|2,0:0|0:0,0:0:0
420,4,79621,1,8,0:0:0
356,64,79850,6,0,B|392:164|504:184,1,200,2|2,0:0|0:0,0:0:0
444,252,80537,1,8,0:0:0
356,276,80766,2,0,B|272:232|272:232|260:112,1,200,2|2,0:0|0:0,0:0:0
176,148,81453,1,8,0:0:0
124,224,81682,1,2,0:0:0
124,224,81911,6,0,B|208:268|208:268|220:388,2,200,6|8|0,0:0|0:0|0:0,0:0:0
176,148,83056,1,2,0:0:0
88,140,83285,1,8,0:0:0
140,64,83514,1,2,0:0:0
256,192,83743,12,0,85346,0:0:0
384,104,85575,5,6,0:0:0
408,192,85804,1,0,0:0:0
384,280,86033,2,0,B|304:296|228:264,1,150,10|2,0:0|0:0,0:0:0
212,232,86491,2,0,B|176:280|188:328,2,100,0|2|10,0:0|0:0|0:0,0:0:0
288,188,87178,2,0,B|244:128|148:140|120:208,1,200,2|0,0:0|0:0,0:0:0
92,120,87865,6,0,B|132:80|180:76,1,100,10|2,0:0|0:0,0:0:0
224,72,88209,1,0,0:0:0
268,84,88323,1,2,0:0:0
352,120,88552,2,0,B|444:80,1,100,2|10,0:0|0:0,0:0:0
428,168,89010,1,0,0:0:0
360,280,89239,6,0,B|452:240,2,100,4|2|10,0:0|0:0|0:0,0:0:0
332,368,89926,1,0,0:0:0
292,348,90041,1,2,0:0:0
272,308,90155,1,0,0:0:0
204,368,90384,1,2,0:0:0
200,280,90613,1,8,0:0:0
272,228,90842,6,0,B|396:260|468:88|352:20,1,300,2|8,0:0|0:0,0:0:0
300,92,91758,1,2,0:0:0
300,92,91873,1,0,0:0:0
300,92,91987,2,0,B|212:40,1,100,2|0,0:0|0:0,0:0:0
109,77,92445,2,0,B|196:128,1,100,8|0,0:0|0:0,0:0:0
240,256,92903,5,6,0:0:0
324,224,93132,1,0,0:0:0
400,172,93361,1,10,0:0:0
396,260,93590,1,2,0:0:0
316,304,93819,1,0,0:0:0
240,256,94048,6,0,B|176:312|100:292|72:228,1,200,2|2,0:0|0:0,0:0:0
160,200,94735,1,0,0:0:0
248,172,94964,2,0,B|220:108|136:88|80:144,1,200,2|2,0:0|0:0,0:0:0
96,52,95651,1,0,0:0:0
184,28,95880,1,2,0:0:0
260,72,96109,1,8,0:0:0
348,60,96338,6,0,B|431:31|375:165|375:165|507:124|478:200,1,300,2|8,0:0|0:0,0:0:0
404,248,97254,1,0,0:0:0
316,240,97483,1,0,0:0:0
292,152,97712,1,2,0:0:0
224,212,97941,1,10,0:0:0
224,212,98056,1,0,0:0:0
144,172,98285,6,0,B|252:68,1,150,2|0,0:0|0:0,0:0:0
296,52,98743,1,0,0:0:0
376,96,98972,1,0,0:0:0
380,184,99201,1,0,0:0:0
456,136,99430,1,0,0:0:0
456,48,99659,1,0,0:0:0
376,8,99888,1,0,0:0:0
220,228,100231,5,6,0:0:0
308,240,100460,2,0,B|348:280|400:272,1,100,2|0,0:0|0:0,0:0:0
380,184,100919,2,0,B|340:144|288:152,1,100,2|0,0:0|0:0,0:0:0
200,136,101377,2,0,B|128:140|64:100|32:44,1,200,6|6,0:0|0:0,0:0:0
8,132,102064,1,0,0:0:0
76,192,102293,2,0,B|76:248|44:292|44:292|88:300|124:344,1,200,2|2,0:0|0:0,0:0:0
148,256,102980,1,0,0:0:0
172,340,103209,2,0,B|205:298|249:290|249:290|217:246|217:190,1,200,6|0,0:0|0:0,0:0:0
304,220,103896,5,4,0:0:0
360,200,104048,1,4,0:0:0
400,152,104201,1,0,0:0:0
400,92,104354,1,6,0:0:0
380,36,104506,1,0,0:0:0
328,8,104659,1,0,0:0:0
268,8,104812,1,4,0:0:0
216,80,105041,5,4,0:0:0
232,168,105270,1,4,0:0:0
232,168,105384,1,0,0:0:0
144,144,105575,1,4,0:0:0
256,192,105728,12,2,107102,0:0:0
256,192,107216,12,6,108476,0:0:0
160,140,108705,5,0,0:0:0
184,124,108819,1,2,0:0:0
204,180,109048,1,0,0:0:0
248,216,109277,2,0,B|276:244|304:252,1,64.9999988377094,2|2,0:0|0:0,0:0:0
356,268,109735,1,0,0:0:0
356,268,109850,1,2,0:0:0
396,228,110079,1,4,0:0:0
332,164,110308,6,0,B|360:140|392:136,1,64.9999988377094,4|2,0:0|0:0,0:0:0
416,124,110651,2,0,B|450:109|468:83,1,64.9999988377094,0|2,0:0|0:0,0:0:0
432,36,111109,1,2,0:0:0
376,48,111338,2,0,B|324:56|288:88,1,97.4999982565642,4|4,0:0|0:0,0:0:0
252,132,111911,1,6,0:0:0
168,104,112140,6,0,B|154:134|124:152,1,64.9999970245363,4|0,0:0|0:0,0:0:0
100,168,112483,1,2,0:0:0
112,224,112712,1,0,0:0:0
160,256,112941,1,2,0:0:0
208,220,113170,2,0,B|256:240|304:220,1,97.4999982565642,2|2,0:0|0:0,0:0:0
352,256,113743,1,6,0:0:0
400,224,113972,1,4,0:0:0
256,192,114430,12,4,115804,0:0:0
200,280,116033,5,0,0:0:0
244,280,116147,2,0,B|288:276|292:244|336:236,2,100,2|0|2,0:0|0:0|0:0,0:0:0
224,192,116834,1,2,0:0:0
136,212,117063,1,0,0:0:0
136,212,117178,1,2,0:0:0
172,128,117407,6,0,B|216:96|268:120,1,100,0|2,0:0|0:0,0:0:0
316,192,117865,1,0,0:0:0
316,192,117979,1,2,0:0:0
388,244,118208,2,0,B|420:200|396:148,1,100,0|2,0:0|0:0,0:0:0
336,84,118666,2,0,B|280:32|196:40,1,150,2|2,0:0|0:0,0:0:0
172,128,119239,1,0,0:0:0
240,240,119468,6,0,B|228:296|172:312,1,100,2|0,0:0|0:0,0:0:0
132,312,119811,2,0,B|76:316|48:360,2,100,2|0|2,0:0|0:0|0:0,0:0:0
148,224,120498,2,0,B|180:176|172:128,1,100,2|0,0:0|0:0,0:0:0
192,88,120842,5,4,0:0:0
244,12,121071,1,6,0:0:0
260,20,121147,1,0,0:0:0
268,36,121224,1,0,0:0:0
276,48,121300,1,4,0:0:0
256,168,121633,1,4,0:0:0
256,168,121800,1,4,0:0:0
332,224,122133,5,4,0:0:0
324,284,122300,1,4,0:0:0
300,336,122467,1,0,0:0:0
256,376,122633,1,0,0:0:0
212,336,122800,1,4,0:0:0
184,284,122966,1,0,0:0:0
176,224,123133,2,0,B|172:140|88:92,1,166.666666666667,4|4,0:0|0:0,0:0:0
