osu file format v10

[General]
AudioFilename: 12 - Shimatani Hitomi - ANGELUS -Angelus- (TV-Size)192k.mp3
AudioLeadIn: 0
PreviewTime: 70919
Countdown: 0
SampleSet: Normal
StackLeniency: 0.7
Mode: 0
LetterboxInBreaks: 0

[Editor]
DistanceSpacing: 0.8
BeatDivisor: 4
GridSize: 4

[Metadata]
Title:Angelus (TV Size)
TitleUnicode:Angelus (TV Size)
Artist:Shimatani Hitomi
ArtistUnicode:Shimatani Hitomi
Creator:Kei
Version:Hard
Source:InuYasha
Tags:opening Snepif sunrise entertainment dance dance revolution supernova 2
BeatmapID:163936
BeatmapSetID:53834

[Difficulty]
HPDrainRate:5
CircleSize:4
OverallDifficulty:5
ApproachRate:7
SliderMultiplier:1.7
SliderTickRate:2

[Events]
//Background and Video events
Video,21800,"videoplz.avi"
0,0,"Inuyasha.jpg"
//Break Periods
2,10281,21547
//Storyboard Layer 0 (Background)
//Storyboard Layer 1 (Fail)
//Storyboard Layer 2 (Pass)
//Storyboard Layer 3 (Foreground)
//Storyboard Sound Samples
//Background Colour Transformations
3,100,0,0,0

[TimingPoints]
2753,458.015267175573,4,2,1,85,1,0
2753,-153.846153846153,4,2,1,85,0,0
10081,-100,4,2,1,80,0,0
22905,500,4,2,1,80,1,0
24905,458.015267175573,4,2,1,80,1,0
25210,-100,4,2,1,85,0,0
39660,458.015267175573,4,2,1,80,1,0
39889,-100,4,2,1,85,0,0
67140,472.44094488189,4,2,1,85,1,0
70919,458.015267175573,4,1,1,65,1,1
100231,-100,4,2,1,85,0,0
108476,458.015267175573,4,2,1,80,1,0
108476,-153.846153846154,4,2,1,80,0,0
108628,-153.846153846154,4,2,1,85,0,0
115804,-100,4,2,1,85,0,0
121300,500,4,2,1,85,1,0

[Colours]
Combo1 : 240,240,240
Combo2 : 223,0,0
Combo3 : 11,46,187
Combo4 : 235,244,62
Combo5 : 255,164,164

[HitObjects]
192,112,2753,1,6,0:0:0
200,156,2982,2,0,B|216:208|188:240,1,82.8749985180796,2|0,0:0|0:0,0:0:0
184,280,3554,1,2,0:0:0
228,292,3783,2,0,B|264:272|308:284,1,82.8749985180796,2|2,0:0|0:0,0:0:0
344,312,4356,1,4,0:0:0
388,312,4585,5,6,0:0:0
416,276,4814,2,0,B|488:244|476:164,1,138.124997530133,2|2,0:0|0:0,0:0:0
476,120,5615,2,0,B|468:72|424:60,1,82.8749962062838,6|6,0:0|0:0,0:0:0
380,56,6188,1,0,0:0:0
336,68,6417,5,6,0:0:0
308,100,6646,2,0,B|292:124,1,27.6249987354279,0|2,0:0|0:0,0:0:0
272,160,6989,2,0,B|260:184|232:200,2,55.2499974708558,2|0|2,0:0|0:0|0:0,0:0:0
256,276,7791,1,2,0:0:0
232,328,8020,1,4,0:0:0
184,356,8249,1,4,0:0:0
256,192,8707,12,4,10081,0:0:0
220,256,22447,5,4,0:0:0
288,256,22676,1,0,0:0:0
220,256,22905,1,4,0:0:0
160,188,23238,1,4,0:0:0
160,188,23405,1,4,0:0:0
240,148,23738,6,0,B|240:180|256:204,2,56.6666666666667,4|4|4,0:0|0:0|0:0,0:0:0
272,116,24238,2,0,B|328:136,2,56.6666666666667,4|0|4,0:0|0:0|0:0,0:0:0
256,72,24738,2,0,B|280:48|304:40,1,56.6666666666667,0|4,0:0|0:0,0:0:0
148,144,25363,6,0,B|100:224|16:256,1,170,8|0,0:0|0:0,0:0:0
48,316,26050,1,0,0:0:0
116,304,26279,2,0,B|128:256|172:248,1,85,8|4,0:0|0:0,0:0:0
188,316,26737,2,0,B|212:352|256:364|256:364|300:352|328:316,1,170,4|8,0:0|0:0,0:0:0
396,304,27424,6,0,B|384:256|340:248,1,85,0|0,0:0|0:0,0:0:0
364,184,27882,1,0,0:0:0
432,196,28111,1,8,0:0:0
468,136,28340,1,4,0:0:0
400,120,28569,1,4,0:0:0
372,56,28798,5,0,0:0:0
316,20,29027,2,0,B|268:36|240:68|232:112,1,127.5,8|0,0:0|0:0,0:0:0
232,144,29485,2,0,B|220:184|208:200|168:212,1,85,0|0,0:0|0:0,0:0:0
124,240,29943,2,0,B|76:248|52:284,2,85,8|0|4,0:0|0:0|0:0,0:0:0
136,308,30630,5,0,0:0:0
204,320,30859,2,0,B|292:304|320:208,1,170,8|4,0:0|0:0,0:0:0
380,244,31546,2,0,B|404:208|448:196,2,85,0|12|0,0:0|0:0|0:0,0:0:0
352,308,32233,1,4,0:0:0
448,276,32462,5,0,0:0:0
448,276,32691,2,0,B|400:192|332:148,1,170,8|0,0:0|0:0,0:0:0
296,96,33378,1,0,0:0:0
256,40,33607,1,8,0:0:0
216,96,33836,1,4,0:0:0
256,152,34065,6,0,B|176:184|208:216|112:240,1,170,4|8,0:0|0:0,0:0:0
72,184,34752,1,0,0:0:0
132,152,34981,2,0,B|212:184|180:216|276:240,1,170,0|8,0:0|0:0,0:0:0
332,280,35668,6,0,B|304:320|256:308,2,85,4|4|0,0:0|0:0|0:0,0:0:0
392,312,36355,2,0,B|448:268|432:200,1,127.5,8|0,0:0|0:0,0:0:0
420,168,36813,1,0,0:0:0
488,152,37042,1,0,0:0:0
504,84,37271,2,0,B|464:-4|364:12,1,170,8|4,0:0|0:0,0:0:0
356,80,37958,1,0,0:0:0
300,120,38187,2,0,B|256:128|216:120,1,85,4|0,0:0|0:0,0:0:0
160,80,38645,1,2,0:0:0
256,192,38874,12,4,39660,0:0:0
168,276,40118,5,8,0:0:0
100,272,40347,1,2,0:0:0
76,208,40576,1,0,0:0:0
144,212,40805,2,0,B|180:160|224:160|260:88,1,170,2|2,0:0|0:0,0:0:0
256,20,41492,1,0,0:0:0
200,56,41721,1,2,0:0:0
260,88,41950,2,0,B|296:160|340:160|376:212,1,170,8|0,0:0|0:0,0:0:0
436,180,42637,2,0,B|416:140|372:112,2,85,2|8|2,0:0|0:0|0:0,0:0:0
388,316,43553,5,2,0:0:0
356,256,43782,2,0,B|264:256|192:296,1,170,8|0,0:0|0:0,0:0:0
136,332,44469,1,2,0:0:0
192,296,44698,2,0,B|238:225|230:133,1,170,8|0,0:0|0:0,0:0:0
192,76,45385,1,2,0:0:0
256,52,45614,2,0,B|316:44|344:64|344:64|376:88|420:84,1,170,8|0,0:0|0:0,0:0:0
484,64,46301,1,2,0:0:0
468,132,46530,2,0,B|460:192|480:220|480:220|504:252|500:296,1,170,8|4,0:0|0:0,0:0:0
380,284,47217,5,2,0:0:0
312,284,47446,2,0,B|228:276|228:276|148:244,1,170,8|0,0:0|0:0,0:0:0
172,180,48133,1,2,0:0:0
216,128,48362,2,0,B|136:96|136:96|52:88,2,170,8|0|8,0:0|0:0|0:0,0:0:0
280,156,49507,1,2,0:0:0
316,96,49736,1,0,0:0:0
256,60,49965,1,2,0:0:0
300,8,50194,1,8,0:0:0
360,40,50423,1,2,0:0:0
360,172,50881,5,2,0:0:0
404,224,51110,2,0,B|392:296|324:312,1,127.5,8|0,0:0|0:0,0:0:0
288,316,51568,1,0,0:0:0
252,376,51797,1,2,0:0:0
184,376,52026,1,8,0:0:0
152,316,52255,2,0,B|112:319|110:294|110:294|48:296|75:255|75:255|32:278|43:219|43:219|18:215|23:173,1,255,2|8,0:0|0:0,0:0:0
20,104,53171,1,2,0:0:0
52,96,53285,1,0,0:0:0
80,112,53400,2,0,B|119:108|121:133|121:133|183:131|156:172|156:172|199:149|188:208|188:208|213:212|208:254,1,255,2|2,0:0|0:0,0:0:0
280,332,54316,5,4,0:0:0
324,268,54545,2,0,B|348:260|360:248,1,42.5,2|0,0:0|0:0,0:0:0
384,184,54889,1,0,0:0:0
336,136,55118,2,0,B|264:136|240:208,1,127.5,4|2,0:0|0:0,0:0:0
256,272,55690,1,8,0:0:0
256,340,55919,6,0,B|216:364|168:352,1,85,2|4,0:0|0:0,0:0:0
108,344,56377,2,0,B|88:336|64:340,1,42.5,0|2,0:0|0:0,0:0:0
36,280,56721,2,0,B|44:236|72:200,1,85,0|6,0:0|0:0,0:0:0
70,203,57064,1,0,0:0:0
136,204,57293,1,2,0:0:0
136,204,57522,2,0,B|161:237|168:284,1,85,8|2,0:0|0:0,0:0:0
240,232,57980,5,4,0:0:0
264,168,58209,1,2,0:0:0
276,136,58324,2,0,B|292:100|292:100|300:84|324:64,1,85
372,112,58782,2,0,B|316:16|192:20,1,212.5,0|8,0:0|0:0,0:0:0
172,84,59583,1,2,0:0:0
220,132,59812,2,0,B|160:168|148:236,1,127.5,0|0,0:0|0:0,0:0:0
144,268,60270,6,0,B|140:320|96:336,2,85,8|2|4,0:0|0:0|0:0,0:0:0
212,268,60957,1,2,0:0:0
256,320,61186,1,8,0:0:0
300,268,61415,1,2,0:0:0
368,268,61644,6,0,B|372:320|416:336,2,85,4|2|8,0:0|0:0|0:0,0:0:0
324,216,62331,2,0,B|320:164|276:148,2,85,2|0|2,0:0|0:0|0:0,0:0:0
392,200,63018,2,0,B|406:159|458:155,2,85,8|2|0,0:0|0:0|0:0,0:0:0
324,216,63705,1,2,0:0:0
368,268,63934,1,8,0:0:0
240,224,64392,6,0,B|136:220|84:152,1,170,0|8,0:0|0:0,0:0:0
36,116,65079,1,2,0:0:0
52,184,65308,2,0,B|112:124|204:112,1,170,4|8,0:0|0:0,0:0:0
256,156,65995,1,2,0:0:0
308,112,66224,2,0,B|400:124|460:184,1,170,4|8,0:0|0:0,0:0:0
452,252,66911,5,2,0:0:0
436,280,67026,1,0,0:0:0
408,296,67140,1,4,0:0:0
352,212,67494,2,0,B|304:252|304:328|340:368,1,170,4|4,0:0|0:0,0:0:0
244,328,68321,2,0,B|232:284|248:244,1,85,4|4,0:0|0:0,0:0:0
256,108,69029,5,4,0:0:0
176,44,69384,2,0,B|256:20|344:44,1,170,4|4,0:0|0:0,0:0:0
316,140,70210,1,4,0:0:0
256,172,70447,1,4,0:0:0
196,140,70683,1,0,0:0:0
184,236,70919,5,6,0:0:0
128,200,71148,1,0,0:0:0
108,136,71377,2,0,B|124:68|184:44|240:64,1,170,10|2,0:0|0:0,0:0:0
304,72,72064,1,2,0:0:0
316,140,72293,1,8,0:0:0
372,180,72522,2,0,B|424:196|424:196|476:224|476:292,1,170,2|2,0:0|0:0,0:0:0
428,340,73209,2,0,B|376:324|376:324|324:296|323:227,1,170,10|2,0:0|0:0,0:0:0
256,224,73896,1,0,0:0:0
188,228,74125,2,0,B|187:296|135:324|135:324|83:340,1,170,10|4,0:0|0:0,0:0:0
36,292,74812,5,2,0:0:0
36,292,75041,2,0,B|36:223|88:195|88:195|140:179,1,170,10|2,0:0|0:0,0:0:0
116,116,75728,1,0,0:0:0
48,100,75957,1,10,0:0:0
96,52,76186,2,0,B|160:13|205:103|257:39|257:39|308:103|347:13|411:52,1,340,2|2,0:0|0:0,0:0:0
380,112,77331,2,0,B|296:152|256:124|256:124|216:152|136:112,1,255,2|0,0:0|0:0,0:0:0
104,196,78247,5,6,0:0:0
152,244,78476,1,0,0:0:0
176,308,78705,1,10,0:0:0
240,284,78934,1,2,0:0:0
308,276,79163,1,0,0:0:0
240,284,79392,1,2,0:0:0
376,292,79850,6,0,B|460:256|456:144,1,170,2|0,0:0|0:0,0:0:0
420,96,80537,1,8,0:0:0
400,32,80766,2,0,B|316:68|320:180,1,170,2|2,0:0|0:0,0:0:0
352,228,81453,1,8,0:0:0
284,232,81682,1,2,0:0:0
240,284,81911,6,0,B|144:288|88:220,2,170,6|8|0,0:0|0:0|0:0,0:0:0
220,220,83056,1,2,0:0:0
264,168,83285,1,8,0:0:0
284,104,83514,1,2,0:0:0
256,192,83743,12,6,85575,0:0:0
436,264,86033,2,0,B|484:192|484:192|436:124,1,170,10|2,0:0|0:0,0:0:0
376,156,86720,1,2,0:0:0
308,140,86949,1,8,0:0:0
264,192,87178,2,0,B|176:212|96:192,1,170,2|0,0:0|0:0,0:0:0
136,244,87865,2,0,B|116:156|136:76,1,170,10|2,0:0|0:0,0:0:0
204,76,88552,1,0,0:0:0
248,128,88781,2,0,B|308:88|344:120|408:72,1,170,10|4,0:0|0:0,0:0:0
476,64,89468,5,2,0:0:0
468,132,89697,2,0,B|428:192|460:228|412:292,1,170,10|2,0:0|0:0,0:0:0
413,290,90384,1,2,0:0:0
348,276,90613,1,8,0:0:0
284,300,90842,1,2,0:0:0
256,360,91071,6,0,B|164:344|112:256,1,170,2|8,0:0|0:0,0:0:0
76,212,91758,1,2,0:0:0
108,196,91873,1,0,0:0:0
140,196,91987,2,0,B|232:180|284:92,1,170,2|8,0:0|0:0,0:0:0
324,52,92674,1,0,0:0:0
256,36,92903,5,2,0:0:0
188,52,93132,2,0,B|160:16|104:12,2,85,0|10|2,0:0|0:0|0:0,0:0:0
232,104,93819,1,0,0:0:0
232,104,94048,6,0,B|276:180|368:196,1,170,2|2,0:0|0:0,0:0:0
436,196,94735,1,0,0:0:0
368,196,94964,2,0,B|276:212|231:288,1,170,2|2,0:0|0:0,0:0:0
240,356,95651,1,0,0:0:0
172,348,95880,1,2,0:0:0
160,280,96109,1,8,0:0:0
100,316,96338,1,2,0:0:0
100,248,96567,2,0,B|64:168|124:168|96:80,2,170,2|8|0,0:0|0:0|0:0,0:0:0
160,280,97712,5,2,0:0:0
192,220,97941,1,2,0:0:0
192,220,98056,1,0,0:0:0
208,152,98285,1,6,0:0:0
256,192,98514,12,0,99888,0:0:0
256,296,100231,22,0,B|276:212|324:192|324:192|276:172|256:88,1,255,4|2,0:0|0:0,0:0:0
168,192,101377,1,6,0:0:0
256,296,101835,1,6,0:0:0
124,320,102293,1,2,0:0:0
76,192,102751,2,0,B|88:128|144:96|204:108,2,170,2|6|2,0:0|0:0|0:0,0:0:0
144,192,103896,2,0,B|132:128|76:96|16:108,2,170,6|4|6,0:0|0:0|0:0,0:0:0
208,176,105041,5,4,0:0:0
256,128,105270,1,4,0:0:0
256,128,105384,1,0,0:0:0
304,176,105613,1,4,0:0:0
256,192,105842,12,2,107102,0:0:0
256,192,107216,12,6,108476,0:0:0
256,272,108934,5,0,0:0:0
180,316,109277,2,0,B|152:324|124:316,1,55.249999012053,2|2,0:0|0:0,0:0:0
84,308,109735,2,0,B|52:286|52:234,1,82.8749985180796,2|4,0:0|0:0,0:0:0
52,192,110308,5,6,0:0:0
52,148,110537,2,0,B|52:96|83:74,1,82.8749985180796,2|0,0:0|0:0,0:0:0
128,64,111109,2,0,B|154:56|182:64,1,55.249999012053,2|4,0:0|0:0,0:0:0
224,136,111682,1,4,0:0:0
256,104,111911,1,0,0:0:0
296,124,112140,5,6,0:0:0
324,160,112369,2,0,B|396:160|448:212,1,138.124997530133,2|2,0:0|0:0,0:0:0
448,256,113170,2,0,B|396:308|324:308,1,138.124997530133,2|6,0:0|0:0,0:0:0
280,300,113972,1,4,0:0:0
256,192,114430,12,6,115804,0:0:0
276,336,116262,6,0,P|336:320|388:264,1,127.5,0|2,0:0|0:0,0:0:0
408,212,116834,1,2,0:0:0
384,148,117063,1,0,0:0:0
384,112,117178,1,2,0:0:0
408,48,117407,1,0,0:0:0
384,112,117636,6,0,B|336:112|336:112|304:120|304:120|256:120,1,127.5,2|2,0:0|0:0,0:0:0
196,148,118208,1,0,0:0:0
196,216,118437,1,2,0:0:0
256,248,118666,2,0,B|304:248|304:248|336:240|336:240|384:240,1,127.5,2|2,0:0|0:0,0:0:0
400,308,119239,1,0,0:0:0
456,272,119468,5,2,0:0:0
452,340,119697,1,0,0:0:0
452,340,119811,1,2,0:0:0
392,372,120040,1,0,0:0:0
336,332,120269,1,2,0:0:0
344,264,120498,6,0,B|296:232|316:200|272:152,1,127.5,2|6,0:0|0:0,0:0:0
256,92,121071,1,4,0:0:0
248,32,121300,1,4,0:0:0
168,76,121633,2,0,B|144:88|108:92,1,56.6666666666667,4|4,0:0|0:0,0:0:0
112,184,122133,6,4,B|136:172|172:168,2,56.6666666666667,4|4|0,0:0|0:0|0:0,0:0:0
128,228,122633,2,0,B|158:231|182:243,2,56.6666666666667,4|4|0,0:0|0:0|0:0,0:0:0
88,248,123133,2,0,B|144:300|128:380,1,141.666666666667,4|4,0:0|0:0,0:0:0
